<?xml version="1.0" standalone="no"?>
<!DOCTYPE svg PUBLIC "-//W3C//DTD SVG 1.1//EN" "http://www.w3.org/Graphics/SVG/1.1/DTD/svg11.dtd" >
<svg xmlns="http://www.w3.org/2000/svg" xmlns:xlink="http://www.w3.org/1999/xlink" version="1.1">
<metadata>
Created by FontForge 20170910 at Thu Jan 18 09:20:58 2007
 By Jimmy Wärting
Copyright 2007 Paul Barnes and Christian Schwartz. All Rights Reserved.
</metadata>
<defs>
<font id="Publico-Light" horiz-adv-x="537" >
  <font-face 
    font-family="Publico Light"
    font-weight="300"
    font-stretch="normal"
    units-per-em="1000"
    panose-1="0 0 0 0 0 0 0 0 0 0"
    ascent="800"
    descent="-200"
    x-height="505"
    cap-height="693"
    bbox="-157 -213 998 898"
    underline-thickness="50"
    underline-position="-100"
    unicode-range="U+0020-FB04"
  />
<missing-glyph horiz-adv-x="207" 
 />
    <glyph glyph-name="fi" unicode="fi" horiz-adv-x="518" 
d="M23 0v16l33 9c29 8 33 16 33 53v391h-68v18l68 19v37c0 139 97 213 222 213c69 0 96 -30 96 -60c0 -21 -14 -39 -47 -39c-28 0 -45 11 -49 42c-3 24 -9 30 -27 30c-63 0 -121 -27 -121 -140v-84h175l96 14l6 -3s-4 -39 -4 -106v-332c0 -39 5 -45 33 -53l33 -9v-16h-205
v16l32 9c29 8 33 16 33 53v341c0 35 -14 50 -36 50h-163v-390c0 -33 2 -44 24 -50l46 -13v-16h-210z" />
    <glyph glyph-name="fl" unicode="fl" horiz-adv-x="519" 
d="M297 0v16l32 9c29 9 33 16 33 53v580h-4c-39 0 -48 24 -52 50c-2 13 -9 20 -30 20c-61 0 -113 -31 -113 -141v-82h113l-10 -36h-103v-390c0 -33 3 -44 33 -53l37 -10v-16h-210v16l33 9c30 8 33 16 33 53v391h-68v18l68 19v40c0 137 86 210 215 210c52 0 83 -14 96 -31
l33 30l7 -6s-4 -52 -4 -119v-552c0 -39 5 -45 33 -53l34 -9v-16h-206z" />
    <glyph glyph-name="ff" unicode="ff" horiz-adv-x="555" 
d="M300 0v16l30 9c29 9 33 16 33 51v395h-200v-392c0 -33 2 -49 28 -54l42 -9v-16h-210v16l33 9c29 8 33 16 33 53v393h-68v16l68 19v43c0 120 89 197 192 197c56 0 74 -25 74 -49c0 -23 -18 -40 -45 -40c-29 0 -41 14 -45 37c-3 18 -8 24 -17 24c-43 0 -85 -31 -85 -123
v-90h200v56c0 120 89 198 208 198c56 0 77 -26 77 -53c0 -21 -13 -41 -43 -41c-36 0 -46 19 -51 42c-4 18 -6 24 -17 24c-47 0 -100 -32 -100 -124v-102h111l-9 -34h-102v-391c0 -34 3 -48 28 -53l52 -11v-16h-217z" />
    <glyph glyph-name="fj" unicode="fj" horiz-adv-x="510" 
d="M163 469v-390c0 -33 2 -44 24 -50l46 -13v-16h-210v16l33 9c29 8 33 16 33 53v391h-68v18l68 19v37c0 139 97 213 222 213c69 0 96 -30 96 -60c0 -21 -14 -39 -47 -39c-28 0 -45 11 -49 42c-3 24 -9 30 -27 30c-63 0 -121 -27 -121 -140v-84h175l97 14l6 -3
s-5 -39 -5 -105v-422c0 -156 -75 -202 -162 -202c-50 0 -71 27 -71 56c0 20 15 38 45 38c26 0 37 -10 41 -36c4 -27 8 -30 24 -30c29 0 49 24 49 74v530c0 35 -14 50 -44 50h-155z" />
    <glyph glyph-name="ffi" unicode="ffi" horiz-adv-x="812" 
d="M317 0v16l33 9c29 8 33 16 33 53v393h-200v-392c0 -33 2 -49 28 -54l42 -9v-16h-210v16l33 9c29 8 33 16 33 53v393h-68v16l68 19v43c0 120 89 197 192 197c56 0 74 -25 74 -49c0 -23 -18 -40 -45 -40c-29 0 -41 14 -45 37c-3 18 -8 24 -17 24c-43 0 -85 -31 -85 -123
v-90h200v38c0 139 97 213 222 213c69 0 96 -30 96 -60c0 -21 -14 -39 -47 -39c-28 0 -45 11 -49 42c-3 24 -9 30 -27 30c-63 0 -121 -27 -121 -140v-84h175l96 14l6 -3s-4 -39 -4 -106v-332c0 -39 5 -45 33 -53l33 -9v-16h-205v16l32 9c29 8 33 16 33 53v341
c0 35 -14 50 -36 50h-163v-390c0 -33 2 -44 24 -50l46 -13v-16h-210z" />
    <glyph glyph-name="ffl" unicode="ffl" horiz-adv-x="793" 
d="M297 0v16l33 9c30 8 33 16 33 53v393h-200v-392c0 -33 2 -49 28 -54l42 -9v-16h-210v16l33 9c29 8 33 16 33 53v393h-68v16l68 19v43c0 120 89 197 192 197c56 0 74 -25 74 -49c0 -23 -18 -40 -45 -40c-29 0 -41 14 -45 37c-3 18 -8 24 -17 24c-43 0 -85 -31 -85 -123
v-90h200v41c0 137 89 210 214 210c53 0 83 -14 97 -32l33 31l7 -6s-4 -52 -4 -119v-552c0 -39 5 -45 33 -53l34 -9v-16h-206v16l32 9c29 9 33 16 33 53v580h-5c-39 0 -48 24 -52 50c-2 13 -9 20 -30 20c-61 0 -112 -31 -112 -141v-82h113l-10 -36h-103v-390
c0 -33 3 -44 33 -53l37 -10v-16h-210z" />
    <glyph glyph-name=".notdef" horiz-adv-x="207" 
 />
    <glyph glyph-name="Lslash" unicode="&#x141;" horiz-adv-x="528" 
d="M13 247v36l91 41v288c0 45 -8 50 -38 56l-39 8v17h235v-17l-43 -8c-33 -6 -37 -11 -37 -56v-253l193 87v-36l-193 -87v-215c0 -68 3 -79 117 -79c96 0 111 7 138 44c13 16 39 69 56 133h23l-12 -206h-477v17l39 8c29 6 38 11 38 56v207z" />
    <glyph glyph-name="lslash" unicode="&#x142;" horiz-adv-x="245" 
d="M10 321v34l79 44v255c0 34 -6 36 -38 52l-33 16v16l142 14l7 -6s-4 -52 -4 -119v-186l82 47v-35l-82 -46v-329c0 -39 5 -45 33 -53l33 -9v-16h-206v16l33 9c29 8 33 16 33 53v287z" />
    <glyph glyph-name="Scaron" unicode="&#x160;" horiz-adv-x="482" 
d="M219 -13c-72 0 -139 20 -180 38l-11 176h23c15 -45 29 -81 50 -118c27 -45 62 -62 139 -62c93 0 133 62 133 128c0 79 -41 115 -161 176c-85 44 -167 85 -167 203c0 98 73 178 194 178c80 0 129 -15 157 -26l12 -157h-21c-20 55 -27 70 -41 94c-23 37 -40 56 -107 56
c-84 0 -132 -37 -132 -115c0 -77 36 -109 135 -160c139 -72 199 -116 199 -209c0 -111 -73 -202 -222 -202zM221 745l-123 130l8 10l131 -72l127 72l8 -10l-122 -130h-29z" />
    <glyph glyph-name="scaron" unicode="&#x161;" horiz-adv-x="394" 
d="M183 -12c-61 0 -112 11 -152 25l-2 145h20c11 -29 20 -56 32 -79c20 -37 48 -62 102 -62c63 0 110 36 110 95c0 56 -38 85 -114 117c-83 34 -142 71 -142 156c0 87 75 137 168 137c53 0 91 -9 127 -22l3 -125h-17c-15 32 -25 60 -40 80c-17 24 -40 38 -80 38
c-69 0 -101 -36 -101 -84c0 -53 39 -82 119 -115c82 -33 144 -69 144 -146c0 -90 -70 -160 -177 -160zM183 575l-123 130l8 10l131 -72l127 72l8 -10l-122 -130h-29z" />
    <glyph glyph-name="Yacute" unicode="&#xdd;" horiz-adv-x="582" 
d="M263 81v197l-177 320c-31 57 -37 63 -63 71l-27 7v17h226v-17l-34 -8c-37 -9 -47 -20 -18 -74l149 -276h3l128 268c29 60 18 72 -23 82l-33 8v17h192v-17l-24 -8c-32 -11 -44 -20 -85 -104l-136 -276v-207c0 -45 3 -50 37 -56l43 -8v-17h-238v17l43 8c34 6 37 11 37 56z
M416 805l-184 -61l-7 14l156 114c13 9 24 12 33 12c20 0 35 -17 35 -37c0 -15 -7 -32 -33 -42z" />
    <glyph glyph-name="yacute" unicode="&#xfd;" horiz-adv-x="478" 
d="M78 -205c-53 0 -73 27 -73 56c0 31 20 46 48 46c30 0 39 -15 47 -35c6 -16 9 -19 18 -19c27 0 54 37 76 90l28 68l-155 417c-18 49 -24 54 -49 63l-26 8v16h195v-16l-26 -7c-21 -6 -26 -14 -26 -29c0 -14 6 -31 13 -50l112 -302h4l106 301c9 26 13 45 12 58
c-1 12 -11 17 -29 22l-26 7v16h159v-16l-30 -8c-23 -6 -27 -19 -47 -73l-164 -442c-31 -84 -61 -171 -167 -171zM348 635l-184 -61l-7 14l156 114c13 9 24 12 33 12c20 0 35 -17 35 -37c0 -15 -7 -32 -33 -42z" />
    <glyph glyph-name="Thorn" unicode="&#xde;" 
d="M27 693h235v-17l-43 -8c-34 -6 -37 -11 -37 -56v-60h101c153 0 235 -60 235 -177c0 -125 -100 -201 -241 -201c-27 0 -51 5 -62 9v16c146 -7 220 36 220 165c0 118 -51 159 -158 159c-43 0 -78 -5 -95 -9v-433c0 -45 3 -50 37 -56l43 -8v-17h-235v17l39 8
c29 6 38 11 38 56v531c0 45 -8 50 -38 56l-39 8v17z" />
    <glyph glyph-name="thorn" unicode="&#xfe;" horiz-adv-x="561" 
d="M18 -199v16l34 9c29 8 33 16 33 51v778c0 36 -6 39 -37 54l-34 16v16l143 14l6 -6s-4 -53 -4 -119v-86c0 -41 -2 -80 -2 -80h3c41 31 98 57 160 57c104 0 206 -56 206 -245c0 -183 -108 -288 -278 -288c-28 0 -61 5 -90 14c0 0 1 -32 1 -65v-60c0 -37 6 -45 38 -51l44 -9
v-16h-223zM269 19c118 0 178 72 178 250c0 128 -61 204 -166 204c-56 0 -96 -21 -122 -35v-381c31 -25 58 -38 110 -38z" />
    <glyph glyph-name="Zcaron" unicode="&#x17d;" horiz-adv-x="535" 
d="M25 0v29l397 632v4h-80c-167 0 -198 -3 -222 -46c-15 -27 -28 -63 -43 -107h-20l12 181h437v-28l-393 -633v-4h72c189 0 229 13 247 46c12 22 26 55 50 123h22l-16 -197h-463zM267 745l-123 130l8 10l131 -72l127 72l8 -10l-122 -130h-29z" />
    <glyph glyph-name="zcaron" unicode="&#x17e;" horiz-adv-x="441" 
d="M22 0v18l306 457v4h-106c-84 0 -92 -6 -115 -44c-11 -17 -22 -38 -39 -79h-17l5 149h368v-15l-308 -460v-4h90c112 0 126 10 151 52c17 28 28 54 38 84h18l-9 -162h-382zM221 575l-123 130l8 10l131 -72l127 72l8 -10l-122 -130h-29z" />
    <glyph glyph-name="onehalf" unicode="&#xbd;" horiz-adv-x="614" 
d="M19 347v15l27 5c19 4 22 9 22 33v230h-50v15c51 9 74 25 97 52l11 -3v-294c0 -24 3 -29 22 -33l25 -5v-15h-154zM13 -50l496 764h40l-495 -764h-41zM362 0v31c40 34 78 67 102 95c51 58 66 88 66 134c0 49 -20 72 -58 72c-22 0 -34 -4 -37 -25c-3 -29 -13 -43 -34 -43
c-19 0 -30 14 -30 31c0 26 38 58 101 58c64 0 120 -38 120 -105c0 -73 -92 -135 -177 -200v-3h116c26 0 32 10 50 50h13l-9 -95h-223z" />
    <glyph glyph-name="onequarter" unicode="&#xbc;" horiz-adv-x="570" 
d="M19 347v15l27 5c19 4 22 9 22 33v230h-50v15c51 9 74 25 97 52l11 -3v-294c0 -24 3 -29 22 -33l25 -5v-15h-154zM17 -50l496 764h40l-495 -764h-41zM505 99v-46c0 -24 3 -29 22 -33l25 -5v-15h-152v15l27 5c19 4 22 9 22 33v46h-148v21l176 226h28v-219h47l-3 -28h-44z
M331 127h118v150h-1l-117 -149v-1z" />
    <glyph glyph-name="onesuperior" unicode="&#xb9;" horiz-adv-x="192" 
d="M19 347v15l27 5c19 4 22 9 22 33v230h-50v15c51 9 74 25 97 52l11 -3v-294c0 -24 3 -29 22 -33l25 -5v-15h-154z" />
    <glyph glyph-name="threequarters" unicode="&#xbe;" horiz-adv-x="601" 
d="M120 342c-49 0 -95 21 -95 54c0 17 9 30 28 30c16 0 26 -6 31 -28c7 -28 11 -37 45 -37c41 0 66 34 66 81s-16 73 -75 73h-18v21h20c47 0 66 28 66 74c0 51 -23 69 -55 69c-24 0 -33 -6 -36 -23c-4 -25 -11 -40 -33 -40c-19 0 -27 15 -27 28c0 35 45 56 99 56
c67 0 106 -36 106 -83c0 -38 -24 -77 -81 -89v-2c55 -6 93 -33 93 -84c0 -52 -40 -100 -134 -100zM48 -50l496 764h40l-495 -764h-41zM536 99v-46c0 -24 3 -29 22 -33l25 -5v-15h-152v15l27 5c19 4 22 9 22 33v46h-148v21l176 226h28v-219h47l-3 -28h-44zM362 127h118v150
h-1l-117 -149v-1z" />
    <glyph glyph-name="threesuperior" unicode="&#xb3;" horiz-adv-x="260" 
d="M104 342c-49 0 -95 21 -95 54c0 17 9 30 28 30c16 0 26 -6 31 -28c7 -28 11 -37 45 -37c41 0 66 34 66 81s-16 73 -75 73h-18v21h20c47 0 66 28 66 74c0 51 -23 69 -55 69c-24 0 -33 -6 -36 -23c-4 -25 -11 -40 -33 -40c-19 0 -27 15 -27 28c0 35 45 56 99 56
c67 0 106 -36 106 -83c0 -38 -24 -77 -81 -89v-2c55 -6 93 -33 93 -84c0 -52 -40 -100 -134 -100z" />
    <glyph glyph-name="twosuperior" unicode="&#xb2;" horiz-adv-x="265" 
d="M13 347v31c40 34 78 67 102 95c51 58 66 88 66 134c0 49 -20 72 -58 72c-22 0 -34 -4 -37 -25c-3 -29 -13 -43 -34 -43c-19 0 -30 14 -30 31c0 26 38 58 101 58c64 0 120 -38 120 -105c0 -73 -92 -135 -177 -200v-3h116c26 0 32 10 50 50h13l-9 -95h-223z" />
    <glyph glyph-name="brokenbar" unicode="&#xa6;" horiz-adv-x="222" 
d="M92 -130v383h38v-383h-38zM92 329v405h38v-405h-38z" />
    <glyph glyph-name="minus" unicode="&#x2212;" horiz-adv-x="437" 
d="M33 313v42h371v-42h-371z" />
    <glyph glyph-name="multiply" unicode="&#xd7;" horiz-adv-x="425" 
d="M76 133l-35 35l138 146l-140 148l35 35l139 -148l140 148l32 -35l-140 -148l138 -146l-32 -35l-139 146z" />
    <glyph glyph-name="space" unicode=" " horiz-adv-x="207" 
 />
    <glyph glyph-name="exclam" unicode="!" horiz-adv-x="246" 
d="M127 -4c-29 0 -52 23 -52 51c0 29 23 50 52 50c27 0 52 -21 52 -50c0 -28 -25 -51 -52 -51zM115 184l-38 460c-3 39 23 58 50 58c26 0 53 -19 50 -58l-38 -460h-24z" />
    <glyph glyph-name="quotedbl" unicode="&#x22;" horiz-adv-x="303" 
d="M73 491l-38 149c-10 44 20 63 44 63s52 -18 44 -63l-34 -149h-16zM213 491l-33 149c-8 44 20 63 44 63s54 -19 44 -63l-38 -149h-17z" />
    <glyph glyph-name="numbersign" unicode="#" horiz-adv-x="518" 
d="M83 0l42 202h-92l11 62h95l35 168h-92l11 62h95l42 199h37l-42 -199h131l42 199h36l-42 -199h93l-11 -62h-96l-35 -168h93l-12 -62h-95l-43 -202h-37l42 202h-130l-42 -202h-36zM175 264h131l36 168h-131z" />
    <glyph glyph-name="dollar" unicode="$" horiz-adv-x="489" 
d="M258 -104h-29v91c-149 2 -204 49 -204 115c0 26 13 44 43 44c35 0 45 -19 48 -57c5 -47 12 -71 113 -71v300c-2 0 -3 1 -4 2c-127 60 -183 108 -183 207c0 89 74 161 183 172v60h29v-59c122 -1 180 -55 180 -102c0 -28 -15 -42 -44 -42c-33 0 -44 17 -48 60
c-4 35 -21 52 -88 53v-276c137 -66 196 -113 196 -205c0 -129 -99 -192 -192 -200v-92zM381 154c0 67 -33 103 -123 149v-284c88 10 123 67 123 135zM104 550c0 -68 35 -100 121 -142v260c-78 -8 -121 -60 -121 -118z" />
    <glyph glyph-name="percent" unicode="%" horiz-adv-x="685" 
d="M181 350c-68 0 -150 51 -150 169c0 123 80 184 152 184c70 0 150 -53 150 -173c0 -123 -85 -180 -152 -180zM181 372c53 0 79 46 79 147c0 106 -25 161 -79 161c-53 0 -77 -50 -77 -149c0 -105 26 -159 77 -159zM67 -50l496 764h40l-495 -764h-41zM502 -14
c-68 0 -150 51 -150 169c0 123 80 184 152 184c70 0 150 -53 150 -173c0 -123 -85 -180 -152 -180zM502 8c53 0 79 46 79 147c0 106 -25 161 -79 161c-53 0 -77 -50 -77 -149c0 -105 26 -159 77 -159z" />
    <glyph glyph-name="ampersand" unicode="&#x26;" horiz-adv-x="636" 
d="M250 -13c-192 0 -226 113 -226 187c0 103 78 168 165 214c-34 49 -61 93 -61 149c0 96 68 168 158 168c89 0 146 -58 146 -132c0 -78 -60 -124 -163 -175c42 -66 115 -170 181 -254c40 67 44 119 44 151c0 29 -16 40 -47 45l-20 4v17h193v-16l-28 -7
c-31 -7 -34 -18 -42 -38c-16 -42 -40 -123 -81 -180c20 -25 51 -61 63 -74c7 -8 14 -16 40 -22l28 -7v-17h-127c-13 15 -35 43 -48 60c-40 -40 -104 -73 -175 -73zM263 20c66 0 116 34 143 62c-75 94 -149 200 -203 285c-65 -44 -95 -106 -95 -172c0 -126 82 -175 155 -175z
M254 419c73 42 105 90 105 154c0 63 -28 104 -78 104c-51 0 -85 -39 -85 -111c0 -47 18 -89 58 -147z" />
    <glyph glyph-name="quotesingle" unicode="'" horiz-adv-x="158" 
d="M71 491l-36 149c-10 44 20 63 44 63s54 -19 44 -63l-36 -149h-16z" />
    <glyph glyph-name="parenleft" unicode="(" horiz-adv-x="311" 
d="M295 -125l-16 -14c-108 93 -223 222 -223 442c0 201 115 348 223 441l16 -15c-94 -103 -170 -245 -170 -407c0 -213 76 -349 170 -447z" />
    <glyph glyph-name="parenright" unicode=")" horiz-adv-x="311" 
d="M16 729l16 14c108 -93 223 -222 223 -442c0 -201 -115 -348 -223 -441l-16 15c94 103 170 245 170 407c0 213 -76 349 -170 447z" />
    <glyph glyph-name="asterisk" unicode="*" horiz-adv-x="316" 
d="M158 556l-34 -86c-9 -24 -33 -24 -46 -15c-19 13 -15 37 0 49l72 59l-85 6c-31 2 -38 22 -33 39c6 19 27 28 50 12l71 -48l-24 90c-6 21 8 39 29 39s35 -18 29 -39l-24 -90l71 48c23 16 44 7 50 -12c5 -17 -2 -37 -33 -39l-85 -6l72 -59c15 -12 19 -36 0 -49
c-13 -9 -37 -9 -46 15z" />
    <glyph glyph-name="plus" unicode="+" horiz-adv-x="437" 
d="M194 127v186h-161v42h161v186h49v-186h161v-42h-161v-186h-49z" />
    <glyph glyph-name="comma" unicode="," horiz-adv-x="185" 
d="M32 -108l-6 14c53 22 74 53 76 100c-2 -2 -8 -7 -21 -7c-27 0 -47 22 -47 49c0 29 24 50 54 50c36 0 62 -29 62 -69c0 -64 -37 -114 -118 -137z" />
    <glyph glyph-name="hyphen" unicode="-" horiz-adv-x="264" 
d="M30 262l5 60h199l-4 -60h-200z" />
    <glyph glyph-name="period" unicode="." horiz-adv-x="173" 
d="M87 -4c-29 0 -52 22 -52 51c0 28 23 51 52 51c28 0 51 -23 51 -51c0 -29 -23 -51 -51 -51z" />
    <glyph glyph-name="slash" unicode="/" horiz-adv-x="369" 
d="M347 734l-303 -864h-41l303 864h41z" />
    <glyph glyph-name="zero" unicode="0" horiz-adv-x="588" 
d="M292 -12c-121 0 -259 92 -259 346c0 262 132 371 265 371c123 0 257 -93 257 -350c0 -263 -137 -367 -263 -367zM295 20c114 0 179 107 179 315c0 213 -62 339 -179 339c-118 0 -180 -115 -180 -319c0 -213 65 -335 180 -335z" />
    <glyph glyph-name="one" unicode="1" horiz-adv-x="320" 
d="M35 0v17l54 8c32 4 38 16 38 53v523h-88v18c81 14 114 33 154 81l12 -2v-620c0 -37 6 -49 34 -53l55 -8v-17h-259z" />
    <glyph glyph-name="two" unicode="2" horiz-adv-x="478" 
d="M16 0v40c86 74 143 128 199 187c84 89 145 163 145 293c0 115 -69 155 -140 155c-60 0 -72 -16 -76 -52c-4 -37 -16 -59 -51 -59s-47 20 -47 46c0 62 82 95 187 95c108 0 210 -54 210 -184c0 -162 -138 -275 -348 -451v-3h244c54 0 64 7 101 85h18l-17 -152h-425z" />
    <glyph glyph-name="three" unicode="3" horiz-adv-x="477" 
d="M196 -12c-105 0 -174 31 -174 93c0 26 18 43 45 43c32 0 42 -18 50 -50c11 -41 22 -55 78 -55c120 0 165 82 165 174c0 90 -33 150 -148 150h-56v33h46c96 0 137 49 137 151c0 96 -46 150 -129 150c-44 0 -67 -9 -73 -59c-4 -35 -22 -50 -48 -50c-34 0 -44 21 -44 41
c0 65 98 96 177 96c137 0 197 -78 197 -166c0 -78 -46 -152 -162 -175v-3c124 -10 185 -78 185 -171c0 -99 -79 -202 -246 -202z" />
    <glyph glyph-name="four" unicode="4" horiz-adv-x="525" 
d="M233 0v17l40 7c28 5 35 17 35 55v128h-289v32l332 454h32v-440h116l-6 -46h-110v-128c0 -38 8 -49 33 -54l44 -8v-17h-227zM70 253h238v328h-3l-235 -327v-1z" />
    <glyph glyph-name="five" unicode="5" horiz-adv-x="469" 
d="M177 -12c-91 0 -155 33 -155 92c0 28 17 46 49 46c28 0 44 -13 51 -47c11 -48 20 -60 65 -60c109 0 178 70 178 184c0 107 -66 156 -170 156c-55 0 -100 -9 -127 -19l-6 5l39 348h253c24 0 30 3 51 49h17l-17 -119h-278l-24 -210c26 9 61 15 109 15
c110 0 222 -49 222 -203c0 -136 -116 -237 -257 -237z" />
    <glyph glyph-name="six" unicode="6" horiz-adv-x="521" 
d="M279 -12c-146 0 -242 116 -242 289c0 313 188 428 319 428c88 0 135 -30 135 -80c0 -25 -15 -41 -42 -41c-30 0 -42 11 -49 46c-7 33 -19 45 -53 45c-89 0 -212 -80 -226 -314c34 28 93 59 162 59c128 0 208 -81 208 -212c0 -141 -113 -220 -212 -220zM280 18
c102 0 131 75 131 176c0 114 -42 188 -148 188c-49 0 -110 -22 -143 -47c-1 -19 -1 -15 -1 -36c0 -95 10 -281 161 -281z" />
    <glyph glyph-name="seven" unicode="7" horiz-adv-x="463" 
d="M119 0c62 279 179 471 274 622h-297c-33 0 -37 -11 -59 -63h-17l16 134h417v-34c-126 -191 -208 -376 -255 -659h-79z" />
    <glyph glyph-name="eight" unicode="8" horiz-adv-x="509" 
d="M259 -13c-95 0 -228 51 -228 180c0 80 71 145 157 196v3c-95 55 -123 105 -123 169c0 95 84 170 195 170c98 0 196 -56 196 -159c0 -74 -67 -129 -138 -178v-2c93 -57 160 -105 160 -188c0 -101 -87 -191 -219 -191zM264 18c94 0 142 62 142 137c0 89 -114 144 -196 196
c-43 -31 -104 -84 -104 -176c0 -101 68 -157 158 -157zM299 381c41 37 85 76 85 163c0 84 -50 130 -127 130c-79 0 -124 -50 -124 -118c0 -80 100 -135 166 -175z" />
    <glyph glyph-name="nine" unicode="9" horiz-adv-x="522" 
d="M175 -12c-88 0 -135 32 -135 81c0 25 15 41 46 41c29 0 40 -13 47 -46c7 -32 17 -46 51 -46c101 0 205 76 216 314c-40 -33 -97 -59 -163 -59c-116 0 -207 74 -207 206c0 146 115 226 214 226c145 0 241 -116 241 -299c0 -298 -151 -418 -310 -418zM255 313
c53 0 109 17 146 47c1 18 1 14 1 35c0 95 -11 280 -158 280c-97 0 -134 -76 -134 -182c0 -110 47 -180 145 -180z" />
    <glyph glyph-name="colon" unicode=":" horiz-adv-x="179" 
d="M90 -4c-29 0 -52 22 -52 51c0 28 23 51 52 51c28 0 51 -23 51 -51c0 -29 -23 -51 -51 -51zM90 287c-29 0 -52 22 -52 51c0 28 23 51 52 51c28 0 51 -23 51 -51c0 -29 -23 -51 -51 -51z" />
    <glyph glyph-name="semicolon" unicode=";" horiz-adv-x="185" 
d="M90 287c-29 0 -52 22 -52 51c0 28 23 51 52 51c28 0 51 -23 51 -51c0 -29 -23 -51 -51 -51zM32 -108l-6 14c53 22 74 53 76 100c-2 -2 -8 -7 -21 -7c-27 0 -47 22 -47 49c0 29 24 50 54 50c36 0 62 -29 62 -69c0 -64 -37 -114 -118 -137z" />
    <glyph glyph-name="less" unicode="&#x3c;" horiz-adv-x="452" 
d="M409 119l-369 173v41l369 174v-47l-320 -147l320 -147v-47z" />
    <glyph glyph-name="equal" unicode="=" horiz-adv-x="473" 
d="M40 211v41h393v-41h-393zM40 363v42h393v-42h-393z" />
    <glyph glyph-name="greater" unicode="&#x3e;" horiz-adv-x="452" 
d="M43 119v45l320 148l-320 147v48l369 -174v-41z" />
    <glyph glyph-name="question" unicode="?" horiz-adv-x="409" 
d="M143 186v181c76 28 167 80 167 180c0 94 -62 126 -137 126c-18 0 -37 -2 -42 -37c-6 -37 -17 -51 -48 -51s-44 18 -44 43c0 49 66 77 134 77c107 0 194 -63 194 -191c0 -111 -85 -173 -185 -211v-117h-39zM160 -4c-28 0 -52 23 -52 51c0 29 24 50 52 50
c27 0 53 -21 53 -50c0 -28 -26 -51 -53 -51z" />
    <glyph glyph-name="at" unicode="@" horiz-adv-x="813" 
d="M382 -123c-208 0 -352 130 -352 328c0 244 198 438 444 438c205 0 314 -142 314 -282c0 -216 -127 -320 -233 -320c-75 0 -96 52 -88 123h-4c-43 -70 -96 -120 -149 -120c-58 0 -90 37 -90 117c0 191 152 324 240 324c40 0 56 -11 82 -30h5l31 28l12 -6s-15 -40 -26 -102
l-32 -187c-12 -71 -3 -112 46 -112c65 0 147 70 147 262c0 147 -84 278 -264 278c-228 0 -368 -182 -368 -382c0 -193 99 -319 311 -319c86 0 152 13 222 51v-24c-49 -31 -134 -65 -248 -65zM337 92c40 0 89 53 133 118l42 211c-7 21 -22 35 -56 35
c-75 0 -161 -133 -161 -292c0 -51 11 -72 42 -72z" />
    <glyph glyph-name="A" unicode="A" horiz-adv-x="625" 
d="M-3 0l1 17l31 10c24 7 32 14 62 98l208 568h40l199 -582c25 -69 38 -81 66 -88l24 -6v-17h-222v17l22 6c45 12 48 23 24 95l-46 135h-228l-46 -135c-23 -71 -12 -82 27 -93l29 -8v-17h-191zM291 582l-102 -298h207l-100 298h-5z" />
    <glyph glyph-name="B" unicode="B" horiz-adv-x="576" 
d="M305 29c99 0 154 60 154 153c0 106 -46 161 -172 161h-105v-231c0 -75 11 -83 123 -83zM182 373h89c94 0 155 54 155 144c0 102 -50 148 -159 148c-32 0 -66 -4 -85 -9v-283zM27 693h249c133 0 230 -44 230 -162c0 -94 -58 -144 -159 -164v-3c130 -9 197 -68 197 -169
c0 -127 -103 -195 -245 -195h-272v17l39 8c29 6 38 11 38 56v531c0 45 -8 50 -38 56l-39 8v17z" />
    <glyph glyph-name="C" unicode="C" horiz-adv-x="599" 
d="M330 -12c-166 0 -295 97 -295 353c0 271 161 364 330 364c75 0 136 -13 179 -26l12 -187h-20c-15 43 -27 78 -48 111c-27 43 -51 69 -134 69c-139 0 -236 -80 -236 -312c0 -238 74 -339 217 -339c87 0 128 31 158 74c20 29 32 71 47 117h19l-12 -184
c-48 -21 -125 -40 -217 -40z" />
    <glyph glyph-name="D" unicode="D" horiz-adv-x="659" 
d="M27 0v17l39 8c29 6 38 11 38 56v531c0 45 -8 50 -38 56l-39 8v17h273c178 0 328 -80 328 -342c0 -237 -141 -351 -335 -351h-266zM288 30c205 0 259 139 259 304c0 215 -69 330 -261 330c-55 0 -85 -4 -104 -9v-535c0 -75 10 -90 106 -90z" />
    <glyph glyph-name="E" unicode="E" horiz-adv-x="566" 
d="M27 0v17l39 8c29 6 38 11 38 56v531c0 45 -8 50 -38 56l-39 8v17h475l13 -167h-21c-20 46 -34 79 -43 94c-27 40 -35 45 -144 45c-49 0 -100 -3 -125 -9v-281h55c78 0 113 4 127 34c10 21 15 43 21 75h21v-247h-21c-7 34 -11 48 -21 73c-12 32 -35 35 -127 35h-55v-220
c0 -95 3 -97 140 -97c95 0 111 5 137 40c13 19 39 79 55 130h23l-15 -198h-495z" />
    <glyph glyph-name="F" unicode="F" horiz-adv-x="533" 
d="M182 332v-251c0 -45 6 -51 37 -56l53 -8v-17h-245v17l39 8c29 6 38 11 38 56v531c0 45 -8 50 -38 56l-39 8v17h467l10 -179h-21c-23 60 -36 91 -46 106c-27 43 -47 45 -139 45c-58 0 -92 -4 -116 -8v-294h35c106 0 122 8 136 36c7 14 11 39 18 71h21v-251h-21
c-7 35 -11 60 -18 78c-13 33 -30 35 -136 35h-35z" />
    <glyph glyph-name="G" unicode="G" horiz-adv-x="654" 
d="M498 51v147c0 45 -3 50 -37 56l-43 8v17h225v-17l-37 -9c-26 -7 -30 -10 -30 -46v-184c-43 -12 -117 -35 -215 -35c-201 0 -326 111 -326 351c0 286 173 366 342 366c77 0 131 -13 184 -26l12 -185h-21c-19 66 -39 102 -50 117c-30 42 -50 61 -138 61
c-152 0 -248 -79 -248 -306c0 -222 72 -345 244 -345c64 0 109 16 138 30z" />
    <glyph glyph-name="H" unicode="H" horiz-adv-x="692" 
d="M27 0v17l39 8c29 6 38 11 38 56v531c0 45 -8 50 -38 56l-39 8v17h235v-17l-43 -8c-33 -6 -37 -11 -37 -56v-243h328v243c0 45 -4 50 -38 56l-42 8v17h235v-17l-40 -8c-31 -6 -37 -11 -37 -56v-531c0 -45 6 -50 37 -56l40 -8v-17h-235v17l42 7c35 6 38 12 38 57v256h-328
v-256c0 -45 3 -50 37 -56l43 -8v-17h-235z" />
    <glyph glyph-name="I" unicode="I" horiz-adv-x="292" 
d="M107 81v531c0 45 -3 50 -37 56l-43 8v17h238v-17l-43 -8c-34 -6 -37 -11 -37 -56v-531c0 -45 3 -50 37 -56l43 -8v-17h-238v17l43 8c34 6 37 11 37 56z" />
    <glyph glyph-name="J" unicode="J" horiz-adv-x="288" 
d="M5 -156c-54 0 -88 24 -88 63c0 19 12 38 47 38c37 0 45 -20 52 -49c4 -17 8 -23 22 -23c38 0 69 35 69 160v579c0 45 -3 50 -37 56l-43 8v17h234v-17l-41 -8c-32 -6 -35 -11 -35 -56v-556c0 -123 -55 -212 -180 -212z" />
    <glyph glyph-name="K" unicode="K" horiz-adv-x="599" 
d="M472 0c-89 95 -188 232 -255 350v11l209 244c12 14 16 24 16 33c0 15 -11 21 -35 28l-35 10v17h207v-17l-26 -6c-31 -8 -43 -19 -90 -71l-186 -209c67 -113 181 -263 248 -334c21 -23 28 -27 50 -32l26 -7v-17h-129zM182 612v-531c0 -45 3 -50 37 -56l44 -8l-1 -17h-235
v17l39 8c29 6 38 11 38 56v531c0 45 -8 50 -38 56l-39 8v17h235v-17l-43 -8c-33 -6 -37 -11 -37 -56z" />
    <glyph glyph-name="L" unicode="L" horiz-adv-x="530" 
d="M504 0h-477v17l39 8c29 6 38 11 38 56v531c0 45 -8 50 -38 56l-39 8v17h235v-17l-43 -8c-33 -6 -37 -11 -37 -56v-504c0 -68 3 -80 117 -80c96 0 111 8 138 45c13 16 39 69 56 133h23z" />
    <glyph glyph-name="M" unicode="M" horiz-adv-x="819" 
d="M792 693v-17l-40 -8c-31 -6 -37 -11 -37 -56v-531c0 -45 6 -50 37 -56l40 -8v-17h-235v17l42 7c32 7 38 12 38 57v548h-4l-222 -609h-33l-231 609h-4v-532c0 -45 4 -60 37 -69l43 -11v-17h-196v17l39 11c29 8 38 24 38 69v515c0 45 -8 50 -38 56l-39 8v17h177l210 -553h2
l201 553h175z" />
    <glyph glyph-name="N" unicode="N" horiz-adv-x="664" 
d="M143 618v-521c0 -45 4 -60 37 -69l43 -11v-17h-196v17l39 11c29 8 38 24 38 69v515c0 45 -8 50 -38 56l-39 8v17h163l340 -550h3v453c0 44 -4 63 -37 70l-50 10v17h203v-17l-39 -10c-33 -8 -38 -27 -38 -69v-602h-39l-387 623h-3z" />
    <glyph glyph-name="O" unicode="O" horiz-adv-x="671" 
d="M330 -12c-171 0 -295 120 -295 349c0 262 143 368 306 368c171 0 295 -128 295 -355c0 -261 -143 -362 -306 -362zM335 21c152 0 220 108 220 314c0 181 -66 337 -220 337c-153 0 -219 -114 -219 -320c0 -192 76 -331 219 -331z" />
    <glyph glyph-name="P" unicode="P" horiz-adv-x="540" 
d="M182 656v-575c0 -45 6 -51 37 -56l54 -8v-17h-246v17l39 8c29 6 38 11 38 56v531c0 45 -8 50 -38 56l-39 8v17h259c152 0 231 -72 231 -193c0 -130 -95 -217 -244 -217c-34 0 -53 4 -58 7v19c147 -9 220 43 220 180c0 123 -45 176 -158 176c-40 0 -78 -5 -95 -9z" />
    <glyph glyph-name="Q" unicode="Q" horiz-adv-x="671" 
d="M585 -165c-65 0 -110 15 -165 49c-54 34 -80 62 -138 107c-148 22 -247 144 -247 346c0 262 143 368 306 368c171 0 295 -129 295 -355c0 -220 -100 -326 -238 -356v-3c26 -21 69 -51 92 -63c56 -33 107 -46 157 -46c28 0 53 10 67 15v-18c-22 -18 -58 -44 -129 -44z
M335 21c152 0 220 108 220 314c0 181 -66 337 -220 337c-153 0 -219 -114 -219 -320c0 -192 76 -331 219 -331z" />
    <glyph glyph-name="R" unicode="R" horiz-adv-x="597" 
d="M182 331v-250c0 -45 3 -50 37 -56l44 -8l-1 -17h-235v17l39 8c29 6 38 11 38 56v531c0 45 -8 50 -38 56l-39 8v17h269c141 0 207 -59 207 -165c0 -91 -65 -155 -164 -181v-3c57 -94 138 -222 191 -285c23 -27 31 -31 50 -36l22 -6v-17h-124c-79 104 -154 219 -213 331
h-83zM243 359c124 0 179 51 179 155c0 117 -56 151 -141 151c-48 0 -80 -3 -99 -7v-295s32 -4 61 -4z" />
    <glyph glyph-name="S" unicode="S" horiz-adv-x="482" 
d="M219 -13c-72 0 -139 20 -180 38l-11 176h23c15 -45 29 -81 50 -118c27 -45 62 -62 139 -62c93 0 133 62 133 128c0 79 -41 115 -161 176c-85 44 -167 85 -167 203c0 98 73 178 194 178c80 0 129 -15 157 -26l12 -157h-21c-20 55 -27 70 -41 94c-23 37 -40 56 -107 56
c-84 0 -132 -37 -132 -115c0 -77 36 -109 135 -160c139 -72 199 -116 199 -209c0 -111 -73 -202 -222 -202z" />
    <glyph glyph-name="T" unicode="T" horiz-adv-x="562" 
d="M349 664h-29v-583c0 -45 3 -50 37 -56l43 -8v-17h-238v17l43 8c34 6 37 11 37 56v583h-29c-109 0 -124 -17 -139 -58c-9 -25 -20 -56 -34 -106h-24l11 193h508l11 -193h-24c-14 50 -25 81 -34 106c-15 41 -30 58 -139 58z" />
    <glyph glyph-name="U" unicode="U" horiz-adv-x="676" 
d="M172 612v-390c0 -126 57 -188 189 -188c129 0 182 73 182 195v372c0 44 -4 59 -37 65l-53 10v17h206v-17l-39 -10c-33 -9 -38 -23 -38 -65v-381c0 -123 -67 -232 -244 -232c-152 0 -244 74 -244 238v386c0 45 -8 50 -38 56l-39 8v17h229v-17l-40 -8
c-33 -7 -34 -11 -34 -56z" />
    <glyph glyph-name="V" unicode="V" horiz-adv-x="616" 
d="M290 0l-206 580c-24 68 -32 80 -61 89l-26 7v17h221v-17l-28 -7c-27 -7 -36 -17 -36 -33c0 -15 7 -35 17 -63l161 -461h5l153 461c8 24 14 44 14 59c0 21 -11 30 -37 36l-33 8v17h185v-17l-19 -5c-34 -9 -40 -23 -69 -105l-200 -566h-41z" />
    <glyph glyph-name="W" unicode="W" horiz-adv-x="915" 
d="M276 0l-189 576c-25 76 -33 86 -61 93l-29 7v17h225v-17l-34 -7c-22 -5 -33 -14 -33 -35c0 -14 5 -34 14 -61l144 -450h5l131 397l-17 51c-27 80 -36 91 -64 98l-29 7v17h222v-17l-30 -6c-20 -4 -32 -13 -32 -38c0 -13 5 -33 13 -59l145 -450h5l123 439c8 31 13 54 13 70
c0 20 -8 29 -29 35l-34 9v17h183v-17l-33 -9c-31 -8 -39 -33 -60 -107l-164 -560h-38l-155 461h-3l-154 -461h-35z" />
    <glyph glyph-name="X" unicode="X" horiz-adv-x="617" 
d="M14 0v17l21 5c35 8 42 15 83 81l149 238l-151 256c-31 51 -36 67 -63 73l-26 6v17h221v-17l-43 -7c-14 -2 -21 -8 -21 -21c0 -11 6 -29 22 -56l114 -195h3l109 195c30 56 25 70 -8 78l-28 6v17h173v-17l-22 -5c-32 -8 -44 -26 -76 -79l-131 -223l159 -266
c30 -50 41 -74 70 -80l29 -6v-17h-222v17l31 4c18 2 29 6 29 21c0 11 -7 28 -24 57l-126 212h-3l-127 -213c-29 -47 -23 -68 8 -75l27 -6v-17h-177z" />
    <glyph glyph-name="Y" unicode="Y" horiz-adv-x="582" 
d="M263 81v197l-177 320c-31 57 -37 63 -63 71l-27 7v17h226v-17l-34 -8c-37 -9 -47 -20 -18 -74l149 -276h3l128 268c29 60 18 72 -23 82l-33 8v17h192v-17l-24 -8c-32 -11 -44 -20 -85 -104l-136 -276v-207c0 -45 3 -50 37 -56l43 -8v-17h-238v17l43 8c34 6 37 11 37 56z
" />
    <glyph glyph-name="Z" unicode="Z" horiz-adv-x="535" 
d="M25 0v29l397 632v4h-80c-167 0 -198 -3 -222 -46c-15 -27 -28 -63 -43 -107h-20l12 181h437v-28l-393 -633v-4h72c189 0 229 13 247 46c12 22 26 55 50 123h22l-16 -197h-463z" />
    <glyph glyph-name="bracketleft" unicode="[" horiz-adv-x="300" 
d="M95 -130v864h195v-17l-98 -12c-25 -3 -30 -11 -30 -59v-689c0 -48 5 -55 30 -58l98 -12v-17h-195z" />
    <glyph glyph-name="backslash" unicode="\" horiz-adv-x="369" 
d="M325 -130l-303 864h41l303 -864h-41z" />
    <glyph glyph-name="bracketright" unicode="]" horiz-adv-x="300" 
d="M10 -130v17l97 12c25 3 30 10 30 58v689c0 48 -5 56 -30 59l-97 12v17h195v-864h-195z" />
    <glyph glyph-name="asciicircum" unicode="^" horiz-adv-x="370" 
d="M51 488l-13 12l133 206h28l134 -206l-14 -12l-136 124z" />
    <glyph glyph-name="underscore" unicode="_" horiz-adv-x="328" 
d="M-2 -177v42h332v-42h-332z" />
    <glyph glyph-name="grave" unicode="`" horiz-adv-x="500" 
d="M351 574l-184 61c-26 10 -33 27 -33 42c0 20 15 37 35 37c9 0 20 -3 33 -12l156 -114z" />
    <glyph glyph-name="a" unicode="a" horiz-adv-x="467" 
d="M171 -13c-91 0 -148 46 -148 126c0 87 77 121 134 134l153 36v107c0 61 -8 104 -101 104c-48 0 -60 -11 -64 -41c-5 -26 -5 -56 -45 -56c-36 0 -47 24 -47 44c0 62 111 81 170 81c116 0 161 -46 161 -127v-318c0 -24 9 -37 21 -45c13 -9 31 -11 54 -12v-13
c-14 -10 -49 -19 -74 -19c-47 0 -69 26 -73 57h-5c-24 -33 -82 -58 -136 -58zM200 29c54 0 94 26 110 54v161l-74 -8c-84 -9 -135 -40 -135 -114c0 -56 35 -93 99 -93z" />
    <glyph glyph-name="b" unicode="b" horiz-adv-x="546" 
d="M233 -12c-61 0 -119 13 -163 36v631c0 36 -6 39 -38 54l-33 16v16l143 14l6 -6s-4 -53 -4 -119v-86c0 -41 -2 -80 -2 -80h4c40 31 97 57 159 57c104 0 206 -56 206 -245c0 -183 -107 -288 -278 -288zM254 19c118 0 178 72 178 250c0 128 -61 204 -163 204
c-64 0 -100 -22 -125 -35v-381c31 -25 58 -38 110 -38z" />
    <glyph glyph-name="c" unicode="c" horiz-adv-x="452" 
d="M260 -12c-151 0 -230 108 -230 254c0 217 162 279 262 279s138 -35 138 -80c0 -27 -18 -47 -48 -47c-32 0 -41 15 -46 42c-8 47 -17 54 -61 54c-85 0 -162 -65 -162 -216c0 -155 46 -237 166 -237c69 0 118 23 150 42v-29c-23 -23 -82 -62 -169 -62z" />
    <glyph glyph-name="d" unicode="d" horiz-adv-x="559" 
d="M236 -12c-97 0 -201 57 -201 250c0 190 135 283 271 283c47 0 77 -7 96 -13v149c0 37 -7 39 -28 49l-42 19v16l141 14l6 -6s-3 -39 -3 -119v-543c0 -36 6 -39 38 -54l30 -14v-13l-136 -18l-6 5l2 52h-4c-40 -31 -101 -57 -164 -57zM277 36c61 0 101 21 125 36v375
c-24 21 -56 42 -104 42c-114 0 -184 -65 -184 -236c0 -149 64 -217 163 -217z" />
    <glyph glyph-name="e" unicode="e" horiz-adv-x="485" 
d="M267 -12c-160 0 -237 113 -237 271c0 155 105 262 234 262c120 0 192 -69 190 -245h-343v-3c0 -163 71 -235 176 -235c83 0 125 25 159 43v-28c-23 -22 -80 -65 -179 -65zM261 492c-82 0 -142 -63 -149 -192l258 12c0 124 -28 180 -109 180z" />
    <glyph glyph-name="f" unicode="f" horiz-adv-x="281" 
d="M23 0v16l33 9c29 8 33 16 33 53v391h-68v18l68 19v53c0 124 90 197 200 197c61 0 85 -26 85 -55c0 -21 -13 -39 -43 -39c-33 0 -44 10 -51 43c-4 17 -6 23 -25 23c-39 0 -92 -32 -92 -129v-94h107l-6 -36h-101v-390c0 -33 3 -47 28 -52l52 -11v-16h-220z" />
    <glyph glyph-name="g" unicode="g" horiz-adv-x="470" 
d="M195 -196c-126 0 -208 51 -208 121c0 53 46 87 112 110v3c-30 12 -57 34 -57 75s35 74 67 96v4c-40 18 -80 71 -80 133c0 120 100 175 185 175c36 0 70 -9 100 -25c27 23 62 45 108 45c32 0 50 -17 50 -42s-14 -39 -37 -39c-18 0 -30 9 -36 23c-10 25 -41 19 -65 5v-3
c42 -25 65 -73 65 -131c0 -119 -100 -169 -185 -169c-31 0 -55 5 -79 15c-16 -10 -36 -29 -36 -55c0 -30 19 -43 64 -43h151c91 0 139 -44 139 -116c0 -69 -52 -182 -258 -182zM210 -167c90 0 188 32 188 124c0 50 -29 76 -99 76h-155c-35 -7 -78 -35 -78 -94
c0 -73 50 -106 144 -106zM214 211c66 0 105 39 105 130c0 104 -38 153 -105 153c-66 0 -105 -43 -105 -135c0 -104 38 -148 105 -148z" />
    <glyph glyph-name="h" unicode="h" horiz-adv-x="562" 
d="M23 0v16l33 9c29 8 33 16 33 53v577c0 36 -6 39 -38 54l-33 16v16l143 14l6 -6s-4 -52 -4 -119v-86c0 -41 -2 -84 -2 -84h3c49 31 123 61 182 61c102 0 133 -43 133 -133v-310c0 -37 4 -45 33 -53l34 -9v-16h-210v16l34 9c29 8 35 14 35 53v293c0 74 -23 99 -87 99
c-67 0 -122 -20 -155 -32v-360c0 -39 6 -46 35 -53l35 -9v-16h-210z" />
    <glyph glyph-name="i" unicode="i" horiz-adv-x="245" 
d="M23 0v16l33 9c29 8 33 16 33 53v340c0 36 -6 39 -38 54l-27 13v14l137 20l6 -3s-4 -39 -4 -106v-332c0 -39 5 -45 33 -53l33 -9v-16h-206zM123 604c-28 0 -51 26 -51 51c0 27 23 51 51 51c27 0 50 -24 50 -51c0 -25 -23 -51 -50 -51z" />
    <glyph glyph-name="j" unicode="j" horiz-adv-x="239" 
d="M1 -201c-50 0 -71 27 -71 56c0 20 15 38 45 38c26 0 37 -10 41 -36c4 -27 8 -30 24 -30c29 0 49 24 49 74v517c0 36 -6 39 -38 54l-27 13v14l137 20l6 -3s-4 -39 -4 -105v-411c0 -154 -75 -201 -162 -201zM120 604c-27 0 -50 26 -50 51c0 27 23 51 50 51
c28 0 50 -24 50 -51c0 -25 -22 -51 -50 -51z" />
    <glyph glyph-name="k" unicode="k" horiz-adv-x="497" 
d="M391 0c-82 83 -137 152 -210 255v4l114 132c42 48 50 66 50 76c0 8 -5 12 -19 17l-17 6v15h160v-16l-26 -9c-39 -13 -52 -24 -89 -64l-113 -125c58 -83 135 -176 204 -248c12 -12 18 -17 33 -21l22 -6v-16h-109zM23 0v16l33 9c29 8 33 16 33 53v579c0 34 -6 36 -38 52
l-33 16v16l143 14l6 -6s-4 -52 -4 -119v-552c0 -39 6 -46 35 -53l36 -9v-16h-211z" />
    <glyph glyph-name="l" unicode="l" horiz-adv-x="245" 
d="M23 0v16l33 9c29 8 33 16 33 53v579c0 34 -6 36 -38 52l-33 16v16l142 14l7 -6s-4 -52 -4 -119v-552c0 -39 5 -45 33 -53l33 -9v-16h-206z" />
    <glyph glyph-name="m" unicode="m" horiz-adv-x="844" 
d="M23 0v16l33 9c29 8 33 16 33 53v340c0 36 -6 39 -38 54l-27 13v14l133 20l7 -3l-2 -55h3c48 30 114 60 171 60c74 0 101 -24 117 -63h3c54 30 114 63 186 63c89 0 119 -44 119 -134v-309c0 -37 4 -45 33 -53l34 -9v-16h-210v16l34 9c28 8 35 13 35 53v292
c0 70 -15 100 -76 100c-57 0 -118 -20 -151 -35c1 -11 2 -21 2 -46v-311c0 -37 4 -45 33 -53l34 -9v-16h-210v16l34 9c28 8 35 13 35 53v292c0 70 -16 100 -77 100c-51 0 -114 -19 -148 -32v-360c0 -39 6 -46 35 -53l35 -9v-16h-210z" />
    <glyph glyph-name="n" unicode="n" horiz-adv-x="562" 
d="M479 388v-310c0 -37 4 -45 33 -53l34 -9v-16h-210v16l34 9c29 8 35 14 35 53v293c0 74 -23 99 -87 99c-67 0 -122 -20 -155 -32v-360c0 -39 6 -46 35 -53l35 -9v-16h-210v16l33 9c29 8 33 16 33 53v340c0 36 -6 39 -38 54l-27 13v14l133 20l7 -3l-2 -55h3
c48 30 122 60 181 60c102 0 133 -43 133 -133z" />
    <glyph glyph-name="o" unicode="o" 
d="M268 -13c-137 0 -238 92 -238 267c0 168 114 268 238 268c138 0 239 -87 239 -262c0 -168 -115 -273 -239 -273zM273 16c100 0 149 84 149 229c0 168 -50 248 -156 248c-99 0 -151 -74 -151 -227c0 -167 53 -250 158 -250z" />
    <glyph glyph-name="p" unicode="p" horiz-adv-x="565" 
d="M23 -199v16l33 9c29 8 33 16 33 53v539c0 36 -6 39 -38 54l-27 13v14l133 20l7 -3l-2 -50h4c41 30 96 55 158 55c104 0 206 -56 206 -245c0 -183 -107 -288 -278 -288c-28 0 -61 5 -90 14c0 0 1 -32 1 -65v-58c0 -39 6 -47 38 -53l45 -9v-16h-223zM273 19
c118 0 178 72 178 250c0 128 -61 204 -158 204c-64 0 -104 -21 -130 -35v-381c31 -25 58 -38 110 -38z" />
    <glyph glyph-name="q" unicode="q" horiz-adv-x="548" 
d="M319 -199v16l45 9c32 6 38 14 38 53v102c0 34 1 64 1 64h-3c-40 -31 -101 -57 -164 -57c-97 0 -201 57 -201 250c0 190 135 283 271 283c60 0 96 -14 129 -33h3l27 36l11 -3v-642c0 -37 4 -45 33 -53l33 -9v-16h-223zM276 36c62 0 102 21 126 37v371
c-24 23 -55 45 -104 45c-114 0 -184 -65 -184 -236c0 -149 64 -217 162 -217z" />
    <glyph glyph-name="r" unicode="r" horiz-adv-x="377" 
d="M23 0v16l33 9c29 8 33 16 33 53v340c0 36 -6 39 -38 54l-27 13v14l133 20l7 -5l-2 -57h3c37 35 95 65 140 65c39 0 60 -19 60 -53c0 -33 -21 -50 -46 -50c-32 0 -43 17 -47 34c-5 15 -7 19 -16 19c-21 0 -73 -25 -93 -48v-346c0 -32 3 -46 28 -51l52 -11v-16h-220z" />
    <glyph glyph-name="s" unicode="s" horiz-adv-x="394" 
d="M183 -12c-61 0 -112 11 -152 25l-2 145h20c11 -29 20 -56 32 -79c20 -37 48 -62 102 -62c63 0 110 36 110 95c0 56 -38 85 -114 117c-83 34 -142 71 -142 156c0 87 75 137 168 137c53 0 91 -9 127 -22l3 -125h-17c-15 32 -25 60 -40 80c-17 24 -40 38 -80 38
c-69 0 -101 -36 -101 -84c0 -53 39 -82 119 -115c82 -33 144 -69 144 -146c0 -90 -70 -160 -177 -160z" />
    <glyph glyph-name="t" unicode="t" horiz-adv-x="304" 
d="M180 -12c-51 0 -103 23 -103 95v386h-71v16c63 18 104 59 131 134h14v-114h139l-4 -36h-135v-377c0 -41 20 -60 66 -60c31 0 59 8 80 15v-19c-16 -11 -58 -40 -117 -40z" />
    <glyph glyph-name="u" unicode="u" horiz-adv-x="553" 
d="M214 -12c-80 0 -130 46 -130 130v304c0 36 -6 44 -37 56l-28 11v15l130 15l9 -8v-376c0 -61 28 -96 89 -96c55 0 114 20 153 37v347c0 36 -5 44 -38 56l-28 10v15l130 15l10 -8v-413c0 -41 8 -50 38 -64l28 -13v-13l-134 -18l-6 4l2 59h-4c-49 -34 -116 -65 -184 -65z
" />
    <glyph glyph-name="v" unicode="v" horiz-adv-x="484" 
d="M227 0l-159 418c-17 47 -24 54 -46 61l-30 10v16h200v-16l-27 -7c-22 -6 -25 -15 -25 -30c0 -14 6 -31 12 -50l109 -297h4l110 297c8 26 12 45 11 57c-1 13 -11 18 -29 23l-26 7v16h161v-16l-26 -7c-28 -8 -32 -23 -51 -74l-154 -408h-34z" />
    <glyph glyph-name="w" unicode="w" horiz-adv-x="726" 
d="M215 0l-148 418c-16 46 -23 54 -45 61l-30 10v16h201v-16l-27 -7c-22 -6 -25 -15 -25 -30c0 -14 5 -30 12 -50l98 -296h3l97 279l-12 33c-12 37 -24 55 -46 63l-26 8v16h182v-16l-27 -7c-19 -5 -19 -15 -19 -29c0 -12 5 -29 13 -51l102 -296h4l97 296c8 26 12 45 11 57
c-1 13 -11 18 -29 23l-26 7v16h159v-16l-26 -7c-28 -8 -32 -23 -50 -74l-142 -408h-31l-117 337h-2l-117 -337h-34z" />
    <glyph glyph-name="x" unicode="x" horiz-adv-x="513" 
d="M9 0v16l30 9c37 11 51 27 81 72l100 148l-110 164c-40 60 -46 69 -76 76l-17 4v16h196v-16l-24 -5c-29 -6 -21 -35 -2 -65l81 -128h3l71 125c18 32 27 59 -2 66l-30 7v16h169v-16l-31 -8c-32 -9 -42 -25 -73 -74l-86 -136l122 -175c38 -55 52 -70 81 -77l12 -3v-16h-200
v16l27 5c16 3 22 9 22 19c0 14 -13 34 -25 52l-89 133h-3l-73 -120c-19 -31 -29 -50 -29 -63c0 -12 10 -17 32 -22l17 -4v-16h-174z" />
    <glyph glyph-name="y" unicode="y" horiz-adv-x="478" 
d="M78 -205c-53 0 -73 27 -73 56c0 31 20 46 48 46c30 0 39 -15 47 -35c6 -16 9 -19 18 -19c27 0 54 37 76 90l28 68l-155 417c-18 49 -24 54 -49 63l-26 8v16h195v-16l-26 -7c-21 -6 -26 -14 -26 -29c0 -14 6 -31 13 -50l112 -302h4l106 301c9 26 13 45 12 58
c-1 12 -11 17 -29 22l-26 7v16h159v-16l-30 -8c-23 -6 -27 -19 -47 -73l-164 -442c-31 -84 -61 -171 -167 -171z" />
    <glyph glyph-name="z" unicode="z" horiz-adv-x="441" 
d="M22 0v18l306 457v4h-106c-84 0 -92 -6 -115 -44c-11 -17 -22 -38 -39 -79h-17l5 149h368v-15l-308 -460v-4h90c112 0 126 10 151 52c17 28 28 54 38 84h18l-9 -162h-382z" />
    <glyph glyph-name="braceleft" unicode="{" horiz-adv-x="299" 
d="M289 -130c-128 -1 -191 28 -191 98c0 53 51 209 51 248c0 42 -26 72 -125 76v24c96 4 125 36 125 79c0 38 -51 187 -51 240c0 70 63 99 191 98v-15c-92 -15 -117 -21 -117 -82c0 -70 37 -166 37 -225c0 -54 -50 -89 -115 -105v-4c80 -13 115 -48 115 -102
c0 -60 -37 -163 -37 -233c0 -61 25 -67 117 -82v-15z" />
    <glyph glyph-name="bar" unicode="|" horiz-adv-x="222" 
d="M92 -130v864h38v-864h-38z" />
    <glyph glyph-name="braceright" unicode="}" horiz-adv-x="299" 
d="M10 -130v15c92 15 117 21 117 82c0 70 -37 173 -37 233c0 54 35 89 115 102v4c-65 16 -115 51 -115 105c0 59 37 155 37 225c0 61 -25 67 -117 82v15c128 1 191 -28 191 -98c0 -53 -51 -202 -51 -240c0 -43 29 -75 125 -79v-24c-99 -4 -125 -34 -125 -76
c0 -39 51 -195 51 -248c0 -70 -63 -99 -191 -98z" />
    <glyph glyph-name="asciitilde" unicode="~" horiz-adv-x="358" 
d="M46 229l-17 6c24 53 44 99 91 99c41 0 95 -21 135 -21c27 0 41 15 56 42l16 -7c-25 -53 -45 -98 -89 -98c-43 0 -98 21 -138 21c-26 0 -39 -16 -54 -42z" />
    <glyph glyph-name="Adieresis" unicode="&#xc4;" horiz-adv-x="625" 
d="M-3 0l1 17l31 10c24 7 32 14 62 98l208 568h40l199 -582c25 -69 38 -81 66 -88l24 -6v-17h-222v17l22 6c45 12 48 23 24 95l-46 135h-228l-46 -135c-23 -71 -12 -82 27 -93l29 -8v-17h-191zM291 582l-102 -298h207l-100 298h-5zM232 761c-28 0 -48 23 -48 48
c0 26 20 48 48 48s48 -22 48 -48c0 -25 -20 -48 -48 -48zM404 761c-28 0 -48 23 -48 48c0 26 20 48 48 48s48 -22 48 -48c0 -25 -20 -48 -48 -48z" />
    <glyph glyph-name="Aring" unicode="&#xc5;" horiz-adv-x="625" 
d="M-3 0l1 17l31 10c24 7 32 14 62 98l208 568h40l199 -582c25 -69 38 -81 66 -88l24 -6v-17h-222v17l22 6c45 12 48 23 24 95l-46 135h-228l-46 -135c-23 -71 -12 -82 27 -93l29 -8v-17h-191zM291 582l-102 -298h207l-100 298h-5zM319 733c-53 0 -86 37 -86 82
c0 47 38 83 86 83c52 0 86 -36 86 -83c0 -45 -37 -82 -86 -82zM319 757c33 0 56 25 56 59c0 35 -23 59 -56 59s-55 -24 -55 -59c0 -34 22 -59 55 -59z" />
    <glyph glyph-name="Ccedilla" unicode="&#xc7;" horiz-adv-x="599" 
d="M237 -200v15c64 15 89 35 89 60c0 20 -21 34 -55 37l-5 7l33 70c-151 11 -264 112 -264 352c0 271 161 364 330 364c75 0 136 -13 179 -26l12 -187h-20c-15 43 -27 78 -48 111c-27 43 -51 69 -134 69c-139 0 -236 -80 -236 -312c0 -238 74 -339 217 -339
c87 0 128 31 158 74c20 29 32 71 47 117h19l-12 -184c-48 -21 -125 -40 -217 -40l-24 -40c43 -4 78 -22 78 -62c0 -46 -45 -77 -147 -86z" />
    <glyph glyph-name="Eacute" unicode="&#xc9;" horiz-adv-x="566" 
d="M27 0v17l39 8c29 6 38 11 38 56v531c0 45 -8 50 -38 56l-39 8v17h475l13 -167h-21c-20 46 -34 79 -43 94c-27 40 -35 45 -144 45c-49 0 -100 -3 -125 -9v-281h55c78 0 113 4 127 34c10 21 15 43 21 75h21v-247h-21c-7 34 -11 48 -21 73c-12 32 -35 35 -127 35h-55v-220
c0 -95 3 -97 140 -97c95 0 111 5 137 40c13 19 39 79 55 130h23l-15 -198h-495zM389 805l-184 -61l-7 14l156 114c13 9 24 12 33 12c20 0 35 -17 35 -37c0 -15 -7 -32 -33 -42z" />
    <glyph glyph-name="Ntilde" unicode="&#xd1;" horiz-adv-x="664" 
d="M143 618v-521c0 -45 4 -60 37 -69l43 -11v-17h-196v17l39 11c29 8 38 24 38 69v515c0 45 -8 50 -38 56l-39 8v17h163l340 -550h3v453c0 44 -4 63 -37 70l-50 10v17h203v-17l-39 -10c-33 -8 -38 -27 -38 -69v-602h-39l-387 623h-3zM230 746l-17 6c24 53 44 97 85 97
c40 0 104 -27 137 -27c27 0 41 17 56 44l16 -7c-25 -53 -45 -96 -86 -96c-42 0 -101 27 -137 27c-26 0 -39 -18 -54 -44z" />
    <glyph glyph-name="Odieresis" unicode="&#xd6;" horiz-adv-x="671" 
d="M330 -12c-171 0 -295 120 -295 349c0 262 143 368 306 368c171 0 295 -128 295 -355c0 -261 -143 -362 -306 -362zM335 21c152 0 220 108 220 314c0 181 -66 337 -220 337c-153 0 -219 -114 -219 -320c0 -192 76 -331 219 -331zM249 761c-28 0 -48 23 -48 48
c0 26 20 48 48 48s48 -22 48 -48c0 -25 -20 -48 -48 -48zM421 761c-28 0 -48 23 -48 48c0 26 20 48 48 48s48 -22 48 -48c0 -25 -20 -48 -48 -48z" />
    <glyph glyph-name="Udieresis" unicode="&#xdc;" horiz-adv-x="676" 
d="M172 612v-390c0 -126 57 -188 189 -188c129 0 182 73 182 195v372c0 44 -4 59 -37 65l-53 10v17h206v-17l-39 -10c-33 -9 -38 -23 -38 -65v-381c0 -123 -67 -232 -244 -232c-152 0 -244 74 -244 238v386c0 45 -8 50 -38 56l-39 8v17h229v-17l-40 -8
c-33 -7 -34 -11 -34 -56zM268 761c-28 0 -48 23 -48 48c0 26 20 48 48 48s48 -22 48 -48c0 -25 -20 -48 -48 -48zM440 761c-28 0 -48 23 -48 48c0 26 20 48 48 48s48 -22 48 -48c0 -25 -20 -48 -48 -48z" />
    <glyph glyph-name="aacute" unicode="&#xe1;" horiz-adv-x="467" 
d="M171 -13c-91 0 -148 46 -148 126c0 87 77 121 134 134l153 36v107c0 61 -8 104 -101 104c-48 0 -60 -11 -64 -41c-5 -26 -5 -56 -45 -56c-36 0 -47 24 -47 44c0 62 111 81 170 81c116 0 161 -46 161 -127v-318c0 -24 9 -37 21 -45c13 -9 31 -11 54 -12v-13
c-14 -10 -49 -19 -74 -19c-47 0 -69 26 -73 57h-5c-24 -33 -82 -58 -136 -58zM200 29c54 0 94 26 110 54v161l-74 -8c-84 -9 -135 -40 -135 -114c0 -56 35 -93 99 -93zM321 635l-184 -61l-7 14l156 114c13 9 24 12 33 12c20 0 35 -17 35 -37c0 -15 -7 -32 -33 -42z" />
    <glyph glyph-name="agrave" unicode="&#xe0;" horiz-adv-x="467" 
d="M171 -13c-91 0 -148 46 -148 126c0 87 77 121 134 134l153 36v107c0 61 -8 104 -101 104c-48 0 -60 -11 -64 -41c-5 -26 -5 -56 -45 -56c-36 0 -47 24 -47 44c0 62 111 81 170 81c116 0 161 -46 161 -127v-318c0 -24 9 -37 21 -45c13 -9 31 -11 54 -12v-13
c-14 -10 -49 -19 -74 -19c-47 0 -69 26 -73 57h-5c-24 -33 -82 -58 -136 -58zM200 29c54 0 94 26 110 54v161l-74 -8c-84 -9 -135 -40 -135 -114c0 -56 35 -93 99 -93zM315 574l-184 61c-26 10 -33 27 -33 42c0 20 15 37 35 37c9 0 20 -3 33 -12l156 -114z" />
    <glyph glyph-name="acircumflex" unicode="&#xe2;" horiz-adv-x="467" 
d="M171 -13c-91 0 -148 46 -148 126c0 87 77 121 134 134l153 36v107c0 61 -8 104 -101 104c-48 0 -60 -11 -64 -41c-5 -26 -5 -56 -45 -56c-36 0 -47 24 -47 44c0 62 111 81 170 81c116 0 161 -46 161 -127v-318c0 -24 9 -37 21 -45c13 -9 31 -11 54 -12v-13
c-14 -10 -49 -19 -74 -19c-47 0 -69 26 -73 57h-5c-24 -33 -82 -58 -136 -58zM200 29c54 0 94 26 110 54v161l-74 -8c-84 -9 -135 -40 -135 -114c0 -56 35 -93 99 -93zM94 575l-8 11l122 129h29l123 -129l-8 -11l-131 71z" />
    <glyph glyph-name="adieresis" unicode="&#xe4;" horiz-adv-x="467" 
d="M171 -13c-91 0 -148 46 -148 126c0 87 77 121 134 134l153 36v107c0 61 -8 104 -101 104c-48 0 -60 -11 -64 -41c-5 -26 -5 -56 -45 -56c-36 0 -47 24 -47 44c0 62 111 81 170 81c116 0 161 -46 161 -127v-318c0 -24 9 -37 21 -45c13 -9 31 -11 54 -12v-13
c-14 -10 -49 -19 -74 -19c-47 0 -69 26 -73 57h-5c-24 -33 -82 -58 -136 -58zM200 29c54 0 94 26 110 54v161l-74 -8c-84 -9 -135 -40 -135 -114c0 -56 35 -93 99 -93zM131 601c-28 0 -48 23 -48 48c0 26 20 48 48 48s48 -22 48 -48c0 -25 -20 -48 -48 -48zM303 601
c-28 0 -48 23 -48 48c0 26 20 48 48 48s48 -22 48 -48c0 -25 -20 -48 -48 -48z" />
    <glyph glyph-name="atilde" unicode="&#xe3;" horiz-adv-x="467" 
d="M171 -13c-91 0 -148 46 -148 126c0 87 77 121 134 134l153 36v107c0 61 -8 104 -101 104c-48 0 -60 -11 -64 -41c-5 -26 -5 -56 -45 -56c-36 0 -47 24 -47 44c0 62 111 81 170 81c116 0 161 -46 161 -127v-318c0 -24 9 -37 21 -45c13 -9 31 -11 54 -12v-13
c-14 -10 -49 -19 -74 -19c-47 0 -69 26 -73 57h-5c-24 -33 -82 -58 -136 -58zM200 29c54 0 94 26 110 54v161l-74 -8c-84 -9 -135 -40 -135 -114c0 -56 35 -93 99 -93zM94 576l-17 6c24 53 44 97 85 97c40 0 104 -27 137 -27c27 0 41 17 56 44l16 -7
c-25 -53 -45 -96 -86 -96c-42 0 -101 27 -137 27c-26 0 -39 -18 -54 -44z" />
    <glyph glyph-name="aring" unicode="&#xe5;" horiz-adv-x="467" 
d="M171 -13c-91 0 -148 46 -148 126c0 87 77 121 134 134l153 36v107c0 61 -8 104 -101 104c-48 0 -60 -11 -64 -41c-5 -26 -5 -56 -45 -56c-36 0 -47 24 -47 44c0 62 111 81 170 81c116 0 161 -46 161 -127v-318c0 -24 9 -37 21 -45c13 -9 31 -11 54 -12v-13
c-14 -10 -49 -19 -74 -19c-47 0 -69 26 -73 57h-5c-24 -33 -82 -58 -136 -58zM200 29c54 0 94 26 110 54v161l-74 -8c-84 -9 -135 -40 -135 -114c0 -56 35 -93 99 -93zM223 578c-53 0 -86 37 -86 82c0 47 38 83 86 83c52 0 86 -36 86 -83c0 -45 -37 -82 -86 -82zM223 602
c33 0 56 25 56 59c0 35 -23 59 -56 59s-55 -24 -55 -59c0 -34 22 -59 55 -59z" />
    <glyph glyph-name="ccedilla" unicode="&#xe7;" horiz-adv-x="452" 
d="M151 -200v15c64 15 89 35 89 60c0 20 -21 34 -55 37l-5 7l35 73c-122 19 -185 119 -185 250c0 217 162 279 262 279s138 -35 138 -80c0 -27 -18 -47 -48 -47c-32 0 -41 15 -46 42c-8 47 -17 54 -61 54c-85 0 -162 -65 -162 -216c0 -155 46 -237 166 -237
c69 0 118 23 150 42v-29c-23 -23 -82 -62 -169 -62c-6 0 -11 0 -16 1l-24 -41c43 -4 78 -22 78 -62c0 -46 -45 -77 -147 -86z" />
    <glyph glyph-name="eacute" unicode="&#xe9;" horiz-adv-x="485" 
d="M267 -12c-160 0 -237 113 -237 271c0 155 105 262 234 262c120 0 192 -69 190 -245h-343v-3c0 -163 71 -235 176 -235c83 0 125 25 159 43v-28c-23 -22 -80 -65 -179 -65zM261 492c-82 0 -142 -63 -149 -192l258 12c0 124 -28 180 -109 180zM360 635l-184 -61l-7 14
l156 114c13 9 24 12 33 12c20 0 35 -17 35 -37c0 -15 -7 -32 -33 -42z" />
    <glyph glyph-name="egrave" unicode="&#xe8;" horiz-adv-x="485" 
d="M267 -12c-160 0 -237 113 -237 271c0 155 105 262 234 262c120 0 192 -69 190 -245h-343v-3c0 -163 71 -235 176 -235c83 0 125 25 159 43v-28c-23 -22 -80 -65 -179 -65zM261 492c-82 0 -142 -63 -149 -192l258 12c0 124 -28 180 -109 180zM328 574l-184 61
c-26 10 -33 27 -33 42c0 20 15 37 35 37c9 0 20 -3 33 -12l156 -114z" />
    <glyph glyph-name="ecircumflex" unicode="&#xea;" horiz-adv-x="485" 
d="M267 -12c-160 0 -237 113 -237 271c0 155 105 262 234 262c120 0 192 -69 190 -245h-343v-3c0 -163 71 -235 176 -235c83 0 125 25 159 43v-28c-23 -22 -80 -65 -179 -65zM261 492c-82 0 -142 -63 -149 -192l258 12c0 124 -28 180 -109 180zM130 575l-8 11l122 129h29
l123 -129l-8 -11l-131 71z" />
    <glyph glyph-name="edieresis" unicode="&#xeb;" horiz-adv-x="485" 
d="M267 -12c-160 0 -237 113 -237 271c0 155 105 262 234 262c120 0 192 -69 190 -245h-343v-3c0 -163 71 -235 176 -235c83 0 125 25 159 43v-28c-23 -22 -80 -65 -179 -65zM261 492c-82 0 -142 -63 -149 -192l258 12c0 124 -28 180 -109 180zM171 601c-28 0 -48 23 -48 48
c0 26 20 48 48 48s48 -22 48 -48c0 -25 -20 -48 -48 -48zM343 601c-28 0 -48 23 -48 48c0 26 20 48 48 48s48 -22 48 -48c0 -25 -20 -48 -48 -48z" />
    <glyph glyph-name="iacute" unicode="&#xed;" horiz-adv-x="245" 
d="M23 0v16l33 9c29 8 33 16 33 53v340c0 36 -6 39 -38 54l-27 13v14l137 20l6 -3s-4 -39 -4 -106v-332c0 -39 5 -45 33 -53l33 -9v-16h-206zM230 635l-184 -61l-7 14l156 114c13 9 24 12 33 12c20 0 35 -17 35 -37c0 -15 -7 -32 -33 -42z" />
    <glyph glyph-name="igrave" unicode="&#xec;" horiz-adv-x="245" 
d="M23 0v16l33 9c29 8 33 16 33 53v340c0 36 -6 39 -38 54l-27 13v14l137 20l6 -3s-4 -39 -4 -106v-332c0 -39 5 -45 33 -53l33 -9v-16h-206zM197 574l-184 61c-26 10 -33 27 -33 42c0 20 15 37 35 37c9 0 20 -3 33 -12l156 -114z" />
    <glyph glyph-name="icircumflex" unicode="&#xee;" horiz-adv-x="245" 
d="M23 0v16l33 9c29 8 33 16 33 53v340c0 36 -6 39 -38 54l-27 13v14l137 20l6 -3s-4 -39 -4 -106v-332c0 -39 5 -45 33 -53l33 -9v-16h-206zM-16 575l-8 11l122 129h29l123 -129l-8 -11l-131 71z" />
    <glyph glyph-name="idieresis" unicode="&#xef;" horiz-adv-x="245" 
d="M23 0v16l33 9c29 8 33 16 33 53v340c0 36 -6 39 -38 54l-27 13v14l137 20l6 -3s-4 -39 -4 -106v-332c0 -39 5 -45 33 -53l33 -9v-16h-206zM35 601c-28 0 -48 23 -48 48c0 26 20 48 48 48s48 -22 48 -48c0 -25 -20 -48 -48 -48zM207 601c-28 0 -48 23 -48 48
c0 26 20 48 48 48s48 -22 48 -48c0 -25 -20 -48 -48 -48z" />
    <glyph glyph-name="ntilde" unicode="&#xf1;" horiz-adv-x="562" 
d="M479 388v-310c0 -37 4 -45 33 -53l34 -9v-16h-210v16l34 9c29 8 35 14 35 53v293c0 74 -23 99 -87 99c-67 0 -122 -20 -155 -32v-360c0 -39 6 -46 35 -53l35 -9v-16h-210v16l33 9c29 8 33 16 33 53v340c0 36 -6 39 -38 54l-27 13v14l133 20l7 -3l-2 -55h3
c48 30 122 60 181 60c102 0 133 -43 133 -133zM155 576l-17 6c24 53 44 97 85 97c40 0 104 -27 137 -27c27 0 41 17 56 44l16 -7c-25 -53 -45 -96 -86 -96c-42 0 -101 27 -137 27c-26 0 -39 -18 -54 -44z" />
    <glyph glyph-name="oacute" unicode="&#xf3;" 
d="M268 -13c-137 0 -238 92 -238 267c0 168 114 268 238 268c138 0 239 -87 239 -262c0 -168 -115 -273 -239 -273zM273 16c100 0 149 84 149 229c0 168 -50 248 -156 248c-99 0 -151 -74 -151 -227c0 -167 53 -250 158 -250zM373 635l-184 -61l-7 14l156 114
c13 9 24 12 33 12c20 0 35 -17 35 -37c0 -15 -7 -32 -33 -42z" />
    <glyph glyph-name="ograve" unicode="&#xf2;" 
d="M268 -13c-137 0 -238 92 -238 267c0 168 114 268 238 268c138 0 239 -87 239 -262c0 -168 -115 -273 -239 -273zM273 16c100 0 149 84 149 229c0 168 -50 248 -156 248c-99 0 -151 -74 -151 -227c0 -167 53 -250 158 -250zM352 574l-184 61c-26 10 -33 27 -33 42
c0 20 15 37 35 37c9 0 20 -3 33 -12l156 -114z" />
    <glyph glyph-name="ocircumflex" unicode="&#xf4;" 
d="M268 -13c-137 0 -238 92 -238 267c0 168 114 268 238 268c138 0 239 -87 239 -262c0 -168 -115 -273 -239 -273zM273 16c100 0 149 84 149 229c0 168 -50 248 -156 248c-99 0 -151 -74 -151 -227c0 -167 53 -250 158 -250zM139 575l-8 11l122 129h29l123 -129l-8 -11
l-131 71z" />
    <glyph glyph-name="odieresis" unicode="&#xf6;" 
d="M268 -13c-137 0 -238 92 -238 267c0 168 114 268 238 268c138 0 239 -87 239 -262c0 -168 -115 -273 -239 -273zM273 16c100 0 149 84 149 229c0 168 -50 248 -156 248c-99 0 -151 -74 -151 -227c0 -167 53 -250 158 -250zM182 601c-28 0 -48 23 -48 48c0 26 20 48 48 48
s48 -22 48 -48c0 -25 -20 -48 -48 -48zM354 601c-28 0 -48 23 -48 48c0 26 20 48 48 48s48 -22 48 -48c0 -25 -20 -48 -48 -48z" />
    <glyph glyph-name="otilde" unicode="&#xf5;" 
d="M268 -13c-137 0 -238 92 -238 267c0 168 114 268 238 268c138 0 239 -87 239 -262c0 -168 -115 -273 -239 -273zM273 16c100 0 149 84 149 229c0 168 -50 248 -156 248c-99 0 -151 -74 -151 -227c0 -167 53 -250 158 -250zM138 576l-17 6c24 53 44 97 85 97
c40 0 104 -27 137 -27c27 0 41 17 56 44l16 -7c-25 -53 -45 -96 -86 -96c-42 0 -101 27 -137 27c-26 0 -39 -18 -54 -44z" />
    <glyph glyph-name="uacute" unicode="&#xfa;" horiz-adv-x="553" 
d="M214 -12c-80 0 -130 46 -130 130v304c0 36 -6 44 -37 56l-28 11v15l130 15l9 -8v-376c0 -61 28 -96 89 -96c55 0 114 20 153 37v347c0 36 -5 44 -38 56l-28 10v15l130 15l10 -8v-413c0 -41 8 -50 38 -64l28 -13v-13l-134 -18l-6 4l2 59h-4c-49 -34 -116 -65 -184 -65z
M393 635l-184 -61l-7 14l156 114c13 9 24 12 33 12c20 0 35 -17 35 -37c0 -15 -7 -32 -33 -42z" />
    <glyph glyph-name="ugrave" unicode="&#xf9;" horiz-adv-x="553" 
d="M214 -12c-80 0 -130 46 -130 130v304c0 36 -6 44 -37 56l-28 11v15l130 15l9 -8v-376c0 -61 28 -96 89 -96c55 0 114 20 153 37v347c0 36 -5 44 -38 56l-28 10v15l130 15l10 -8v-413c0 -41 8 -50 38 -64l28 -13v-13l-134 -18l-6 4l2 59h-4c-49 -34 -116 -65 -184 -65z
M351 574l-184 61c-26 10 -33 27 -33 42c0 20 15 37 35 37c9 0 20 -3 33 -12l156 -114z" />
    <glyph glyph-name="ucircumflex" unicode="&#xfb;" horiz-adv-x="553" 
d="M214 -12c-80 0 -130 46 -130 130v304c0 36 -6 44 -37 56l-28 11v15l130 15l9 -8v-376c0 -61 28 -96 89 -96c55 0 114 20 153 37v347c0 36 -5 44 -38 56l-28 10v15l130 15l10 -8v-413c0 -41 8 -50 38 -64l28 -13v-13l-134 -18l-6 4l2 59h-4c-49 -34 -116 -65 -184 -65z
M148 575l-8 11l122 129h29l123 -129l-8 -11l-131 71z" />
    <glyph glyph-name="udieresis" unicode="&#xfc;" horiz-adv-x="553" 
d="M214 -12c-80 0 -130 46 -130 130v304c0 36 -6 44 -37 56l-28 11v15l130 15l9 -8v-376c0 -61 28 -96 89 -96c55 0 114 20 153 37v347c0 36 -5 44 -38 56l-28 10v15l130 15l10 -8v-413c0 -41 8 -50 38 -64l28 -13v-13l-134 -18l-6 4l2 59h-4c-49 -34 -116 -65 -184 -65z
M183 601c-28 0 -48 23 -48 48c0 26 20 48 48 48s48 -22 48 -48c0 -25 -20 -48 -48 -48zM355 601c-28 0 -48 23 -48 48c0 26 20 48 48 48s48 -22 48 -48c0 -25 -20 -48 -48 -48z" />
    <glyph glyph-name="dagger" unicode="&#x2020;" horiz-adv-x="415" 
d="M197 -67l-36 438c18 29 33 83 35 122c-65 -1 -108 -30 -132 -30c-26 0 -39 17 -39 40s13 40 39 40c24 0 67 -29 132 -31c-3 60 -35 126 -35 141c0 29 26 49 46 49s47 -20 47 -49c0 -15 -31 -81 -35 -141c65 1 108 31 132 31c26 0 39 -17 39 -40s-13 -40 -39 -40
c-24 0 -67 29 -132 30c3 -39 17 -93 35 -122l-36 -438h-21z" />
    <glyph glyph-name="degree" unicode="&#xb0;" horiz-adv-x="296" 
d="M148 461c-69 0 -119 55 -119 121c0 64 50 119 119 119s119 -55 119 -119c0 -66 -50 -121 -119 -121zM148 488c51 0 85 42 85 94c0 50 -34 92 -85 92s-85 -42 -85 -92c0 -52 34 -94 85 -94z" />
    <glyph glyph-name="cent" unicode="&#xa2;" horiz-adv-x="455" 
d="M238 -104v93c-136 11 -207 114 -207 253c0 181 109 254 207 273v81h37v-76c6 1 12 1 18 1c100 0 138 -35 138 -80c0 -27 -18 -47 -48 -47c-32 0 -41 15 -46 42c-8 47 -17 56 -61 56h-1v-457h5c69 0 118 25 150 44v-29c-22 -22 -76 -57 -155 -61v-93h-37zM114 274
c0 -136 35 -217 124 -235v449c-72 -17 -124 -85 -124 -214z" />
    <glyph glyph-name="sterling" unicode="&#xa3;" horiz-adv-x="494" 
d="M53 340v31h65c-9 47 -18 93 -18 129c0 133 107 205 228 205c67 0 129 -22 129 -78c0 -24 -13 -42 -41 -42c-27 0 -41 12 -50 43c-12 43 -21 47 -58 47c-65 0 -131 -39 -131 -159c0 -39 5 -92 10 -145h177v-31h-174c3 -39 6 -76 6 -102c0 -81 -42 -122 -100 -160v-5h261
c43 0 48 5 88 78h17l-30 -151h-414v56c78 38 123 87 123 167c0 33 -8 74 -16 117h-72z" />
    <glyph glyph-name="section" unicode="&#xa7;" horiz-adv-x="511" 
d="M226 -204c-89 0 -142 33 -142 80c0 25 17 43 45 43s43 -14 46 -42c5 -44 20 -53 60 -53c70 0 102 45 102 102c0 69 -44 107 -152 199c-103 89 -162 139 -162 218c0 57 44 103 102 135c-9 20 -15 39 -15 68c0 90 71 156 187 156c77 0 131 -30 131 -76
c0 -20 -15 -42 -45 -42s-44 14 -50 48c-5 31 -14 42 -54 42c-65 0 -97 -47 -97 -98c0 -74 37 -110 146 -203c122 -103 160 -142 160 -213c0 -59 -35 -99 -95 -139c7 -16 15 -42 15 -65c0 -92 -62 -160 -182 -160zM381 43c29 20 42 49 42 87c0 64 -46 94 -144 180
c-62 52 -113 98 -144 146c-30 -18 -46 -48 -46 -88c0 -64 43 -93 146 -181c61 -51 116 -96 146 -144z" />
    <glyph glyph-name="bullet" unicode="&#x2022;" horiz-adv-x="325" 
d="M161 201c-62 0 -111 51 -111 115c0 65 49 115 111 115s114 -50 114 -115c0 -64 -52 -115 -114 -115z" />
    <glyph glyph-name="paragraph" unicode="&#xb6;" horiz-adv-x="511" 
d="M249 -100v451c-9 -1 -14 -2 -28 -2c-136 0 -201 67 -201 177c0 105 72 167 203 167h261v-17l-39 -7c-32 -6 -38 -12 -38 -57v-712h-40v764h-78v-764h-40z" />
    <glyph glyph-name="germandbls" unicode="&#xdf;" horiz-adv-x="564" 
d="M368 -6c-80 0 -125 38 -125 73c0 21 12 41 42 41c35 0 40 -26 46 -50c5 -21 13 -39 55 -39c56 0 90 35 90 83c0 46 -34 85 -99 127c-81 52 -116 84 -116 133c0 76 122 146 122 262c0 62 -36 105 -103 105c-79 0 -117 -55 -117 -138v-510c0 -41 2 -49 30 -57l27 -8v-16
h-197v16l33 9c29 8 33 16 33 53v391h-68v18l68 19v25c0 181 123 225 204 225c104 0 160 -53 160 -120c0 -95 -138 -182 -138 -238c0 -24 11 -46 106 -110c84 -57 119 -105 119 -159c0 -84 -68 -135 -172 -135z" />
    <glyph glyph-name="registered" unicode="&#xae;" horiz-adv-x="788" 
d="M394 -14c-201 0 -355 161 -355 358s154 356 355 356c200 0 355 -159 355 -356s-155 -358 -355 -358zM394 16c185 0 317 148 317 328s-132 326 -317 326c-186 0 -317 -146 -317 -326s131 -328 317 -328zM234 155v17l28 5c12 2 17 5 17 33v272c0 27 -5 30 -17 33l-28 6v17
h163c89 0 132 -34 132 -98c0 -42 -32 -80 -89 -97v-2c28 -50 63 -110 94 -150c6 -8 14 -12 28 -16l12 -3v-17h-86c-41 52 -76 112 -103 172h-45v-117c0 -28 3 -30 20 -33l28 -5v-17h-154zM371 352c66 0 93 25 93 83c0 67 -23 78 -73 78c-25 0 -40 -2 -51 -4v-155
s16 -2 31 -2z" />
    <glyph glyph-name="copyright" unicode="&#xa9;" horiz-adv-x="788" 
d="M393 -14c-201 0 -354 161 -354 358s153 356 354 356c200 0 356 -159 356 -356s-156 -358 -356 -358zM393 17c185 0 317 147 317 327s-132 326 -317 326c-186 0 -317 -146 -317 -326s131 -327 317 -327zM389 136c-98 0 -180 60 -180 205c0 156 97 213 199 213
c48 0 86 -7 111 -15l5 -117h-18c-10 28 -24 58 -36 77c-11 18 -27 29 -68 29c-78 0 -122 -52 -122 -175c0 -133 40 -191 114 -191c52 0 66 14 80 35c16 25 23 43 35 75h17l-6 -110c-26 -13 -75 -26 -131 -26z" />
    <glyph glyph-name="trademark" unicode="&#x2122;" horiz-adv-x="660" 
d="M296 424v14l11 3c19 5 24 12 24 43v170c0 12 -2 14 -13 18l-22 7v14h99l71 -201h4l67 201h96v-15l-20 -6c-11 -3 -13 -7 -13 -19v-183c0 -20 1 -23 11 -26l22 -6v-14h-112v14l23 7c9 3 10 5 10 25v195h-3l-81 -233h-25l-88 233h-2v-182c0 -29 4 -35 23 -41l13 -4v-14h-95
zM82 423v15l26 6c10 2 12 6 12 25v208h-3c-32 0 -43 -3 -53 -20c-9 -16 -13 -26 -26 -58h-14l4 94h235l4 -94h-14c-12 29 -16 42 -26 58c-11 17 -21 20 -53 20h-3v-208c0 -19 2 -23 11 -25l27 -6v-15h-127z" />
    <glyph glyph-name="acute" unicode="&#xb4;" horiz-adv-x="500" 
d="M323 635l-184 -61l-7 14l156 114c13 9 24 12 33 12c20 0 35 -17 35 -37c0 -15 -7 -32 -33 -42z" />
    <glyph glyph-name="dieresis" unicode="&#xa8;" horiz-adv-x="482" 
d="M155 601c-28 0 -48 23 -48 48c0 26 20 48 48 48s48 -22 48 -48c0 -25 -20 -48 -48 -48zM327 601c-28 0 -48 23 -48 48c0 26 20 48 48 48s48 -22 48 -48c0 -25 -20 -48 -48 -48z" />
    <glyph glyph-name="AE" unicode="&#xc6;" horiz-adv-x="878" 
d="M348 0v17l39 8c29 6 38 11 38 56v159h-210l-64 -120c-35 -64 -34 -85 8 -96l28 -7v-17h-194v17l23 7c42 13 53 22 99 104l298 531c-6 4 -15 6 -26 9l-44 8v17h471l13 -167h-21c-20 46 -34 78 -43 93c-27 40 -35 46 -144 46c-49 0 -94 -4 -116 -9v-281h46
c78 0 113 4 127 34c10 21 15 43 21 75h21v-247h-21c-7 34 -11 48 -21 73c-12 32 -35 35 -127 35h-46v-220c0 -95 6 -97 131 -97c95 0 111 5 137 40c13 19 39 79 55 130h23l-15 -198h-486zM422 621l-189 -349h192v349h-3z" />
    <glyph glyph-name="Oslash" unicode="&#xd8;" horiz-adv-x="671" 
d="M330 -12c-58 0 -111 14 -155 41l-55 -93h-40l67 113c-70 57 -112 154 -112 288c0 262 143 368 306 368c63 0 119 -18 166 -51l45 76h40l-58 -98c63 -60 102 -156 102 -282c0 -261 -143 -362 -306 -362zM116 352c0 -103 20 -191 62 -250l301 505c-35 40 -82 65 -144 65
c-153 0 -219 -114 -219 -320zM335 21c152 0 220 108 220 314c0 93 -17 180 -54 242l-299 -504c34 -33 78 -52 133 -52z" />
    <glyph glyph-name="plusminus" unicode="&#xb1;" horiz-adv-x="818" 
d="M697 250l-339 16l80 -66c114 -94 -27 -237 -124 -142l-286 287v4l287 288c96 94 237 -49 123 -143l-80 -66l339 16c134 6 134 -200 0 -194z" />
    <glyph glyph-name="yen" unicode="&#xa5;" horiz-adv-x="541" 
d="M435 564l-121 -244h178v-30h-181v-70h181v-30h-181v-109c0 -45 3 -50 37 -56l43 -8v-17h-238v17l43 8c34 6 37 11 37 56v109h-180v30h180v70h-180v30h174l-142 259c-42 78 -45 85 -70 91l-23 6v17h220v-17l-35 -8c-37 -9 -46 -19 -17 -75l129 -248h4l114 241
c29 62 19 71 -22 82l-29 8v17h179v-17l-23 -7c-25 -8 -35 -21 -77 -105z" />
    <glyph glyph-name="mu" unicode="&#xb5;" horiz-adv-x="818" 
d="M460 266l-339 -16c-134 -6 -134 200 0 194l339 -16l-80 66c-114 94 27 237 123 143l287 -288v-4l-286 -287c-97 -95 -238 48 -124 142z" />
    <glyph glyph-name="mu" unicode="&#x3bc;" horiz-adv-x="818" 
d="M460 266l-339 -16c-134 -6 -134 200 0 194l339 -16l-80 66c-114 94 27 237 123 143l287 -288v-4l-286 -287c-97 -95 -238 48 -124 142z" />
    <glyph glyph-name="product" unicode="&#x220f;" horiz-adv-x="337" 
d="M227 472l-15 173c-2 41 20 55 48 55c24 0 54 -23 39 -67l-54 -161h-18zM72 472l-16 173c-1 41 21 55 48 55c25 0 54 -23 40 -67l-55 -161h-17z" />
    <glyph glyph-name="pi" unicode="&#x3c0;" horiz-adv-x="197" 
d="M71 472l-15 173c-1 41 20 55 48 55c25 0 54 -23 40 -67l-55 -161h-18z" />
    <glyph glyph-name="ordfeminine" unicode="&#xaa;" horiz-adv-x="386" 
d="M129 277c-70 0 -116 37 -116 97c0 70 57 94 107 106l114 29v76c0 53 -6 91 -79 91c-37 0 -40 -15 -43 -38s-6 -45 -40 -45c-28 0 -38 17 -38 34c0 39 59 73 132 73c89 0 137 -40 137 -111v-233c0 -20 3 -32 17 -39c9 -4 22 -6 41 -7v-14c-15 -9 -38 -18 -64 -18
c-45 0 -60 21 -61 46h-5c-24 -29 -60 -47 -102 -47zM149 313c40 0 68 17 85 42v120l-55 -7c-61 -7 -96 -32 -96 -86c0 -45 28 -69 66 -69z" />
    <glyph glyph-name="ordmasculine" unicode="&#xba;" horiz-adv-x="423" 
d="M212 279c-110 0 -189 71 -189 209c0 133 88 212 189 212c110 0 188 -69 188 -206c0 -132 -88 -215 -188 -215zM215 307c79 0 112 62 112 176c0 131 -35 191 -119 191c-77 0 -111 -55 -111 -175c0 -131 36 -192 118 -192z" />
    <glyph glyph-name="ae" unicode="&#xe6;" horiz-adv-x="745" 
d="M526 -12c-89 0 -146 35 -179 93h-4c-42 -47 -82 -94 -174 -94c-89 0 -146 47 -146 131c0 83 78 130 155 147l130 27v98c0 61 -8 104 -101 104c-48 0 -60 -11 -65 -41c-4 -26 -4 -56 -45 -56c-35 0 -46 24 -46 43c0 63 111 82 170 82c91 0 134 -27 149 -74
c37 48 91 74 156 74c121 0 187 -69 187 -255h-328c1 -159 68 -229 162 -229c80 0 121 26 158 43v-28c-24 -16 -87 -65 -179 -65zM196 29c53 0 94 24 139 76c-19 43 -27 95 -27 152l-69 -7c-86 -9 -138 -51 -138 -127c0 -59 38 -94 95 -94zM524 493c-82 0 -134 -66 -139 -201
l238 11c0 126 -22 190 -99 190z" />
    <glyph glyph-name="oslash" unicode="&#xf8;" 
d="M68 -64l55 96c-58 43 -93 118 -93 222c0 168 114 268 238 268c44 0 85 -9 120 -27l39 68h36l-49 -85c57 -42 93 -115 93 -218c0 -168 -115 -273 -239 -273c-44 0 -84 10 -119 28l-45 -79h-36zM117 277c0 -94 11 -157 33 -198l217 380c-24 24 -58 34 -101 34
c-99 0 -148 -71 -149 -216zM273 16c99 0 147 78 147 219c0 94 -10 156 -32 196l-218 -380c25 -25 59 -35 103 -35z" />
    <glyph glyph-name="questiondown" unicode="&#xbf;" horiz-adv-x="409" 
d="M266 432v-181c-76 -28 -167 -80 -167 -180c0 -94 62 -126 137 -126c18 0 37 2 42 37c6 37 17 51 48 51s44 -18 44 -43c0 -49 -66 -77 -134 -77c-107 0 -194 63 -194 191c0 111 85 173 185 211v117h39zM249 622c28 0 52 -23 52 -51c0 -29 -24 -50 -52 -50
c-27 0 -53 21 -53 50c0 28 26 51 53 51z" />
    <glyph glyph-name="exclamdown" unicode="&#xa1;" horiz-adv-x="246" 
d="M127 622c29 0 52 -23 52 -51c0 -29 -23 -50 -52 -50c-27 0 -52 21 -52 50c0 28 25 51 52 51zM139 434l38 -460c3 -39 -23 -58 -50 -58c-26 0 -53 19 -50 58l38 460h24z" />
    <glyph glyph-name="logicalnot" unicode="&#xac;" horiz-adv-x="806" 
d="M402 -15c-200 0 -361 163 -361 362c0 200 161 361 361 361c199 0 363 -161 363 -361c0 -199 -164 -362 -363 -362z" />
    <glyph glyph-name="florin" unicode="&#x192;" horiz-adv-x="375" 
d="M28 355v30h85l18 125c20 138 102 191 179 191c59 0 99 -24 99 -62c0 -28 -13 -43 -43 -43c-29 0 -40 16 -45 46c-4 27 -12 31 -27 31c-33 0 -62 -17 -76 -113l-26 -175h100v-30h-104l-50 -344c-22 -149 -98 -206 -158 -206c-55 0 -87 25 -87 58c0 19 13 34 39 34
c22 0 32 -12 37 -32c8 -31 10 -36 27 -36c16 0 37 9 47 77l65 449h-80z" />
    <glyph glyph-name="guillemotleft" unicode="&#xab;" horiz-adv-x="416" 
d="M212 45l-164 197v21l164 197h31l-116 -207l116 -208h-31zM365 45l-165 197v21l165 197h31l-117 -207l117 -208h-31z" />
    <glyph glyph-name="guillemotright" unicode="&#xbb;" horiz-adv-x="418" 
d="M20 45l117 207l-117 208h31l164 -197v-21l-164 -197h-31zM174 45l117 207l-117 208h31l165 -197v-21l-165 -197h-31z" />
    <glyph glyph-name="ellipsis" unicode="&#x2026;" horiz-adv-x="509" 
d="M87 -4c-29 0 -52 22 -52 51c0 28 23 51 52 51c28 0 51 -23 51 -51c0 -29 -23 -51 -51 -51zM255 -4c-29 0 -53 22 -53 51c0 28 24 51 53 51c28 0 51 -23 51 -51c0 -29 -23 -51 -51 -51zM422 -4c-28 0 -52 22 -52 51c0 28 24 51 52 51c29 0 52 -23 52 -51
c0 -29 -23 -51 -52 -51z" />
    <glyph glyph-name="Agrave" unicode="&#xc0;" horiz-adv-x="625" 
d="M-3 0l1 17l31 10c24 7 32 14 62 98l208 568h40l199 -582c25 -69 38 -81 66 -88l24 -6v-17h-222v17l22 6c45 12 48 23 24 95l-46 135h-228l-46 -135c-23 -71 -12 -82 27 -93l29 -8v-17h-191zM291 582l-102 -298h207l-100 298h-5zM398 744l-184 61c-26 10 -33 27 -33 42
c0 20 15 37 35 37c9 0 20 -3 33 -12l156 -114z" />
    <glyph glyph-name="Atilde" unicode="&#xc3;" horiz-adv-x="625" 
d="M-3 0l1 17l31 10c24 7 32 14 62 98l208 568h40l199 -582c25 -69 38 -81 66 -88l24 -6v-17h-222v17l22 6c45 12 48 23 24 95l-46 135h-228l-46 -135c-23 -71 -12 -82 27 -93l29 -8v-17h-191zM291 582l-102 -298h207l-100 298h-5zM188 746l-17 6c24 53 44 97 85 97
c40 0 104 -27 137 -27c27 0 41 17 56 44l16 -7c-25 -53 -45 -96 -86 -96c-42 0 -101 27 -137 27c-26 0 -39 -18 -54 -44z" />
    <glyph glyph-name="Otilde" unicode="&#xd5;" horiz-adv-x="671" 
d="M330 -12c-171 0 -295 120 -295 349c0 262 143 368 306 368c171 0 295 -128 295 -355c0 -261 -143 -362 -306 -362zM335 21c152 0 220 108 220 314c0 181 -66 337 -220 337c-153 0 -219 -114 -219 -320c0 -192 76 -331 219 -331zM205 746l-17 6c24 53 44 97 85 97
c40 0 104 -27 137 -27c27 0 41 17 56 44l16 -7c-25 -53 -45 -96 -86 -96c-42 0 -101 27 -137 27c-26 0 -39 -18 -54 -44z" />
    <glyph glyph-name="OE" unicode="&#x152;" horiz-adv-x="939" 
d="M367 693h508l13 -167h-21c-20 46 -34 79 -43 94c-27 40 -35 45 -144 45c-49 0 -100 -3 -125 -9v-281h55c78 0 113 4 127 34c10 21 15 43 21 75h21v-247h-21c-7 34 -11 48 -21 73c-12 32 -35 35 -127 35h-55v-220c0 -95 3 -97 140 -97c95 0 111 5 137 40
c13 19 39 79 55 130h23l-15 -198h-534c-187 0 -326 84 -326 341c0 229 128 352 332 352zM379 29c65 0 98 7 98 96v464c0 70 -24 76 -98 76c-203 0 -263 -150 -263 -307c0 -211 78 -329 263 -329z" />
    <glyph glyph-name="oe" unicode="&#x153;" horiz-adv-x="869" 
d="M266 -13c-139 0 -236 92 -236 267c0 168 110 268 234 268c95 0 162 -37 195 -120c37 76 105 120 188 120c123 0 192 -68 191 -250h-340c0 -163 77 -234 171 -234c80 0 125 26 161 43v-28c-23 -16 -90 -65 -181 -65c-105 0 -167 44 -197 120c-36 -79 -104 -121 -186 -121z
M269 16c100 0 144 84 144 229c0 168 -45 248 -152 248c-98 0 -146 -74 -146 -226c0 -168 49 -251 154 -251zM647 493c-80 0 -140 -63 -148 -191l249 12c0 119 -24 179 -101 179z" />
    <glyph glyph-name="endash" unicode="&#x2013;" horiz-adv-x="359" 
d="M40 268v36h279v-36h-279z" />
    <glyph glyph-name="emdash" unicode="&#x2014;" horiz-adv-x="562" 
d="M40 268v36h482v-36h-482z" />
    <glyph glyph-name="quotedblleft" unicode="&#x201c;" horiz-adv-x="339" 
d="M301 706l6 -15c-52 -25 -72 -51 -72 -92c2 1 9 6 20 6c25 0 44 -21 44 -46c0 -26 -22 -45 -49 -45c-32 0 -58 27 -58 66c0 61 35 106 109 126zM144 706l6 -15c-52 -25 -72 -51 -72 -92c2 1 9 6 20 6c25 0 44 -21 44 -46c0 -26 -22 -45 -49 -45c-32 0 -58 27 -58 66
c0 61 35 106 109 126z" />
    <glyph glyph-name="quotedblright" unicode="&#x201d;" horiz-adv-x="339" 
d="M38 514l-6 15c52 25 72 51 72 92c-2 -1 -9 -6 -20 -6c-25 0 -44 21 -44 46c0 26 22 45 49 45c32 0 58 -27 58 -66c0 -61 -35 -106 -109 -126zM195 514l-6 15c52 25 72 51 72 92c-2 -1 -9 -6 -20 -6c-25 0 -44 21 -44 46c0 26 22 45 49 45c32 0 58 -27 58 -66
c0 -61 -35 -106 -109 -126z" />
    <glyph glyph-name="quoteleft" unicode="&#x2018;" horiz-adv-x="182" 
d="M144 706l6 -15c-52 -25 -72 -51 -72 -92c2 1 9 6 20 6c25 0 44 -21 44 -46c0 -26 -22 -45 -49 -45c-32 0 -58 27 -58 66c0 61 35 106 109 126z" />
    <glyph glyph-name="quoteright" unicode="&#x2019;" horiz-adv-x="182" 
d="M38 514l-6 15c52 25 72 51 72 92c-2 -1 -9 -6 -20 -6c-25 0 -44 21 -44 46c0 26 22 45 49 45c32 0 58 -27 58 -66c0 -61 -35 -106 -109 -126z" />
    <glyph glyph-name="divide" unicode="&#xf7;" horiz-adv-x="437" 
d="M217 117c-31 0 -56 25 -56 55c0 32 25 55 56 55c30 0 56 -23 56 -55c0 -30 -26 -55 -56 -55zM217 440c-31 0 -56 24 -56 54c0 32 25 55 56 55c30 0 56 -23 56 -55c0 -30 -26 -54 -56 -54zM33 313v42h371v-42h-371z" />
    <glyph glyph-name="ydieresis" unicode="&#xff;" horiz-adv-x="478" 
d="M78 -205c-53 0 -73 27 -73 56c0 31 20 46 48 46c30 0 39 -15 47 -35c6 -16 9 -19 18 -19c27 0 54 37 76 90l28 68l-155 417c-18 49 -24 54 -49 63l-26 8v16h195v-16l-26 -7c-21 -6 -26 -14 -26 -29c0 -14 6 -31 13 -50l112 -302h4l106 301c9 26 13 45 12 58
c-1 12 -11 17 -29 22l-26 7v16h159v-16l-30 -8c-23 -6 -27 -19 -47 -73l-164 -442c-31 -84 -61 -171 -167 -171zM171 601c-28 0 -48 23 -48 48c0 26 20 48 48 48s48 -22 48 -48c0 -25 -20 -48 -48 -48zM343 601c-28 0 -48 23 -48 48c0 26 20 48 48 48s48 -22 48 -48
c0 -25 -20 -48 -48 -48z" />
    <glyph glyph-name="Ydieresis" unicode="&#x178;" horiz-adv-x="582" 
d="M263 81v197l-177 320c-31 57 -37 63 -63 71l-27 7v17h226v-17l-34 -8c-37 -9 -47 -20 -18 -74l149 -276h3l128 268c29 60 18 72 -23 82l-33 8v17h192v-17l-24 -8c-32 -11 -44 -20 -85 -104l-136 -276v-207c0 -45 3 -50 37 -56l43 -8v-17h-238v17l43 8c34 6 37 11 37 56z
M224 761c-28 0 -48 23 -48 48c0 26 20 48 48 48s48 -22 48 -48c0 -25 -20 -48 -48 -48zM396 761c-28 0 -48 23 -48 48c0 26 20 48 48 48s48 -22 48 -48c0 -25 -20 -48 -48 -48z" />
    <glyph glyph-name="fraction" unicode="&#x2044;" horiz-adv-x="224" 
d="M-157 -50l496 764h40l-495 -764h-41z" />
    <glyph glyph-name="Euro" unicode="&#x20ac;" horiz-adv-x="551" 
d="M20 390v31h64c26 198 147 284 272 284c102 0 167 -42 167 -96c0 -35 -24 -44 -45 -44c-34 0 -46 16 -51 55c-6 48 -25 55 -76 55c-107 0 -177 -78 -189 -254h232l-5 -31h-229v-28c0 -20 0 -39 1 -57h212l-5 -30h-204c16 -169 84 -238 189 -238c77 0 122 27 161 54v-29
c-38 -34 -93 -74 -177 -74c-131 0 -237 93 -255 287h-62v30h60c-1 11 -1 21 -1 33c0 18 0 35 2 52h-61z" />
    <glyph glyph-name="guilsinglleft" unicode="&#x2039;" horiz-adv-x="264" 
d="M214 45l-166 197v21l166 197h30l-117 -207l117 -208h-30z" />
    <glyph glyph-name="guilsinglright" unicode="&#x203a;" horiz-adv-x="265" 
d="M20 45l117 207l-117 208h31l166 -197v-21l-166 -197h-31z" />
    <glyph glyph-name="daggerdbl" unicode="&#x2021;" horiz-adv-x="416" 
d="M200 314l-39 99c17 21 34 49 35 80c-63 -1 -108 -30 -132 -30c-27 0 -39 17 -39 40s12 40 39 40c24 0 69 -29 132 -31c-3 60 -35 126 -35 141c0 29 26 49 46 49s47 -20 47 -49c0 -15 -31 -81 -35 -141c65 1 107 31 131 31c26 0 40 -17 40 -41c0 -22 -14 -39 -40 -39
c-24 0 -66 29 -131 30c3 -31 20 -59 36 -80l-39 -99h-16zM216 289l39 -99c-17 -21 -34 -49 -35 -80c63 1 108 30 132 30c27 0 39 -17 39 -40s-12 -40 -39 -40c-24 0 -69 29 -132 31c3 -60 35 -126 35 -141c0 -29 -26 -49 -46 -49s-47 20 -47 49c0 15 31 81 35 141
c-65 -1 -107 -31 -131 -31c-26 0 -40 17 -40 41c0 22 14 39 40 39c24 0 66 -29 131 -30c-3 31 -20 59 -36 80l39 99h16z" />
    <glyph glyph-name="periodcentered" unicode="&#xb7;" horiz-adv-x="185" 
d="M92 287c-28 0 -52 23 -52 51c0 29 24 51 52 51s53 -22 53 -51c0 -28 -25 -51 -53 -51z" />
    <glyph glyph-name="quotesinglbase" unicode="&#x201a;" horiz-adv-x="182" 
d="M38 -93l-6 15c52 25 72 51 72 92c-2 -1 -9 -6 -20 -6c-25 0 -44 21 -44 46c0 26 22 45 49 45c32 0 58 -27 58 -66c0 -61 -35 -106 -109 -126z" />
    <glyph glyph-name="quotedblbase" unicode="&#x201e;" horiz-adv-x="339" 
d="M38 -93l-6 15c52 25 72 51 72 92c-2 -1 -9 -6 -20 -6c-25 0 -44 21 -44 46c0 26 22 45 49 45c32 0 58 -27 58 -66c0 -61 -35 -106 -109 -126zM195 -93l-6 15c52 25 72 51 72 92c-2 -1 -9 -6 -20 -6c-25 0 -44 21 -44 46c0 26 22 45 49 45c32 0 58 -27 58 -66
c0 -61 -35 -106 -109 -126z" />
    <glyph glyph-name="perthousand" unicode="&#x2030;" horiz-adv-x="1029" 
d="M181 350c-68 0 -150 51 -150 169c0 123 80 184 152 184c70 0 150 -53 150 -173c0 -123 -85 -180 -152 -180zM181 372c53 0 79 46 79 147c0 106 -25 161 -79 161c-53 0 -77 -50 -77 -149c0 -105 26 -159 77 -159zM67 -50l496 764h40l-495 -764h-41zM502 -14
c-68 0 -150 51 -150 169c0 123 80 184 152 184c70 0 150 -53 150 -173c0 -123 -85 -180 -152 -180zM502 8c53 0 79 46 79 147c0 106 -25 161 -79 161c-53 0 -77 -50 -77 -149c0 -105 26 -159 77 -159zM846 -14c-68 0 -150 51 -150 169c0 123 80 184 152 184
c70 0 150 -53 150 -173c0 -123 -85 -180 -152 -180zM846 8c53 0 79 46 79 147c0 106 -25 161 -79 161c-53 0 -77 -50 -77 -149c0 -105 26 -159 77 -159z" />
    <glyph glyph-name="Acircumflex" unicode="&#xc2;" horiz-adv-x="625" 
d="M-3 0l1 17l31 10c24 7 32 14 62 98l208 568h40l199 -582c25 -69 38 -81 66 -88l24 -6v-17h-222v17l22 6c45 12 48 23 24 95l-46 135h-228l-46 -135c-23 -71 -12 -82 27 -93l29 -8v-17h-191zM291 582l-102 -298h207l-100 298h-5zM191 745l-8 11l122 129h29l123 -129
l-8 -11l-131 71z" />
    <glyph glyph-name="Ecircumflex" unicode="&#xca;" horiz-adv-x="566" 
d="M27 0v17l39 8c29 6 38 11 38 56v531c0 45 -8 50 -38 56l-39 8v17h475l13 -167h-21c-20 46 -34 79 -43 94c-27 40 -35 45 -144 45c-49 0 -100 -3 -125 -9v-281h55c78 0 113 4 127 34c10 21 15 43 21 75h21v-247h-21c-7 34 -11 48 -21 73c-12 32 -35 35 -127 35h-55v-220
c0 -95 3 -97 140 -97c95 0 111 5 137 40c13 19 39 79 55 130h23l-15 -198h-495zM159 745l-8 11l122 129h29l123 -129l-8 -11l-131 71z" />
    <glyph glyph-name="Aacute" unicode="&#xc1;" horiz-adv-x="625" 
d="M-3 0l1 17l31 10c24 7 32 14 62 98l208 568h40l199 -582c25 -69 38 -81 66 -88l24 -6v-17h-222v17l22 6c45 12 48 23 24 95l-46 135h-228l-46 -135c-23 -71 -12 -82 27 -93l29 -8v-17h-191zM291 582l-102 -298h207l-100 298h-5zM409 805l-184 -61l-7 14l156 114
c13 9 24 12 33 12c20 0 35 -17 35 -37c0 -15 -7 -32 -33 -42z" />
    <glyph glyph-name="Edieresis" unicode="&#xcb;" horiz-adv-x="566" 
d="M27 0v17l39 8c29 6 38 11 38 56v531c0 45 -8 50 -38 56l-39 8v17h475l13 -167h-21c-20 46 -34 79 -43 94c-27 40 -35 45 -144 45c-49 0 -100 -3 -125 -9v-281h55c78 0 113 4 127 34c10 21 15 43 21 75h21v-247h-21c-7 34 -11 48 -21 73c-12 32 -35 35 -127 35h-55v-220
c0 -95 3 -97 140 -97c95 0 111 5 137 40c13 19 39 79 55 130h23l-15 -198h-495zM200 761c-28 0 -48 23 -48 48c0 26 20 48 48 48s48 -22 48 -48c0 -25 -20 -48 -48 -48zM372 761c-28 0 -48 23 -48 48c0 26 20 48 48 48s48 -22 48 -48c0 -25 -20 -48 -48 -48z" />
    <glyph glyph-name="Egrave" unicode="&#xc8;" horiz-adv-x="566" 
d="M27 0v17l39 8c29 6 38 11 38 56v531c0 45 -8 50 -38 56l-39 8v17h475l13 -167h-21c-20 46 -34 79 -43 94c-27 40 -35 45 -144 45c-49 0 -100 -3 -125 -9v-281h55c78 0 113 4 127 34c10 21 15 43 21 75h21v-247h-21c-7 34 -11 48 -21 73c-12 32 -35 35 -127 35h-55v-220
c0 -95 3 -97 140 -97c95 0 111 5 137 40c13 19 39 79 55 130h23l-15 -198h-495zM385 744l-184 61c-26 10 -33 27 -33 42c0 20 15 37 35 37c9 0 20 -3 33 -12l156 -114z" />
    <glyph glyph-name="Iacute" unicode="&#xcd;" horiz-adv-x="292" 
d="M107 81v531c0 45 -3 50 -37 56l-43 8v17h238v-17l-43 -8c-34 -6 -37 -11 -37 -56v-531c0 -45 3 -50 37 -56l43 -8v-17h-238v17l43 8c34 6 37 11 37 56zM224 805l-184 -61l-7 14l156 114c13 9 24 12 33 12c20 0 35 -17 35 -37c0 -15 -7 -32 -33 -42z" />
    <glyph glyph-name="Icircumflex" unicode="&#xce;" horiz-adv-x="292" 
d="M107 81v531c0 45 -3 50 -37 56l-43 8v17h238v-17l-43 -8c-34 -6 -37 -11 -37 -56v-531c0 -45 3 -50 37 -56l43 -8v-17h-238v17l43 8c34 6 37 11 37 56zM17 745l-8 11l122 129h29l123 -129l-8 -11l-131 71z" />
    <glyph glyph-name="Idieresis" unicode="&#xcf;" horiz-adv-x="292" 
d="M107 81v531c0 45 -3 50 -37 56l-43 8v17h238v-17l-43 -8c-34 -6 -37 -11 -37 -56v-531c0 -45 3 -50 37 -56l43 -8v-17h-238v17l43 8c34 6 37 11 37 56zM60 761c-28 0 -48 23 -48 48c0 26 20 48 48 48s48 -22 48 -48c0 -25 -20 -48 -48 -48zM232 761c-28 0 -48 23 -48 48
c0 26 20 48 48 48s48 -22 48 -48c0 -25 -20 -48 -48 -48z" />
    <glyph glyph-name="Igrave" unicode="&#xcc;" horiz-adv-x="292" 
d="M107 81v531c0 45 -3 50 -37 56l-43 8v17h238v-17l-43 -8c-34 -6 -37 -11 -37 -56v-531c0 -45 3 -50 37 -56l43 -8v-17h-238v17l43 8c34 6 37 11 37 56zM252 744l-184 61c-26 10 -33 27 -33 42c0 20 15 37 35 37c9 0 20 -3 33 -12l156 -114z" />
    <glyph glyph-name="Oacute" unicode="&#xd3;" horiz-adv-x="671" 
d="M330 -12c-171 0 -295 120 -295 349c0 262 143 368 306 368c171 0 295 -128 295 -355c0 -261 -143 -362 -306 -362zM335 21c152 0 220 108 220 314c0 181 -66 337 -220 337c-153 0 -219 -114 -219 -320c0 -192 76 -331 219 -331zM433 805l-184 -61l-7 14l156 114
c13 9 24 12 33 12c20 0 35 -17 35 -37c0 -15 -7 -32 -33 -42z" />
    <glyph glyph-name="Ocircumflex" unicode="&#xd4;" horiz-adv-x="671" 
d="M330 -12c-171 0 -295 120 -295 349c0 262 143 368 306 368c171 0 295 -128 295 -355c0 -261 -143 -362 -306 -362zM335 21c152 0 220 108 220 314c0 181 -66 337 -220 337c-153 0 -219 -114 -219 -320c0 -192 76 -331 219 -331zM206 745l-8 11l122 129h29l123 -129
l-8 -11l-131 71z" />
    <glyph glyph-name="Ograve" unicode="&#xd2;" horiz-adv-x="671" 
d="M330 -12c-171 0 -295 120 -295 349c0 262 143 368 306 368c171 0 295 -128 295 -355c0 -261 -143 -362 -306 -362zM335 21c152 0 220 108 220 314c0 181 -66 337 -220 337c-153 0 -219 -114 -219 -320c0 -192 76 -331 219 -331zM411 744l-184 61c-26 10 -33 27 -33 42
c0 20 15 37 35 37c9 0 20 -3 33 -12l156 -114z" />
    <glyph glyph-name="Uacute" unicode="&#xda;" horiz-adv-x="676" 
d="M172 612v-390c0 -126 57 -188 189 -188c129 0 182 73 182 195v372c0 44 -4 59 -37 65l-53 10v17h206v-17l-39 -10c-33 -9 -38 -23 -38 -65v-381c0 -123 -67 -232 -244 -232c-152 0 -244 74 -244 238v386c0 45 -8 50 -38 56l-39 8v17h229v-17l-40 -8
c-33 -7 -34 -11 -34 -56zM446 805l-184 -61l-7 14l156 114c13 9 24 12 33 12c20 0 35 -17 35 -37c0 -15 -7 -32 -33 -42z" />
    <glyph glyph-name="Ucircumflex" unicode="&#xdb;" horiz-adv-x="676" 
d="M172 612v-390c0 -126 57 -188 189 -188c129 0 182 73 182 195v372c0 44 -4 59 -37 65l-53 10v17h206v-17l-39 -10c-33 -9 -38 -23 -38 -65v-381c0 -123 -67 -232 -244 -232c-152 0 -244 74 -244 238v386c0 45 -8 50 -38 56l-39 8v17h229v-17l-40 -8
c-33 -7 -34 -11 -34 -56zM223 745l-8 11l122 129h29l123 -129l-8 -11l-131 71z" />
    <glyph glyph-name="Ugrave" unicode="&#xd9;" horiz-adv-x="676" 
d="M172 612v-390c0 -126 57 -188 189 -188c129 0 182 73 182 195v372c0 44 -4 59 -37 65l-53 10v17h206v-17l-39 -10c-33 -9 -38 -23 -38 -65v-381c0 -123 -67 -232 -244 -232c-152 0 -244 74 -244 238v386c0 45 -8 50 -38 56l-39 8v17h229v-17l-40 -8
c-33 -7 -34 -11 -34 -56zM444 744l-184 61c-26 10 -33 27 -33 42c0 20 15 37 35 37c9 0 20 -3 33 -12l156 -114z" />
    <glyph glyph-name="dotlessi" unicode="&#x131;" horiz-adv-x="245" 
d="M23 0v16l33 9c29 8 33 16 33 53v340c0 36 -6 39 -38 54l-27 13v14l137 20l6 -3s-4 -39 -4 -106v-332c0 -39 5 -45 33 -53l33 -9v-16h-206z" />
    <glyph glyph-name="circumflex" unicode="&#x2c6;" horiz-adv-x="474" 
d="M108 575l-8 11l122 129h29l123 -129l-8 -11l-131 71z" />
    <glyph glyph-name="tilde" unicode="&#x2dc;" horiz-adv-x="494" 
d="M117 576l-17 6c24 53 44 97 85 97c40 0 104 -27 137 -27c27 0 41 17 56 44l16 -7c-25 -53 -45 -96 -86 -96c-42 0 -101 27 -137 27c-26 0 -39 -18 -54 -44z" />
    <glyph glyph-name="macron" unicode="&#xaf;" horiz-adv-x="492" 
d="M135 600v54h222v-54h-222z" />
    <glyph glyph-name="breve" unicode="&#x2d8;" horiz-adv-x="481" 
d="M243 576c-65 0 -107 63 -108 115l11 3c12 -35 45 -66 96 -66s81 33 93 66l11 -3c-1 -52 -40 -115 -103 -115z" />
    <glyph glyph-name="dotaccent" unicode="&#x2d9;" horiz-adv-x="541" 
d="M271 592c-28 0 -51 26 -51 51c0 27 23 51 51 51c27 0 50 -24 50 -51c0 -25 -23 -51 -50 -51z" />
    <glyph glyph-name="ring" unicode="&#x2da;" horiz-adv-x="492" 
d="M246 578c-53 0 -86 37 -86 82c0 47 38 83 86 83c52 0 86 -36 86 -83c0 -45 -37 -82 -86 -82zM246 602c33 0 56 25 56 59c0 35 -23 59 -56 59s-55 -24 -55 -59c0 -34 22 -59 55 -59z" />
    <glyph glyph-name="cedilla" unicode="&#xb8;" horiz-adv-x="491" 
d="M165 -200v15c64 15 89 35 89 60c0 20 -21 34 -55 37l-5 7l39 81h32l-31 -52c43 -4 78 -22 78 -62c0 -46 -45 -77 -147 -86z" />
    <glyph glyph-name="hungarumlaut" unicode="&#x2dd;" horiz-adv-x="497" 
d="M241 651l-129 -82l-12 13l90 124c12 18 27 21 37 22c20 0 37 -14 38 -35c0 -13 -4 -29 -24 -42zM402 649l-132 -77l-11 13l94 121c13 17 28 20 38 20c20 0 36 -15 36 -36c0 -13 -5 -29 -25 -41z" />
    <glyph glyph-name="ogonek" unicode="&#x2db;" horiz-adv-x="518" 
d="M283 -200c-48 0 -90 27 -90 70c0 57 78 110 107 130h16c-32 -38 -62 -72 -62 -116c0 -31 22 -51 53 -51c19 0 34 4 48 11v-16c-19 -18 -47 -28 -72 -28z" />
    <glyph glyph-name="caron" unicode="&#x2c7;" horiz-adv-x="474" 
d="M223 575l-123 130l8 10l131 -72l127 72l8 -10l-122 -130h-29z" />
    <glyph glyph-name="nbspace" unicode="&#xa0;" horiz-adv-x="498" 
 />
    <glyph glyph-name="R.alt" horiz-adv-x="599" 
d="M182 328v-247c0 -45 3 -50 37 -56l44 -8l-1 -17h-235v17l39 8c29 6 38 11 38 56v531c0 45 -8 50 -38 56l-39 8v17h255c144 0 219 -63 219 -178c0 -88 -60 -155 -195 -177v-3c57 -17 100 -50 141 -129c49 -94 59 -118 87 -152c15 -19 27 -26 46 -31l24 -6v-17h-136
c-37 66 -74 149 -111 220c-44 86 -59 108 -138 108h-37zM243 357c115 0 177 45 177 151c0 124 -52 157 -146 157c-48 0 -73 -3 -92 -7v-297c-2 0 32 -4 61 -4z" />
    <glyph glyph-name="germandbls.alt" horiz-adv-x="564" 
d="M376 -6c-39 0 -82 4 -116 16v132h17c10 -24 17 -42 27 -63c23 -49 49 -60 82 -60c54 0 90 35 90 83c0 46 -34 85 -99 127c-81 52 -116 84 -116 133c0 76 122 146 122 262c0 62 -36 105 -103 105c-79 0 -117 -55 -117 -138v-510c0 -41 1 -47 30 -57l24 -8v-16h-194v16
l33 9c29 8 33 16 33 53v391h-68v18l68 19v25c0 181 123 225 204 225c104 0 160 -53 160 -120c0 -95 -138 -182 -138 -238c0 -24 11 -46 106 -110c84 -57 119 -105 119 -159c0 -84 -72 -135 -164 -135z" />
    <glyph glyph-name="registered.alt" horiz-adv-x="394" 
d="M114 428v11l14 3c7 2 8 4 8 15v127c0 12 -1 14 -8 16l-13 3v11h82c49 0 70 -16 70 -49c0 -22 -14 -40 -38 -47v-2c12 -24 26 -48 40 -67c3 -4 7 -7 13 -8l10 -2v-11h-49c-20 26 -34 53 -46 78h-25v-49c0 -11 1 -13 8 -15l14 -3v-11h-80zM197 336c-101 0 -177 82 -177 182
c0 101 76 182 177 182c100 0 178 -81 178 -182c0 -100 -78 -182 -178 -182zM197 358c89 0 152 72 152 160c0 89 -63 160 -152 160c-90 0 -151 -71 -151 -160c0 -88 61 -160 151 -160zM172 520h20c29 0 39 17 39 42s-12 37 -37 37h-22v-79z" />
    <glyph glyph-name="zero.numerator" horiz-adv-x="337" 
d="M167 342c-64 0 -145 47 -145 174c0 133 88 184 147 184c62 0 146 -48 146 -175c0 -133 -88 -183 -148 -183zM168 676c-43 0 -80 -30 -80 -152c0 -124 36 -158 80 -158s79 31 79 149c0 126 -34 161 -79 161z" />
    <glyph glyph-name="one.numerator" horiz-adv-x="192" 
d="M19 347v15l27 5c19 4 22 9 22 33v230h-50v15c51 9 74 25 97 52l11 -3v-294c0 -24 3 -29 22 -33l25 -5v-15h-154z" />
    <glyph glyph-name="two.numerator" horiz-adv-x="265" 
d="M13 347v31c40 34 78 67 102 95c51 58 66 88 66 134c0 49 -20 72 -58 72c-22 0 -34 -4 -37 -25c-3 -29 -13 -43 -34 -43c-19 0 -30 14 -30 31c0 26 38 58 101 58c64 0 120 -38 120 -105c0 -73 -92 -135 -177 -200v-3h116c26 0 32 10 50 50h13l-9 -95h-223z" />
    <glyph glyph-name="three.numerator" horiz-adv-x="260" 
d="M104 342c-49 0 -95 21 -95 54c0 17 9 30 28 30c16 0 26 -6 31 -28c7 -28 11 -37 45 -37c41 0 66 34 66 81s-16 73 -75 73h-18v21h20c47 0 66 28 66 74c0 51 -23 69 -55 69c-24 0 -33 -6 -36 -23c-4 -25 -11 -40 -33 -40c-19 0 -27 15 -27 28c0 35 45 56 99 56
c67 0 106 -36 106 -83c0 -38 -24 -77 -81 -89v-2c55 -6 93 -33 93 -84c0 -52 -40 -100 -134 -100z" />
    <glyph glyph-name="four.numerator" horiz-adv-x="276" 
d="M212 446v-46c0 -24 3 -29 22 -33l25 -5v-15h-152v15l27 5c19 4 22 9 22 33v46h-148v21l176 226h28v-219h47l-3 -28h-44zM38 474h118v150h-1l-117 -149v-1z" />
    <glyph glyph-name="five.numerator" horiz-adv-x="256" 
d="M105 342c-55 0 -89 21 -89 52c0 17 11 28 30 28c15 0 26 -8 30 -31c3 -20 9 -28 36 -28c51 0 77 31 77 83c0 50 -31 79 -84 79c-33 0 -47 -6 -60 -9l-8 7l18 170h135c13 0 16 1 28 27h13l-10 -76h-147l-9 -85c10 4 29 8 50 8c64 0 122 -31 122 -107
c0 -71 -60 -118 -132 -118z" />
    <glyph glyph-name="six.numerator" horiz-adv-x="291" 
d="M147 342c-70 0 -125 56 -125 154c0 146 90 204 162 204c45 0 77 -16 77 -47c0 -15 -8 -27 -29 -27c-13 0 -23 5 -30 32c-4 15 -10 23 -24 23c-42 0 -93 -47 -97 -154c18 15 47 29 83 29c60 0 105 -35 105 -104s-59 -110 -122 -110zM148 361c42 0 65 33 65 81
c0 59 -22 90 -69 90c-22 0 -46 -10 -64 -22v-12c0 -80 13 -137 68 -137z" />
    <glyph glyph-name="seven.numerator" horiz-adv-x="248" 
d="M60 347c13 108 95 228 141 298h-143c-17 0 -19 -10 -33 -45h-15l13 93h217v-24c-59 -94 -110 -187 -124 -322h-56z" />
    <glyph glyph-name="eight.numerator" horiz-adv-x="291" 
d="M145 341c-60 0 -122 33 -122 87c0 43 32 69 75 89v3c-37 17 -59 48 -59 82c0 65 54 98 111 98c59 0 108 -29 108 -82c0 -37 -28 -61 -63 -82v-3c41 -20 73 -41 73 -89c0 -56 -47 -103 -123 -103zM152 362c47 0 73 28 73 58c0 41 -39 60 -110 90c-28 -18 -42 -37 -42 -72
c0 -50 29 -76 79 -76zM178 542c20 16 33 35 33 73c0 41 -26 66 -66 66c-36 0 -64 -18 -64 -56c0 -35 30 -54 97 -83z" />
    <glyph glyph-name="nine.numerator" horiz-adv-x="291" 
d="M105 342c-44 0 -76 16 -76 47c0 15 8 27 30 27c12 0 22 -5 29 -32c4 -15 10 -23 24 -23c49 0 98 45 98 153c-18 -14 -47 -28 -81 -28c-60 0 -107 38 -107 104c0 70 57 110 121 110c67 0 126 -55 126 -155c0 -150 -81 -203 -164 -203zM147 510c25 0 49 11 64 22v13
c0 80 -13 136 -68 136c-42 0 -65 -32 -65 -80c0 -65 24 -91 69 -91z" />
    <glyph glyph-name="zero.denominator" horiz-adv-x="337" 
d="M167 -5c-64 0 -145 47 -145 174c0 133 88 184 147 184c62 0 146 -48 146 -175c0 -133 -88 -183 -148 -183zM168 329c-43 0 -80 -30 -80 -152c0 -124 36 -158 80 -158s79 31 79 149c0 126 -34 161 -79 161z" />
    <glyph glyph-name="one.denominator" horiz-adv-x="192" 
d="M19 0v15l27 5c19 4 22 9 22 33v230h-50v15c51 9 74 25 97 52l11 -3v-294c0 -24 3 -29 22 -33l25 -5v-15h-154z" />
    <glyph glyph-name="two.denominator" horiz-adv-x="265" 
d="M13 0v31c40 34 78 67 102 95c51 58 66 88 66 134c0 49 -20 72 -58 72c-22 0 -34 -4 -37 -25c-3 -29 -13 -43 -34 -43c-19 0 -30 14 -30 31c0 26 38 58 101 58c64 0 120 -38 120 -105c0 -73 -92 -135 -177 -200v-3h116c26 0 32 10 50 50h13l-9 -95h-223z" />
    <glyph glyph-name="three.denominator" horiz-adv-x="260" 
d="M104 -5c-49 0 -95 21 -95 54c0 17 9 30 28 30c16 0 26 -6 31 -28c7 -28 11 -37 45 -37c41 0 66 34 66 81s-16 73 -75 73h-18v21h20c47 0 66 28 66 74c0 51 -23 69 -55 69c-24 0 -33 -6 -36 -23c-4 -25 -11 -40 -33 -40c-19 0 -27 15 -27 28c0 35 45 56 99 56
c67 0 106 -36 106 -83c0 -38 -24 -77 -81 -89v-2c55 -6 93 -33 93 -84c0 -52 -40 -100 -134 -100z" />
    <glyph glyph-name="four.denominator" horiz-adv-x="276" 
d="M212 99v-46c0 -24 3 -29 22 -33l25 -5v-15h-152v15l27 5c19 4 22 9 22 33v46h-148v21l176 226h28v-219h47l-3 -28h-44zM38 127h118v150h-1l-117 -149v-1z" />
    <glyph glyph-name="five.denominator" horiz-adv-x="256" 
d="M105 -5c-55 0 -89 21 -89 52c0 17 11 28 30 28c15 0 26 -8 30 -31c3 -20 9 -28 36 -28c51 0 77 31 77 83c0 50 -31 79 -84 79c-33 0 -47 -6 -60 -9l-8 7l18 170h135c13 0 16 1 28 27h13l-10 -76h-147l-9 -85c10 4 29 8 50 8c64 0 122 -31 122 -107
c0 -71 -60 -118 -132 -118z" />
    <glyph glyph-name="six.denominator" horiz-adv-x="291" 
d="M147 -5c-70 0 -125 56 -125 154c0 146 90 204 162 204c45 0 77 -16 77 -47c0 -15 -8 -27 -29 -27c-13 0 -23 5 -30 32c-4 15 -10 23 -24 23c-42 0 -93 -47 -97 -154c18 15 47 29 83 29c60 0 105 -35 105 -104s-59 -110 -122 -110zM148 14c42 0 65 33 65 81
c0 59 -22 90 -69 90c-22 0 -46 -10 -64 -22v-12c0 -80 13 -137 68 -137z" />
    <glyph glyph-name="seven.denominator" horiz-adv-x="248" 
d="M60 0c13 108 95 228 141 298h-143c-17 0 -19 -10 -33 -45h-15l13 93h217v-24c-59 -94 -110 -187 -124 -322h-56z" />
    <glyph glyph-name="eight.denominator" horiz-adv-x="291" 
d="M145 -6c-60 0 -122 33 -122 87c0 43 32 69 75 89v3c-37 17 -59 48 -59 82c0 65 54 98 111 98c59 0 108 -29 108 -82c0 -37 -28 -61 -63 -82v-3c41 -20 73 -41 73 -89c0 -56 -47 -103 -123 -103zM152 15c47 0 73 28 73 58c0 41 -39 60 -110 90c-28 -18 -42 -37 -42 -72
c0 -50 29 -76 79 -76zM178 195c20 16 33 35 33 73c0 41 -26 66 -66 66c-36 0 -64 -18 -64 -56c0 -35 30 -54 97 -83z" />
    <glyph glyph-name="nine.denominator" horiz-adv-x="291" 
d="M105 -5c-44 0 -76 16 -76 47c0 15 8 27 30 27c12 0 22 -5 29 -32c4 -15 10 -23 24 -23c49 0 98 45 98 153c-18 -14 -47 -28 -81 -28c-60 0 -107 38 -107 104c0 70 57 110 121 110c67 0 126 -55 126 -155c0 -150 -81 -203 -164 -203zM147 163c25 0 49 11 64 22v13
c0 80 -13 136 -68 136c-42 0 -65 -32 -65 -80c0 -65 24 -91 69 -91z" />
    <glyph glyph-name="oneeighth" unicode="&#x215b;" horiz-adv-x="620" 
d="M19 347v15l27 5c19 4 22 9 22 33v230h-50v15c51 9 74 25 97 52l11 -3v-294c0 -24 3 -29 22 -33l25 -5v-15h-154zM13 -50l496 764h40l-495 -764h-41zM474 -6c-60 0 -122 33 -122 87c0 43 32 69 75 89v3c-37 17 -59 48 -59 82c0 65 54 98 111 98c59 0 108 -29 108 -82
c0 -37 -28 -61 -63 -82v-3c41 -20 73 -41 73 -89c0 -56 -47 -103 -123 -103zM481 15c47 0 73 28 73 58c0 41 -39 60 -110 90c-28 -18 -42 -37 -42 -72c0 -50 29 -76 79 -76zM507 195c20 16 33 35 33 73c0 41 -26 66 -66 66c-36 0 -64 -18 -64 -56c0 -35 30 -54 97 -83z" />
    <glyph glyph-name="onethird" unicode="&#x2153;" horiz-adv-x="609" 
d="M19 347v15l27 5c19 4 22 9 22 33v230h-50v15c51 9 74 25 97 52l11 -3v-294c0 -24 3 -29 22 -33l25 -5v-15h-154zM13 -50l496 764h40l-495 -764h-41zM453 -5c-49 0 -95 21 -95 54c0 17 9 30 28 30c16 0 26 -6 31 -28c7 -28 11 -37 45 -37c41 0 66 34 66 81s-16 73 -75 73
h-18v21h20c47 0 66 28 66 74c0 51 -23 69 -55 69c-24 0 -33 -6 -36 -23c-4 -25 -11 -40 -33 -40c-19 0 -27 15 -27 28c0 35 45 56 99 56c67 0 106 -36 106 -83c0 -38 -24 -77 -81 -89v-2c55 -6 93 -33 93 -84c0 -52 -40 -100 -134 -100z" />
    <glyph glyph-name="threeeighths" unicode="&#x215c;" horiz-adv-x="655" 
d="M120 342c-49 0 -95 21 -95 54c0 17 9 30 28 30c16 0 26 -6 31 -28c7 -28 11 -37 45 -37c41 0 66 34 66 81s-16 73 -75 73h-18v21h20c47 0 66 28 66 74c0 51 -23 69 -55 69c-24 0 -33 -6 -36 -23c-4 -25 -11 -40 -33 -40c-19 0 -27 15 -27 28c0 35 45 56 99 56
c67 0 106 -36 106 -83c0 -38 -24 -77 -81 -89v-2c55 -6 93 -33 93 -84c0 -52 -40 -100 -134 -100zM48 -50l496 764h40l-495 -764h-41zM509 -6c-60 0 -122 33 -122 87c0 43 32 69 75 89v3c-37 17 -59 48 -59 82c0 65 54 98 111 98c59 0 108 -29 108 -82
c0 -37 -28 -61 -63 -82v-3c41 -20 73 -41 73 -89c0 -56 -47 -103 -123 -103zM516 15c47 0 73 28 73 58c0 41 -39 60 -110 90c-28 -18 -42 -37 -42 -72c0 -50 29 -76 79 -76zM542 195c20 16 33 35 33 73c0 41 -26 66 -66 66c-36 0 -64 -18 -64 -56c0 -35 30 -54 97 -83z" />
    <glyph glyph-name="fiveeighths" unicode="&#x215d;" horiz-adv-x="648" 
d="M105 342c-55 0 -89 21 -89 52c0 17 11 28 30 28c15 0 26 -8 30 -31c3 -20 9 -28 36 -28c51 0 77 31 77 83c0 50 -31 79 -84 79c-33 0 -47 -6 -60 -9l-8 7l18 170h135c13 0 16 1 28 27h13l-10 -76h-147l-9 -85c10 4 29 8 50 8c64 0 122 -31 122 -107
c0 -71 -60 -118 -132 -118zM41 -50l496 764h40l-495 -764h-41zM502 -6c-60 0 -122 33 -122 87c0 43 32 69 75 89v3c-37 17 -59 48 -59 82c0 65 54 98 111 98c59 0 108 -29 108 -82c0 -37 -28 -61 -63 -82v-3c41 -20 73 -41 73 -89c0 -56 -47 -103 -123 -103zM509 15
c47 0 73 28 73 58c0 41 -39 60 -110 90c-28 -18 -42 -37 -42 -72c0 -50 29 -76 79 -76zM535 195c20 16 33 35 33 73c0 41 -26 66 -66 66c-36 0 -64 -18 -64 -56c0 -35 30 -54 97 -83z" />
    <glyph glyph-name="twothirds" unicode="&#x2154;" horiz-adv-x="661" 
d="M13 347v31c40 34 78 67 102 95c51 58 66 88 66 134c0 49 -20 72 -58 72c-22 0 -34 -4 -37 -25c-3 -29 -13 -43 -34 -43c-19 0 -30 14 -30 31c0 26 38 58 101 58c64 0 120 -38 120 -105c0 -73 -92 -135 -177 -200v-3h116c26 0 32 10 50 50h13l-9 -95h-223zM65 -50l496 764
h40l-495 -764h-41zM505 -5c-49 0 -95 21 -95 54c0 17 9 30 28 30c16 0 26 -6 31 -28c7 -28 11 -37 45 -37c41 0 66 34 66 81s-16 73 -75 73h-18v21h20c47 0 66 28 66 74c0 51 -23 69 -55 69c-24 0 -33 -6 -36 -23c-4 -25 -11 -40 -33 -40c-19 0 -27 15 -27 28
c0 35 45 56 99 56c67 0 106 -36 106 -83c0 -38 -24 -77 -81 -89v-2c55 -6 93 -33 93 -84c0 -52 -40 -100 -134 -100z" />
    <glyph glyph-name="seveneighths" unicode="&#x215e;" horiz-adv-x="617" 
d="M82 347c13 108 95 228 141 298h-143c-17 0 -19 -10 -33 -45h-15l13 93h217v-24c-59 -94 -110 -187 -124 -322h-56zM10 -50l496 764h40l-495 -764h-41zM471 -6c-60 0 -122 33 -122 87c0 43 32 69 75 89v3c-37 17 -59 48 -59 82c0 65 54 98 111 98c59 0 108 -29 108 -82
c0 -37 -28 -61 -63 -82v-3c41 -20 73 -41 73 -89c0 -56 -47 -103 -123 -103zM478 15c47 0 73 28 73 58c0 41 -39 60 -110 90c-28 -18 -42 -37 -42 -72c0 -50 29 -76 79 -76zM504 195c20 16 33 35 33 73c0 41 -26 66 -66 66c-36 0 -64 -18 -64 -56c0 -35 30 -54 97 -83z" />
    <glyph glyph-name="triagrt" unicode="&#x25ba;" horiz-adv-x="860" 
d="M116 -18v729h14l680 -359v-10l-680 -360h-14z" />
    <glyph glyph-name="triaglf" unicode="&#x25c4;" horiz-adv-x="860" 
d="M744 711v-729h-14l-680 360v10l680 359h14z" />
    <glyph glyph-name="triagup" unicode="&#x25b2;" horiz-adv-x="829" 
d="M780 0h-729v14l354 710h20l355 -710v-14z" />
    <glyph glyph-name="triagdn" unicode="&#x25bc;" horiz-adv-x="829" 
d="M50 693h729v-14l-354 -710h-20l-355 710v14z" />
    <glyph glyph-name="uni25B7" unicode="&#x25b7;" horiz-adv-x="860" 
d="M116 -18v729h14l680 -359v-10l-680 -360h-14zM162 45l569 302l-569 302v-604z" />
    <glyph glyph-name="uni25C1" unicode="&#x25c1;" horiz-adv-x="860" 
d="M744 711v-729h-14l-680 360v10l680 359h14zM129 347l569 -302v604z" />
    <glyph glyph-name="uni25B3" unicode="&#x25b3;" horiz-adv-x="860" 
d="M828 0h-729v14l359 710h10l360 -710v-14zM764 42l-302 597l-300 -597h602z" />
    <glyph glyph-name="uni25BD" unicode="&#x25bd;" horiz-adv-x="860" 
d="M98 693h729v-14l-359 -710h-10l-360 710v14zM162 651l302 -597l300 597h-602z" />
    <glyph glyph-name="uni2606" unicode="&#x2606;" horiz-adv-x="832" 
d="M169 -34l-7 4l96 291l-244 174v8h304l94 291h8l95 -291h303v-8l-243 -174l95 -289l-7 -4l-247 176z" />
    <glyph glyph-name="uni2605" unicode="&#x2605;" horiz-adv-x="832" 
d="M169 -34l-7 4l96 291l-244 174v8h304l94 291h8l95 -291h303v-8l-243 -174l95 -289l-7 -4l-247 176zM229 54l188 140l186 -140l-76 222l190 130h-229l-72 221l-72 -221h-228l189 -130z" />
    <glyph glyph-name="filledbox" unicode="&#x25a0;" horiz-adv-x="926" 
d="M116 0v693h694v-693h-694z" />
    <glyph glyph-name="H22073" unicode="&#x25a1;" horiz-adv-x="926" 
d="M116 0v693h694v-693h-694zM162 44h602v607h-602v-607z" />
    <glyph glyph-name="circle" unicode="&#x25cb;" horiz-adv-x="806" 
d="M402 -15c-200 0 -361 163 -361 362c0 200 161 361 361 361c199 0 363 -161 363 -361c0 -199 -164 -362 -363 -362zM402 27c175 0 316 145 316 320c0 176 -141 319 -316 319c-177 0 -314 -143 -314 -319c0 -175 137 -320 314 -320z" />
    <glyph glyph-name="Eth" unicode="&#xd0;" horiz-adv-x="659" 
d="M27 337v29h77v246c0 45 -8 50 -38 56l-39 8v17h273c178 0 328 -80 328 -342c0 -237 -141 -351 -335 -351h-266v17l39 8c29 6 38 11 38 56v256h-77zM288 30c205 0 259 139 259 304c0 215 -69 330 -261 330c-55 0 -85 -4 -104 -9v-289h198v-29h-198v-217
c0 -75 10 -90 106 -90z" />
    <glyph glyph-name="eth" unicode="&#xf0;" horiz-adv-x="538" 
d="M146 586l-10 25l111 49c-40 32 -85 60 -134 83l7 17c64 -23 120 -50 169 -81l124 56l9 -25l-107 -48c127 -91 191 -213 191 -372c0 -225 -120 -303 -237 -303c-138 0 -239 93 -239 268c0 169 113 270 237 270c48 0 86 -12 120 -45c-12 47 -55 107 -118 161zM273 16
c100 0 150 85 150 230c0 169 -51 250 -157 250c-99 0 -151 -75 -151 -228c0 -167 53 -252 158 -252z" />
    </font>
</defs>
</svg>
