<?xml version="1.0" standalone="no"?>
<!DOCTYPE svg PUBLIC "-//W3C//DTD SVG 1.1//EN" "http://www.w3.org/Graphics/SVG/1.1/DTD/svg11.dtd" >
<svg xmlns="http://www.w3.org/2000/svg" xmlns:xlink="http://www.w3.org/1999/xlink" version="1.1">
<metadata>
Created by FontForge 20170910 at Mon Jan 11 11:57:56 2016
 By Jimmy Wärting
\\\\uFFFD 2010 Paul Barnes and Christian Schwartz, under exclusive license to Schwartzco Inc./Commercial Type. All rights reserved.
</metadata>
<defs>
<font id="ChubbPublicoText-SemiboldItalic" horiz-adv-x="600" >
  <font-face 
    font-family="Chubb Publico Text Semibold"
    font-weight="600"
    font-style="italic"
    font-stretch="normal"
    units-per-em="1000"
    panose-1="2 4 7 2 6 5 4 13 2 3"
    ascent="781"
    descent="-219"
    x-height="528"
    cap-height="693"
    bbox="-160 -285 1166 1116"
    underline-thickness="50"
    underline-position="-115"
    slope="-12"
    stemh="52"
    stemv="127"
    unicode-range="U+0020-FB04"
  />
<missing-glyph horiz-adv-x="513" 
 />
    <glyph glyph-name="f_b" unicode="fb" horiz-adv-x="873" 
d="M523 -13c-100 0 -153 30 -189 66v7l116 584c-24 7 -34 25 -39 58c-4 22 -12 26 -27 26c-58 0 -102 -41 -124 -188l-4 -25h113l-15 -62h-108l-52 -316c-44 -260 -133 -361 -243 -361c-64 0 -100 24 -100 67c0 27 21 49 51 49c31 0 48 -13 56 -56c3 -13 6 -18 15 -18
c36 0 49 21 76 186l70 449h-68l6 32l72 29l1 6c25 155 137 249 282 249c54 0 92 -17 107 -41l73 39l14 -11s-18 -52 -30 -115l-29 -154c-7 -37 -24 -90 -26 -97h4c49 59 126 138 211 138c69 0 117 -61 117 -149c0 -226 -156 -392 -330 -392zM541 34c99 0 182 148 182 341
c0 50 -17 69 -49 69c-51 0 -123 -71 -163 -120l-51 -252c14 -20 40 -38 81 -38z" />
    <glyph glyph-name="f_f" unicode="ff" horiz-adv-x="636" 
d="M251 -211c-61 0 -92 26 -92 62c0 32 19 48 49 48c34 0 46 -13 54 -51c3 -13 6 -18 14 -18c27 0 36 15 61 174l70 449h-162l-54 -324c-41 -249 -124 -353 -239 -353c-65 0 -101 24 -101 67c0 27 22 49 51 49c31 0 48 -13 56 -56c3 -13 6 -18 16 -18c35 0 47 21 74 186
l70 449h-68l6 32l72 29l1 6c22 146 128 236 248 236c65 0 107 -21 134 -50c46 41 104 63 163 63c76 0 112 -29 112 -66c0 -34 -24 -59 -58 -59c-40 0 -55 16 -59 58c-3 22 -8 26 -21 26c-41 0 -73 -27 -98 -178l-6 -35h118l-16 -62h-112l-54 -325
c-40 -246 -122 -339 -229 -339zM259 540l-4 -25h162l1 5c5 37 16 70 30 100c-11 57 -40 95 -84 95c-47 0 -85 -42 -105 -175z" />
    <glyph glyph-name="f_f_b" unicode="ffb" horiz-adv-x="1160" 
d="M533 453l-53 -325c-41 -246 -122 -339 -229 -339c-61 0 -92 26 -92 62c0 32 19 48 49 48c34 0 46 -13 54 -51c3 -13 6 -18 14 -18c27 0 36 15 61 174l70 449h-162l-54 -324c-41 -249 -124 -353 -239 -353c-65 0 -101 24 -101 67c0 27 22 49 51 49c31 0 48 -13 56 -56
c3 -13 6 -18 16 -18c35 0 47 21 74 186l70 449h-68l6 32l72 29l1 6c22 146 128 236 248 236c67 0 110 -22 137 -53c49 43 113 66 186 66c54 0 91 -17 107 -41l72 39l14 -11s-17 -52 -30 -115l-29 -154c-7 -37 -23 -90 -26 -97h5c49 59 125 138 210 138
c70 0 117 -61 117 -149c0 -226 -155 -392 -329 -392c-100 0 -153 30 -189 66v7l116 584c-24 6 -35 25 -40 58c-4 22 -11 26 -26 26c-59 0 -102 -41 -125 -188l-4 -25h113l-14 -62h-109zM828 34c99 0 182 148 182 341c0 50 -17 69 -48 69c-51 0 -123 -71 -163 -120l-52 -252
c14 -20 41 -38 81 -38zM259 540l-4 -25h161l1 2c5 37 16 70 30 99c-10 59 -38 99 -83 99c-47 0 -85 -42 -105 -175z" />
    <glyph glyph-name="f_f_h" unicode="ffh" horiz-adv-x="1179" 
d="M533 453l-53 -325c-41 -246 -122 -339 -229 -339c-61 0 -92 26 -92 62c0 32 19 48 49 48c34 0 46 -13 54 -51c3 -13 6 -18 14 -18c27 0 36 15 61 174l70 449h-162l-54 -324c-41 -249 -124 -353 -239 -353c-65 0 -101 24 -101 67c0 27 22 49 51 49c31 0 48 -13 56 -56
c3 -13 6 -18 16 -18c35 0 47 21 74 186l70 449h-68l6 32l72 29l1 6c22 146 128 236 248 236c67 0 110 -22 137 -53c49 43 113 66 186 66c54 0 91 -17 107 -41l74 39l13 -10s-17 -52 -29 -116l-31 -156c-10 -51 -19 -80 -26 -105h5c68 79 145 148 226 148c54 0 83 -39 83 -90
c0 -21 -3 -54 -12 -91l-51 -216c-2 -11 -4 -21 -4 -34c0 -21 12 -28 55 -1l19 12l20 -26c-54 -48 -112 -92 -176 -92c-38 0 -54 28 -54 55s6 53 13 84l48 205c18 82 14 104 -15 104c-47 0 -114 -64 -163 -120l-68 -318h-126l132 644c-26 6 -37 24 -42 58
c-4 22 -11 26 -26 26c-59 0 -102 -41 -125 -188l-4 -25h113l-14 -62h-109zM259 540l-4 -25h161l1 2c5 37 16 70 30 99c-10 59 -38 99 -83 99c-47 0 -85 -42 -105 -175z" />
    <glyph glyph-name="f_f_i" unicode="ffi" horiz-adv-x="874" 
d="M-48 -224c-65 0 -101 24 -101 67c0 27 22 49 51 49c31 0 48 -13 56 -56c3 -13 6 -18 16 -18c35 0 47 21 74 186l70 449h-68l6 32l72 29l1 6c22 146 128 236 248 236c68 0 111 -23 138 -54c50 43 115 67 186 67c76 0 116 -31 116 -71c0 -36 -20 -59 -57 -59
c-42 0 -57 17 -65 63c-3 20 -9 26 -23 26c-55 0 -102 -42 -124 -188l-4 -25h237c31 0 50 -13 50 -42c0 -26 -8 -59 -20 -107l-59 -232c-3 -13 -5 -24 -5 -37c0 -21 17 -23 55 -1l23 14l19 -26c-53 -49 -113 -94 -177 -94c-38 0 -56 26 -56 54c0 29 5 51 14 88l65 256
c4 16 8 34 8 47s-7 18 -22 18h-143l-53 -325c-41 -245 -122 -339 -229 -339c-61 0 -92 26 -92 62c0 32 19 48 49 48c34 0 46 -13 54 -51c3 -13 6 -18 14 -18c27 0 36 15 61 174l70 449h-162l-54 -324c-41 -249 -124 -353 -239 -353zM417 517c5 36 16 69 31 98
c-11 60 -39 100 -84 100c-47 0 -85 -42 -105 -175l-4 -25h161z" />
    <glyph glyph-name="f_f_j" unicode="ffj" horiz-adv-x="870" 
d="M533 453l-53 -325c-41 -246 -122 -339 -229 -339c-61 0 -92 26 -92 62c0 32 19 48 49 48c34 0 46 -13 54 -51c3 -13 6 -18 14 -18c27 0 36 15 61 174l70 449h-162l-54 -324c-41 -249 -124 -353 -239 -353c-65 0 -101 24 -101 67c0 27 22 49 51 49c31 0 48 -13 56 -56
c3 -13 6 -18 16 -18c35 0 47 21 74 186l70 449h-68l6 32l72 29l1 6c22 146 128 236 248 236c68 0 111 -23 138 -54c50 43 115 67 186 67c76 0 116 -31 116 -70c0 -37 -20 -60 -58 -60c-41 0 -56 17 -64 63c-3 21 -9 26 -23 26c-55 0 -102 -42 -125 -188l-4 -25h238
c31 0 50 -13 50 -42c0 -26 -9 -61 -21 -108l-65 -326c-38 -188 -119 -264 -216 -264c-72 0 -102 33 -102 67c0 35 24 51 51 51c35 0 50 -10 58 -55c3 -17 7 -22 15 -22c23 0 37 18 56 119l83 453c4 16 8 34 8 47s-7 18 -22 18h-143zM259 540l-4 -25h161l1 2
c5 37 16 70 30 99c-10 59 -38 99 -83 99c-47 0 -85 -42 -105 -175z" />
    <glyph glyph-name="f_f_k" unicode="ffk" horiz-adv-x="1123" 
d="M533 453l-53 -325c-41 -246 -122 -339 -229 -339c-61 0 -92 26 -92 62c0 32 19 48 49 48c34 0 46 -13 54 -51c3 -13 6 -18 14 -18c27 0 36 15 61 174l70 449h-162l-54 -324c-41 -249 -124 -353 -239 -353c-65 0 -101 24 -101 67c0 27 22 49 51 49c31 0 48 -13 56 -56
c3 -13 6 -18 16 -18c35 0 47 21 74 186l70 449h-68l6 32l72 29l1 6c22 146 128 236 248 236c67 0 110 -22 137 -53c49 43 113 66 186 66c54 0 91 -17 107 -41l74 39l14 -10s-16 -52 -30 -116l-131 -641h-126l132 644c-26 6 -37 24 -42 58c-4 22 -11 26 -26 26
c-59 0 -102 -41 -125 -188l-4 -25h113l-14 -62h-109zM954 -10c-30 0 -50 26 -73 81c-21 46 -42 94 -71 182l1 17c113 164 194 258 271 258c35 0 63 -19 63 -63c0 -45 -28 -65 -57 -65c-43 0 -43 40 -60 40c-27 0 -85 -61 -123 -112c36 -100 59 -150 83 -202
c26 -54 40 -57 80 -29l18 12l21 -27c-58 -54 -105 -92 -153 -92zM259 540l-4 -25h161l1 2c5 37 16 70 30 99c-10 59 -38 99 -83 99c-47 0 -85 -42 -105 -175z" />
    <glyph glyph-name="f_f_l" unicode="ffl" horiz-adv-x="889" 
d="M251 -211c-61 0 -92 26 -92 62c0 32 19 48 49 48c34 0 46 -13 54 -51c3 -13 6 -18 14 -18c27 0 36 15 61 174l70 449h-162l-54 -324c-41 -249 -124 -353 -239 -353c-65 0 -101 24 -101 67c0 27 22 49 51 49c31 0 48 -13 56 -56c3 -13 6 -18 16 -18c35 0 47 21 74 186
l70 449h-68l6 32l72 29l1 6c22 146 128 236 248 236c67 0 110 -22 137 -53c49 43 113 66 186 66c54 0 91 -17 107 -42l74 40l14 -10s-18 -52 -31 -116l-100 -510c-2 -10 -5 -21 -5 -34c0 -21 18 -24 59 1l20 12l19 -26c-56 -52 -114 -94 -180 -94c-36 0 -54 23 -54 52
c0 31 6 55 13 87l102 516c-24 6 -35 25 -39 57c-5 22 -12 26 -27 26c-59 0 -102 -41 -124 -188l-4 -25h112l-14 -62h-109l-53 -325c-41 -246 -122 -339 -229 -339zM259 540l-4 -25h161l1 2c5 37 16 71 30 100c-10 59 -39 98 -83 98c-47 0 -85 -42 -105 -175z" />
    <glyph glyph-name="f_h" unicode="fh" horiz-adv-x="891" 
d="M684 -10c-37 0 -54 28 -54 55s7 53 14 84l47 205c19 82 15 104 -15 104c-46 0 -114 -64 -162 -120l-68 -318h-127l133 644c-26 6 -37 24 -42 58c-4 22 -12 26 -27 26c-58 0 -102 -41 -124 -188l-4 -25h113l-15 -62h-108l-52 -316c-44 -260 -133 -361 -243 -361
c-64 0 -100 24 -100 67c0 27 21 49 51 49c31 0 48 -13 56 -56c3 -13 6 -18 15 -18c36 0 49 21 76 186l70 449h-68l6 32l72 29l1 6c25 155 137 249 282 249c55 0 92 -17 107 -42l75 40l13 -10s-17 -52 -29 -116l-32 -156c-10 -51 -18 -80 -25 -105h5c68 79 145 148 225 148
c54 0 84 -39 84 -90c0 -21 -3 -54 -12 -91l-51 -216c-2 -11 -5 -21 -5 -34c0 -21 13 -28 55 -1l19 12l21 -26c-54 -48 -112 -92 -177 -92z" />
    <glyph glyph-name="f_i" unicode="fi" horiz-adv-x="585" 
d="M-50 -224c-64 0 -100 24 -100 67c0 27 21 49 51 49c31 0 48 -13 56 -56c3 -13 6 -18 15 -18c36 0 49 21 76 186l70 449h-68l6 32l72 29l1 6c25 152 141 249 283 249c77 0 116 -31 116 -71c0 -36 -19 -59 -57 -59c-41 0 -56 17 -65 63c-2 20 -9 26 -22 26
c-56 0 -103 -42 -125 -188l-4 -25h237c32 0 51 -13 51 -42c0 -26 -9 -59 -21 -107l-58 -232c-4 -13 -5 -24 -5 -37c0 -21 16 -23 55 -1l22 14l20 -26c-54 -49 -113 -94 -178 -94c-37 0 -55 26 -55 54c0 29 4 51 14 88l65 256c4 16 7 34 7 47s-7 18 -22 18h-142l-52 -316
c-44 -260 -133 -361 -243 -361z" />
    <glyph glyph-name="f_j" unicode="fj" horiz-adv-x="582" 
d="M240 -225c-72 0 -102 33 -102 67c0 35 24 51 52 51c35 0 50 -10 58 -55c3 -17 6 -22 14 -22c24 0 38 18 56 119l84 453c4 16 7 34 7 47s-7 18 -22 18h-142l-52 -316c-44 -260 -133 -361 -243 -361c-64 0 -100 24 -100 67c0 27 21 49 51 49c31 0 48 -13 56 -56
c3 -13 6 -18 15 -18c36 0 49 21 76 186l70 449h-68l6 32l72 29l1 6c25 151 141 249 283 249c77 0 116 -31 116 -70c0 -37 -19 -60 -57 -60c-41 0 -56 17 -65 63c-2 21 -9 26 -22 26c-56 0 -103 -42 -125 -188l-4 -25h237c32 0 51 -13 51 -42c0 -26 -10 -61 -21 -108
l-65 -326c-39 -188 -119 -264 -217 -264z" />
    <glyph glyph-name="f_k" unicode="fk" horiz-adv-x="845" 
d="M319 0l132 644c-25 6 -36 25 -41 58c-4 22 -12 26 -27 26c-58 0 -102 -41 -124 -188l-4 -25h113l-15 -62h-108l-52 -316c-44 -260 -133 -361 -243 -361c-64 0 -100 24 -100 67c0 27 21 49 51 49c31 0 48 -13 56 -56c3 -13 6 -18 15 -18c36 0 49 21 76 186l70 449h-68
l6 32l72 29l1 6c25 155 137 249 282 249c54 0 92 -17 107 -41l75 39l13 -10s-15 -52 -29 -116l-131 -641h-127zM665 -10c-29 0 -49 26 -73 81c-21 46 -41 94 -70 182l1 17c112 164 194 258 271 258c35 0 62 -19 62 -63c0 -45 -28 -65 -57 -65c-43 0 -43 40 -59 40
c-27 0 -86 -61 -123 -112c36 -100 59 -150 83 -202c25 -54 39 -57 80 -29l18 12l21 -27c-59 -54 -106 -92 -154 -92z" />
    <glyph glyph-name="f_l" unicode="fl" horiz-adv-x="599" 
d="M389 -10c-37 0 -55 23 -55 52s7 55 13 88l102 515c-24 6 -34 25 -39 57c-4 22 -12 26 -27 26c-58 0 -102 -41 -124 -188l-4 -25h113l-15 -62h-108l-52 -316c-44 -260 -133 -361 -243 -361c-64 0 -100 24 -100 67c0 27 21 49 51 49c31 0 48 -13 56 -56c3 -13 6 -18 15 -18
c36 0 49 21 76 186l70 449h-68l6 32l72 29l1 6c25 155 137 249 282 249c55 0 92 -17 107 -42l75 40l13 -10s-18 -52 -31 -116l-100 -509c-2 -10 -4 -22 -4 -35c0 -21 18 -24 59 1l20 12l19 -26c-57 -52 -115 -94 -180 -94z" />
    <glyph glyph-name=".notdef" horiz-adv-x="513" 
 />
    <glyph glyph-name="Eth" unicode="&#xd0;" horiz-adv-x="719" 
d="M46 325l9 49h68l38 209c10 53 4 60 -23 67l-39 8l7 35h297c189 0 302 -102 302 -274c0 -259 -184 -419 -410 -419h-313l6 36l41 8c28 6 37 11 47 66l38 215h-68zM294 48c189 0 263 185 263 414c0 124 -51 183 -165 183c-40 0 -62 -4 -77 -9l-47 -262h160l-9 -49h-159
l-32 -182c-14 -73 -3 -95 66 -95z" />
    <glyph glyph-name="eth" unicode="&#xf0;" horiz-adv-x="555" 
d="M188 578l-17 41l105 47c-30 27 -66 53 -106 75l15 35c61 -19 116 -46 162 -78l120 53l17 -40l-98 -44c92 -79 144 -187 144 -312c0 -249 -163 -368 -296 -368c-136 0 -209 93 -209 207c0 209 155 331 282 331c39 0 63 -9 84 -28c-16 46 -43 92 -82 135zM234 34
c107 0 167 195 167 329c0 75 -27 116 -83 116c-102 0 -166 -172 -166 -327c0 -77 28 -118 82 -118z" />
    <glyph glyph-name="Lslash" unicode="&#x141;" horiz-adv-x="603" 
d="M18 240l11 55l85 27l47 261c10 53 5 60 -23 67l-39 8l7 35h302l-7 -35l-47 -9c-31 -7 -38 -12 -48 -66l-38 -212l210 68l-12 -56l-208 -67l-31 -172c-15 -78 -6 -96 82 -96c84 0 107 13 142 52c25 28 51 67 88 135h40l-55 -235h-542l6 36l41 8c28 7 37 11 47 66l28 157z
" />
    <glyph glyph-name="lslash" unicode="&#x142;" horiz-adv-x="306" 
d="M17 290l10 54l75 32l53 264c8 40 4 50 -21 60l-42 16l5 32l203 18l11 -10s-16 -51 -29 -115l-41 -207l85 36l-10 -53l-85 -36l-49 -250c-2 -11 -4 -22 -4 -34c0 -21 18 -24 59 1l20 12l19 -26c-56 -52 -114 -94 -180 -94c-38 0 -54 28 -54 54c0 29 6 55 12 85l38 193z
" />
    <glyph glyph-name="Scaron" unicode="&#x160;" horiz-adv-x="534" 
d="M512 912l13 -25l-153 -130h-54l-114 132l16 23l136 -61zM212 -13c-86 0 -166 24 -206 47l14 176h42c16 -54 28 -82 44 -111c22 -39 49 -60 114 -60c92 0 136 51 136 113c0 55 -29 94 -131 153c-95 56 -136 111 -136 190c0 129 117 210 250 210c91 0 142 -16 172 -31
l-13 -160h-38c-15 46 -22 65 -40 94c-16 28 -36 47 -95 47c-68 0 -123 -39 -123 -107c0 -45 24 -79 115 -132c113 -68 162 -125 162 -209c0 -128 -121 -220 -267 -220z" />
    <glyph glyph-name="scaron" unicode="&#x161;" horiz-adv-x="427" 
d="M250 592l-106 156l20 23l124 -85l158 85l16 -24l-159 -155h-53zM168 -12c-121 0 -173 51 -173 97c0 36 23 55 60 55c38 0 52 -18 67 -71c6 -23 17 -35 58 -35c53 0 92 27 92 69c0 37 -27 69 -95 116c-70 50 -109 92 -109 153c0 98 96 156 197 156c109 0 153 -46 153 -91
c0 -30 -19 -51 -54 -51c-42 0 -54 27 -64 64c-7 24 -21 33 -48 33c-48 0 -83 -22 -83 -63c0 -35 19 -62 99 -115c73 -47 108 -98 108 -153c0 -98 -90 -164 -208 -164z" />
    <glyph glyph-name="Yacute" unicode="&#xdd;" horiz-adv-x="624" 
d="M113 0l7 36l44 8c32 7 39 13 49 66l31 173l-91 281c-20 64 -31 79 -57 87l-22 7l7 35h291l-7 -35l-28 -6c-32 -7 -48 -19 -48 -42c0 -14 4 -33 12 -59l61 -205h5l133 197c25 38 34 57 34 75c0 16 -8 28 -35 34l-23 6l7 35h218l-7 -35l-22 -6c-33 -11 -54 -32 -101 -101
l-182 -265l-32 -176c-9 -52 -6 -59 26 -66l39 -8l-6 -36h-303zM345 746l-11 24l154 114c18 13 32 20 48 20c28 0 46 -25 46 -49s-13 -44 -45 -53z" />
    <glyph glyph-name="yacute" unicode="&#xfd;" horiz-adv-x="516" 
d="M-14 -230c-50 0 -77 26 -77 63c0 36 23 56 52 56c50 0 52 -40 88 -40c30 0 75 30 138 101c-23 199 -44 349 -63 424c-18 65 -31 63 -70 37l-19 -12l-20 28c55 57 115 101 158 101c31 0 50 -15 64 -74c24 -111 41 -246 50 -371h5c73 106 138 228 138 298
c0 42 -32 54 -32 98c0 30 23 50 56 50c38 0 67 -24 67 -69c0 -90 -91 -272 -212 -433c-112 -151 -226 -257 -323 -257zM245 593l-12 24l155 114c18 13 32 20 47 20c28 0 46 -25 46 -49s-13 -44 -44 -53z" />
    <glyph glyph-name="Thorn" unicode="&#xde;" horiz-adv-x="623" 
d="M-18 0l6 36l42 8c27 6 36 11 46 66l85 473c10 56 3 60 -23 67l-39 8l7 35h298l-7 -35l-44 -8c-28 -6 -37 -11 -47 -67l-5 -28h69c165 0 245 -64 245 -180c0 -127 -97 -228 -235 -228c-59 0 -76 10 -93 20l7 34c120 -13 177 57 177 199c0 82 -32 107 -109 107
c-29 0 -58 -5 -72 -8l-69 -389c-10 -54 -4 -59 25 -65l48 -9l-7 -36h-305z" />
    <glyph glyph-name="thorn" unicode="&#xfe;" horiz-adv-x="570" 
d="M-89 -219l7 34l36 9c29 7 34 14 42 55l153 761c8 40 3 48 -23 60l-38 16l5 32l200 18l11 -10s-17 -52 -29 -115l-30 -158c-7 -35 -23 -87 -25 -93h4c50 60 126 138 211 138c72 0 117 -62 117 -153c0 -222 -147 -388 -318 -388c-39 0 -66 6 -89 16c0 0 -3 -28 -9 -61
l-12 -63c-8 -43 -5 -49 20 -55l44 -9l-7 -34h-270zM244 34c103 0 178 163 178 341c0 50 -17 69 -49 69c-50 0 -122 -71 -162 -120l-48 -243c18 -25 41 -47 81 -47z" />
    <glyph glyph-name="Zcaron" unicode="&#x17d;" horiz-adv-x="576" 
d="M547 912l13 -25l-153 -130h-54l-114 132l16 23l136 -61zM-20 0l9 47l464 596v4h-47c-143 0 -161 -7 -196 -48c-29 -31 -45 -62 -81 -122h-39l45 216h489l-9 -47l-462 -594v-5h50c157 0 173 6 212 47c31 32 54 74 92 141h41l-48 -235h-520z" />
    <glyph glyph-name="zcaron" unicode="&#x17e;" horiz-adv-x="468" 
d="M283 592l-106 156l20 23l124 -85l158 85l16 -24l-159 -155h-53zM274 -17c-78 0 -115 89 -183 89c-23 0 -40 -23 -58 -86h-14l-54 40v14c44 29 74 53 119 97l250 251c-87 6 -132 48 -203 48c-12 0 -18 -7 -18 -13c0 -18 45 -21 45 -57c0 -25 -18 -47 -50 -47
c-36 0 -53 31 -53 61c0 49 76 149 160 149c80 0 127 -87 169 -87c19 0 33 24 48 85h15l58 -38v-14c-37 -24 -62 -42 -114 -94l-244 -249c81 -6 132 -37 177 -37c24 0 45 13 83 66l26 -16c-53 -97 -95 -162 -159 -162z" />
    <glyph glyph-name="onehalf" unicode="&#xbd;" horiz-adv-x="834" 
d="M400 -104l9 54c61 42 113 76 149 113c60 53 97 108 97 180c0 39 -23 52 -55 52c-19 0 -27 -7 -31 -29c-5 -47 -20 -56 -53 -56c-34 0 -46 20 -46 43c0 46 61 79 143 79s148 -39 148 -114c0 -96 -110 -166 -257 -239v-3h137c30 0 37 8 65 52h29l-30 -132h-305zM21 266
l6 31l26 6c25 7 36 11 43 46l43 234l-61 4l5 34c69 11 131 39 172 80l18 -5l-62 -348c-7 -36 -3 -40 20 -46l29 -5l-6 -31h-233zM90 -50l595 764h66l-595 -764h-66z" />
    <glyph glyph-name="onequarter" unicode="&#xbc;" horiz-adv-x="825" 
d="M512 -104l5 31l24 6c24 7 29 10 36 48l6 29h-197l8 39l280 275h64l-49 -266h64l-11 -48h-63l-5 -29c-7 -38 -2 -43 21 -48l23 -6l-6 -31h-200zM458 58h134l31 159h-4l-161 -157v-2zM21 266l6 31l26 6c25 7 36 11 43 46l43 234l-61 4l5 34c69 11 131 39 172 80l18 -5
l-62 -348c-7 -36 -3 -40 20 -46l29 -5l-6 -31h-233zM114 -50l595 764h66l-595 -764h-66z" />
    <glyph glyph-name="onesuperior" unicode="&#xb9;" horiz-adv-x="277" 
d="M21 266l6 31l26 6c25 7 36 11 43 46l43 234l-61 4l5 34c69 11 131 39 172 80l18 -5l-62 -348c-7 -36 -3 -40 20 -46l29 -5l-6 -31h-233z" />
    <glyph glyph-name="threequarters" unicode="&#xbe;" horiz-adv-x="842" 
d="M163 257c-84 0 -136 25 -136 74c0 32 17 50 46 50c32 0 46 -13 50 -55c3 -26 5 -34 31 -34c57 0 88 54 88 118c0 42 -24 57 -69 57h-30l8 43h25c63 0 87 39 87 104c0 34 -18 51 -50 51c-21 0 -30 -6 -33 -27c-4 -42 -18 -52 -48 -52c-29 0 -46 17 -46 41
c0 42 58 74 137 74c90 0 143 -38 143 -95c0 -55 -35 -97 -123 -112v-2c68 -9 113 -41 113 -96c0 -87 -82 -139 -193 -139zM519 -104l5 31l25 6c23 7 28 10 35 48l6 29h-197l8 39l280 275h64l-49 -266h64l-11 -48h-62l-5 -29c-8 -38 -3 -43 20 -48l23 -6l-5 -31h-201zM466 58
h133l31 159h-4l-160 -157v-2zM140 -50l596 764h65l-594 -764h-67z" />
    <glyph glyph-name="threesuperior" unicode="&#xb3;" horiz-adv-x="365" 
d="M163 257c-84 0 -136 25 -136 74c0 32 17 50 46 50c32 0 46 -13 50 -55c3 -26 5 -34 31 -34c57 0 88 54 88 118c0 42 -24 57 -69 57h-30l8 43h25c63 0 87 39 87 104c0 34 -18 51 -50 51c-21 0 -30 -6 -33 -27c-4 -42 -18 -52 -48 -52c-29 0 -46 17 -46 41
c0 42 58 74 137 74c90 0 143 -38 143 -95c0 -55 -35 -97 -123 -112v-2c68 -9 113 -41 113 -96c0 -87 -82 -139 -193 -139z" />
    <glyph glyph-name="twosuperior" unicode="&#xb2;" horiz-adv-x="366" 
d="M18 266l9 53c61 43 112 76 149 113c59 53 97 108 97 179c0 40 -23 53 -54 53c-20 0 -28 -7 -32 -29c-5 -47 -20 -56 -53 -56c-34 0 -46 20 -46 43c0 47 60 79 143 79c82 0 148 -39 148 -113c0 -96 -110 -167 -256 -240v-3h137c30 0 36 9 64 52h29l-30 -131h-305z" />
    <glyph glyph-name="brokenbar" unicode="&#xa6;" horiz-adv-x="258" 
d="M116 -130v385h58v-385h-58zM116 326v408h58v-408h-58z" />
    <glyph glyph-name="minus" unicode="&#x2212;" horiz-adv-x="481" 
d="M55 306v62h395v-62h-395z" />
    <glyph glyph-name="multiply" unicode="&#xd7;" horiz-adv-x="455" 
d="M100 147l-47 44l142 145l-139 143l48 46l136 -143l139 143l46 -45l-139 -143l141 -145l-48 -45l-141 144z" />
    <glyph glyph-name="space" unicode=" " horiz-adv-x="215" 
 />
    <glyph glyph-name="exclam" unicode="!" horiz-adv-x="284" 
d="M107 -7c-47 0 -84 36 -84 82s37 84 84 84c48 0 85 -38 85 -84s-37 -82 -85 -82zM113 227l13 380c-1 71 38 96 88 96c57 0 98 -40 66 -116l-127 -360h-40z" />
    <glyph glyph-name="quotedbl" unicode="&#x22;" horiz-adv-x="377" 
d="M113 408l-7 213c-3 67 34 85 67 85c45 0 74 -30 48 -96l-75 -202h-33zM288 408l-3 213c-2 66 35 85 66 85c44 0 77 -29 49 -96l-79 -202h-33z" />
    <glyph glyph-name="numbersign" unicode="#" horiz-adv-x="517" 
d="M60 0l51 188h-84l22 90h90l38 140h-87l21 90h89l53 185h61l-53 -185h108l52 185h60l-52 -185h85l-21 -90h-90l-37 -140h87l-25 -90h-89l-51 -188h-59l50 188h-107l-52 -188h-60zM198 278h109l36 140h-107z" />
    <glyph glyph-name="dollar" unicode="$" horiz-adv-x="528" 
d="M477 211c0 -118 -106 -212 -247 -221l-17 -100h-52l18 100c-135 7 -188 58 -188 115c0 43 25 63 60 63c43 0 62 -15 66 -67c2 -43 10 -64 70 -68l48 269c-108 62 -149 112 -149 191c0 122 107 201 229 208l12 65h51l-12 -65c120 -7 171 -56 171 -108
c0 -42 -25 -66 -61 -66c-41 0 -56 19 -61 75c-4 36 -15 52 -57 56l-45 -247c116 -64 164 -115 164 -200zM365 154c0 52 -29 86 -84 122l-43 -243c80 7 127 57 127 121zM190 546c0 -39 19 -71 77 -109l40 222c-65 -6 -117 -45 -117 -113z" />
    <glyph glyph-name="percent" unicode="%" horiz-adv-x="808" 
d="M209 385c58 0 100 102 100 201c0 54 -17 79 -51 79c-58 0 -100 -106 -100 -201c0 -54 17 -79 51 -79zM207 346c-81 0 -147 54 -147 145c0 115 98 213 199 213c79 0 148 -53 148 -144c0 -117 -99 -214 -200 -214zM64 -50l620 764h68l-618 -764h-70zM580 26
c57 0 99 102 99 201c0 54 -17 79 -51 79c-57 0 -100 -105 -100 -200c0 -54 17 -80 52 -80zM577 -13c-81 0 -147 55 -147 145c0 114 98 213 199 213c80 0 148 -53 148 -145c0 -116 -98 -213 -200 -213z" />
    <glyph glyph-name="ampersand" unicode="&#x26;" horiz-adv-x="700" 
d="M231 -12c-158 0 -221 84 -221 165c0 120 98 190 200 230c-19 40 -30 77 -30 122c0 123 104 200 205 200c91 0 155 -51 155 -124c0 -90 -90 -146 -194 -188c39 -71 86 -146 134 -215c35 47 58 94 58 127c0 20 -10 27 -35 35l-19 5l6 35h205l-7 -35l-29 -7
c-28 -7 -42 -18 -67 -60c-31 -50 -50 -92 -85 -138c16 -22 31 -43 47 -63c11 -16 22 -24 42 -30l45 -11l-6 -36h-181c-13 15 -26 31 -39 48c-50 -37 -110 -60 -184 -60zM387 86c-51 68 -106 154 -161 265c-53 -38 -82 -86 -82 -174c0 -87 46 -133 124 -133
c47 0 83 15 119 42zM293 557c0 -42 12 -85 36 -132c68 35 114 81 114 157c0 51 -26 78 -63 78c-54 0 -87 -46 -87 -103z" />
    <glyph glyph-name="quotesingle" unicode="'" horiz-adv-x="198" 
d="M113 408l-7 215c-3 66 37 83 68 83c43 0 74 -31 48 -96l-76 -202h-33z" />
    <glyph glyph-name="parenleft" unicode="(" horiz-adv-x="348" 
d="M243 -141c-90 85 -182 218 -182 387c0 234 178 406 330 499l23 -27c-144 -121 -241 -307 -241 -511c1 -144 47 -244 103 -324z" />
    <glyph glyph-name="parenright" unicode=")" horiz-adv-x="348" 
d="M-25 -141l-23 27c144 121 241 308 241 511c-1 144 -48 244 -103 324l34 24c88 -85 181 -217 181 -387c0 -234 -178 -406 -330 -499z" />
    <glyph glyph-name="asterisk" unicode="*" horiz-adv-x="435" 
d="M351 351c-26 -13 -59 -8 -68 40l-24 105l-56 -97c-21 -43 -57 -43 -79 -24c-21 19 -25 57 19 80l99 57l-108 19c-47 7 -55 42 -41 69c12 24 44 36 78 4l82 -69l-14 108c-8 50 23 65 51 62c29 -3 53 -26 31 -71l-45 -101l98 48c42 23 70 3 75 -26c4 -28 -12 -57 -60 -52
l-113 6l81 -78c35 -33 20 -66 -6 -80z" />
    <glyph glyph-name="plus" unicode="+" horiz-adv-x="481" 
d="M215 129v177h-160v62h160v177h72v-177h160v-62h-160v-177h-72z" />
    <glyph glyph-name="comma" unicode="," horiz-adv-x="317" 
d="M-40 -169l-9 33c127 42 182 93 185 156c-6 -5 -21 -12 -36 -12c-45 0 -71 31 -71 75c0 48 40 79 87 79c57 0 106 -44 106 -123c0 -96 -94 -186 -262 -208z" />
    <glyph glyph-name="hyphen" unicode="-" horiz-adv-x="297" 
d="M33 246l14 88h224l-15 -88h-223z" />
    <glyph glyph-name="period" unicode="." horiz-adv-x="292" 
d="M116 -7c-48 0 -87 38 -87 84c0 47 39 85 87 85c49 0 87 -38 87 -85c0 -46 -38 -84 -87 -84z" />
    <glyph glyph-name="slash" unicode="/" horiz-adv-x="395" 
d="M-58 -130l440 864h67l-440 -864h-67z" />
    <glyph glyph-name="zero" unicode="0" horiz-adv-x="660" 
d="M289 -13c-126 0 -244 90 -244 273c0 266 193 445 356 445c124 0 244 -89 244 -276c0 -265 -194 -442 -356 -442zM293 37c128 0 212 254 212 445c0 120 -38 174 -107 174c-128 0 -212 -256 -212 -450c0 -117 36 -169 107 -169z" />
    <glyph glyph-name="one" unicode="1" horiz-adv-x="384" 
d="M-12 0l7 36l47 8c36 7 43 11 53 66l78 442l-91 5l6 36c101 18 171 54 228 110l27 -8l-104 -585c-9 -52 -7 -61 25 -66l48 -8l-7 -36h-317z" />
    <glyph glyph-name="two" unicode="2" horiz-adv-x="531" 
d="M-26 0l14 72c96 69 182 132 244 186c98 85 165 171 165 293c0 82 -43 108 -101 108c-34 0 -50 -14 -54 -45c-6 -60 -31 -80 -75 -80c-48 0 -62 28 -62 60c0 65 82 111 203 111c129 0 226 -64 226 -179c0 -164 -202 -287 -423 -417v-4h230c52 0 64 8 109 78h33l-46 -183
h-463z" />
    <glyph glyph-name="three" unicode="3" horiz-adv-x="538" 
d="M193 -13c-126 0 -202 37 -202 111c0 38 21 67 67 67c49 0 67 -21 71 -72s12 -59 54 -59c106 0 160 87 160 198c0 70 -34 105 -112 105h-51l9 51h44c104 0 144 56 144 176c0 69 -30 95 -94 95c-35 0 -56 -10 -58 -45c-7 -56 -25 -74 -68 -74c-40 0 -61 22 -61 57
c0 64 83 108 199 108c137 0 215 -67 215 -154c0 -96 -64 -162 -190 -185v-3c107 -15 168 -70 168 -154c0 -135 -135 -222 -295 -222z" />
    <glyph glyph-name="four" unicode="4" horiz-adv-x="584" 
d="M190 0l7 36l41 8c30 7 40 11 50 66l14 83h-292l11 54l427 446h83l-79 -431h103l-16 -69h-99l-13 -83c-10 -51 -6 -58 24 -65l41 -9l-7 -36h-295zM102 262h212l50 273h-4l-258 -270v-3z" />
    <glyph glyph-name="five" unicode="5" horiz-adv-x="535" 
d="M195 -13c-113 0 -186 40 -186 106c0 38 20 66 67 66c43 0 61 -16 65 -72c2 -37 9 -54 63 -54c90 0 163 56 163 159c0 100 -66 142 -153 142c-54 0 -101 -13 -123 -23l-8 7l99 375h270c28 0 35 7 65 53h34l-40 -159h-302l-41 -156c21 8 45 14 103 14
c126 0 221 -65 221 -194c0 -166 -148 -264 -297 -264z" />
    <glyph glyph-name="six" unicode="6" horiz-adv-x="595" 
d="M275 -13c-131 0 -230 94 -230 257c0 280 221 461 408 461c107 0 154 -36 154 -91c0 -38 -20 -65 -63 -65c-47 0 -63 18 -69 73c-3 30 -11 38 -41 38c-84 0 -182 -94 -230 -290c37 24 91 46 162 46c110 0 185 -64 185 -173c0 -152 -123 -256 -276 -256zM280 37
c88 0 132 105 132 213c0 78 -33 112 -95 112c-51 0 -91 -18 -123 -38c-8 -49 -15 -99 -15 -159c0 -71 25 -128 101 -128z" />
    <glyph glyph-name="seven" unicode="7" horiz-adv-x="510" 
d="M68 0c88 261 246 439 403 587h-277c-40 0 -50 -10 -87 -75h-34l46 181h454l-10 -60c-179 -189 -284 -375 -345 -633h-150z" />
    <glyph glyph-name="eight" unicode="8" horiz-adv-x="568" 
d="M258 -13c-136 0 -244 64 -244 166c0 91 83 154 188 196v3c-58 41 -91 87 -91 147c0 125 115 206 239 206c109 0 208 -57 208 -153c0 -84 -80 -136 -164 -175v-5c79 -50 125 -96 125 -169c0 -118 -113 -216 -261 -216zM261 37c90 0 142 50 142 115c0 70 -64 113 -167 174
c-45 -33 -109 -83 -109 -167c0 -68 46 -122 134 -122zM359 400c44 33 97 77 97 153c0 64 -40 104 -111 104c-74 0 -123 -47 -123 -106c0 -62 53 -104 137 -151z" />
    <glyph glyph-name="nine" unicode="9" horiz-adv-x="595" 
d="M184 -13c-108 0 -162 36 -162 92c0 37 24 64 66 64c43 0 60 -21 66 -69c3 -33 15 -41 43 -41c103 0 184 91 226 288c-37 -22 -92 -45 -163 -45c-110 0 -185 64 -185 173c0 152 136 256 275 256c131 0 231 -88 231 -262c0 -266 -195 -456 -397 -456zM306 332
c51 0 94 20 126 38c11 52 16 99 16 158c0 66 -25 128 -102 128c-87 0 -134 -107 -134 -213c0 -74 30 -111 94 -111z" />
    <glyph glyph-name="colon" unicode=":" horiz-adv-x="300" 
d="M121 -7c-48 0 -87 38 -87 84c0 47 39 85 87 85s87 -38 87 -85c0 -46 -39 -84 -87 -84zM173 281c-48 0 -87 38 -87 83c0 48 39 86 87 86s87 -38 87 -86c0 -45 -39 -83 -87 -83z" />
    <glyph glyph-name="semicolon" unicode=";" horiz-adv-x="325" 
d="M-35 -169l-8 33c126 42 181 93 184 156c-6 -5 -21 -12 -36 -12c-45 0 -71 31 -71 75c0 48 40 79 88 79c56 0 106 -44 106 -123c0 -96 -95 -186 -263 -208zM175 281c-48 0 -87 38 -87 83c0 48 39 86 87 86s87 -38 87 -86c0 -45 -39 -83 -87 -83z" />
    <glyph glyph-name="less" unicode="&#x3c;" horiz-adv-x="481" 
d="M442 117l-392 174v73l392 174v-70l-329 -140l329 -140v-71z" />
    <glyph glyph-name="equal" unicode="=" horiz-adv-x="521" 
d="M54 219v63h435v-63h-435zM54 388v63h435v-63h-435z" />
    <glyph glyph-name="greater" unicode="&#x3e;" horiz-adv-x="481" 
d="M63 117v71l329 140l-329 140v70l393 -173v-74z" />
    <glyph glyph-name="question" unicode="?" horiz-adv-x="455" 
d="M131 222l29 167c102 15 193 61 193 181c0 62 -41 90 -91 90c-27 0 -37 -7 -41 -38c-8 -51 -33 -68 -73 -68s-59 24 -59 58c0 65 79 93 160 93c126 0 219 -61 219 -177c0 -141 -121 -202 -265 -224l-16 -82h-56zM142 -7c-47 0 -84 36 -84 82s37 84 84 84
c49 0 86 -38 86 -84s-37 -82 -86 -82z" />
    <glyph glyph-name="at" unicode="@" horiz-adv-x="956" 
d="M451 -178c-246 0 -410 149 -410 378c0 274 233 490 500 490c231 0 381 -131 381 -324c0 -247 -170 -330 -286 -330c-93 0 -110 44 -110 101h-4c-42 -69 -92 -99 -151 -99c-62 0 -106 42 -106 126c0 186 149 328 267 328c50 0 84 -15 110 -33h4l43 30l20 -10
s-15 -30 -30 -106l-37 -190c-10 -63 -9 -91 37 -91c85 0 163 85 163 245c0 186 -90 306 -303 306c-231 0 -405 -188 -405 -419c0 -214 109 -351 341 -351c97 0 180 21 260 56l-2 -42c-59 -31 -147 -65 -282 -65zM425 110c35 0 70 40 101 88l44 221c-6 9 -18 29 -46 29
c-67 0 -142 -136 -142 -272c0 -49 15 -66 43 -66z" />
    <glyph glyph-name="A" unicode="A" horiz-adv-x="675" 
d="M-43 0l7 36l29 6c29 8 42 17 89 103l305 548h85l91 -555c13 -73 22 -90 47 -96l23 -6l-7 -36h-283l7 36l29 7c35 8 45 22 45 44s-3 38 -7 63l-11 70h-217l-37 -71c-15 -29 -31 -56 -31 -73c0 -18 7 -27 30 -33l30 -7l-7 -36h-217zM354 537l-139 -267h184l-40 267h-5z" />
    <glyph glyph-name="B" unicode="B" horiz-adv-x="642" 
d="M-18 0l6 36l41 8c29 7 37 12 47 66l85 473c10 53 5 60 -23 67l-39 8l7 35h275c146 0 233 -55 233 -151c0 -103 -76 -157 -197 -176v-5c117 -16 181 -67 181 -151c0 -139 -113 -210 -286 -210h-330zM308 48c96 0 144 61 144 181c0 74 -34 107 -121 107h-72l-37 -213
c-11 -57 10 -75 86 -75zM269 386h61c99 0 143 57 143 163c0 72 -30 95 -102 95c-27 0 -43 -2 -57 -6z" />
    <glyph glyph-name="C" unicode="C" horiz-adv-x="630" 
d="M341 -12c-175 0 -296 107 -296 286c0 263 201 431 412 431c76 0 140 -13 182 -32l-18 -194h-40c-12 50 -28 105 -45 137c-18 31 -38 41 -90 41c-170 0 -253 -234 -253 -433c0 -126 48 -188 152 -188c57 0 83 15 115 52c28 31 59 80 90 133h38l-48 -201
c-42 -18 -112 -32 -199 -32z" />
    <glyph glyph-name="D" unicode="D" horiz-adv-x="719" 
d="M-18 0l6 36l41 8c28 6 37 11 47 66l85 473c10 53 4 60 -23 67l-39 8l7 35h297c189 0 302 -102 302 -274c0 -259 -184 -419 -410 -419h-313zM294 48c189 0 263 185 263 414c0 124 -51 183 -165 183c-40 0 -62 -4 -77 -9l-87 -493c-14 -73 -3 -95 66 -95z" />
    <glyph glyph-name="E" unicode="E" horiz-adv-x="629" 
d="M-18 0l6 36l41 8c28 7 37 12 47 66l85 473c10 53 5 60 -23 67l-39 8l7 35h516l-7 -190h-38c-17 53 -28 81 -39 101c-22 34 -44 40 -123 40c-56 0 -81 -5 -100 -9l-45 -250h32c65 0 87 3 105 28c13 18 22 39 36 71h39l-44 -252h-38c-2 32 -5 51 -12 72
c-9 26 -27 30 -102 30h-25l-33 -186c-15 -83 -7 -98 93 -98c92 0 116 11 148 47c22 25 52 67 86 127h43l-60 -224h-556z" />
    <glyph glyph-name="F" unicode="F" horiz-adv-x="601" 
d="M-18 0l6 36l41 8c28 7 37 12 47 66l85 473c10 54 5 60 -23 67l-39 8l7 35h519l-6 -197h-40c-17 57 -29 84 -43 108c-19 34 -44 40 -127 40c-49 0 -74 -4 -94 -8l-47 -262h17c85 0 99 3 116 23s30 47 46 81h38l-48 -265h-38c-2 35 -6 60 -14 87c-7 21 -23 23 -112 23h-15
l-37 -213c-9 -54 -7 -59 24 -65l51 -9l-7 -36h-307z" />
    <glyph glyph-name="G" unicode="G" horiz-adv-x="692" 
d="M354 -12c-186 0 -310 100 -310 281c0 277 210 436 415 436c88 0 153 -13 194 -29l-18 -197h-38c-17 60 -30 102 -48 132c-22 32 -36 46 -101 46c-157 0 -256 -215 -256 -445c0 -111 41 -176 159 -176c42 0 68 9 91 23l24 140c9 52 6 60 -28 67l-34 8l7 36h278l-6 -36
l-32 -7c-27 -7 -35 -13 -45 -68l-30 -175c-53 -20 -132 -36 -222 -36z" />
    <glyph glyph-name="H" unicode="H" horiz-adv-x="758" 
d="M-18 0l6 36l41 8c28 7 37 12 47 66l85 473c10 53 5 60 -23 67l-39 8l7 35h295l-6 -35l-42 -8c-28 -7 -36 -11 -47 -67l-37 -203h263l37 203c9 53 5 60 -25 67l-38 8l8 35h295l-7 -35l-42 -8c-27 -6 -36 -11 -46 -67l-86 -473c-9 -52 -5 -59 24 -66l39 -8l-7 -36h-296
l7 36l41 8c29 7 37 12 47 66l40 218h-263l-39 -218c-9 -52 -7 -59 24 -66l38 -8l-6 -36h-295z" />
    <glyph glyph-name="I" unicode="I" horiz-adv-x="358" 
d="M-18 0l6 36l45 8c29 6 37 12 47 66l85 473c9 53 5 61 -24 67l-42 8l7 35h303l-7 -35l-45 -8c-27 -5 -36 -12 -47 -67l-84 -473c-10 -52 -7 -59 23 -66l42 -8l-8 -36h-301z" />
    <glyph glyph-name="J" unicode="J" horiz-adv-x="341" 
d="M-33 -178c-77 0 -124 38 -124 85c0 32 25 57 64 57c44 0 57 -17 62 -75c2 -17 7 -22 20 -22c30 0 47 20 60 92l112 624c10 53 5 60 -23 67l-39 8l7 35h295l-6 -35l-42 -8c-28 -6 -37 -11 -47 -67l-95 -516c-25 -139 -110 -245 -244 -245z" />
    <glyph glyph-name="K" unicode="K" horiz-adv-x="693" 
d="M447 0c-61 100 -118 235 -157 342l4 16l198 189c45 42 54 53 54 75c0 12 -9 23 -34 29l-25 7l7 35h240l-6 -35l-18 -4c-38 -10 -67 -32 -122 -82l-177 -166c49 -125 105 -246 155 -336c9 -15 22 -20 43 -25l37 -9l-6 -36h-193zM-18 0l6 36l41 8c28 7 37 12 47 66l85 473
c10 53 5 60 -23 67l-39 8l7 35h295l-6 -35l-42 -8c-28 -7 -37 -11 -47 -67l-85 -473c-9 -52 -7 -59 24 -66l38 -8l-6 -36h-295z" />
    <glyph glyph-name="L" unicode="L" horiz-adv-x="603" 
d="M-18 0l6 36l41 8c28 7 37 11 47 66l85 473c10 53 5 60 -23 67l-39 8l7 35h302l-7 -35l-47 -9c-31 -7 -38 -12 -48 -66l-78 -439c-16 -78 -8 -96 81 -96c84 0 107 13 142 52c25 28 51 67 88 135h40l-55 -235h-542z" />
    <glyph glyph-name="M" unicode="M" horiz-adv-x="868" 
d="M-18 0l6 36l34 7c33 7 46 21 58 88l81 452c10 53 5 60 -23 67l-39 8l7 35h240l76 -486h4l241 486h250l-7 -35l-43 -8c-27 -6 -37 -11 -47 -67l-85 -473c-10 -52 -5 -59 24 -66l39 -8l-6 -36h-288l6 36l39 8c27 6 37 11 47 66l90 500h-4l-298 -595h-61l-94 595h-4
l-88 -487c-11 -62 -5 -73 34 -81l27 -6l-7 -36h-209z" />
    <glyph glyph-name="N" unicode="N" horiz-adv-x="703" 
d="M495 -3l-267 605h-4l-86 -479c-12 -62 -1 -73 38 -81l31 -6l-6 -36h-219l6 36l33 6c36 8 47 21 59 87l82 454c9 53 5 60 -24 67l-38 8l7 35h232l202 -462h3l61 340c12 61 5 73 -31 80l-38 7l7 35h216l-7 -35l-31 -7c-34 -8 -45 -20 -58 -90l-103 -564h-65z" />
    <glyph glyph-name="O" unicode="O" horiz-adv-x="720" 
d="M325 -13c-154 0 -281 107 -281 283c0 255 194 435 385 435c154 0 277 -106 277 -286c0 -256 -189 -432 -381 -432zM330 39c145 0 229 219 229 427c0 109 -31 188 -133 188c-149 0 -234 -227 -234 -427c0 -110 31 -188 138 -188z" />
    <glyph glyph-name="P" unicode="P" horiz-adv-x="623" 
d="M-18 0l6 36l41 8c28 6 37 12 47 66l85 473c10 54 5 59 -18 65l-44 10l7 35h289c161 0 245 -68 245 -186c0 -133 -96 -238 -236 -238c-57 0 -79 10 -95 20l6 33c124 -13 182 60 182 211c0 83 -36 111 -112 111c-27 0 -56 -3 -70 -7l-94 -527c-10 -53 -7 -59 24 -65l50 -9
l-7 -36h-306z" />
    <glyph glyph-name="Q" unicode="Q" horiz-adv-x="720" 
d="M526 -170c-68 0 -117 20 -170 60c-37 28 -79 69 -123 112c-108 32 -189 128 -189 268c0 254 192 435 385 435c153 0 277 -106 277 -286c0 -224 -144 -378 -303 -412v-3c23 -23 55 -49 80 -67c47 -31 86 -41 129 -41c31 0 60 11 78 18l-4 -32c-27 -22 -85 -52 -160 -52z
M330 39c145 0 229 219 229 427c0 109 -31 188 -133 188c-149 0 -234 -227 -234 -426c0 -112 31 -189 138 -189z" />
    <glyph glyph-name="R" unicode="R" horiz-adv-x="683" 
d="M-18 0l6 36l41 8c28 7 37 11 47 66l85 473c10 53 6 60 -23 67l-39 8l7 35h282c170 0 242 -74 242 -171c0 -92 -60 -161 -164 -186v-6c34 -97 73 -190 114 -259c9 -14 17 -22 41 -28l28 -7l-7 -36h-179c-54 91 -96 205 -127 303h-81l-34 -193c-10 -52 -7 -60 21 -66l41 -8
l-7 -36h-294zM320 353c121 0 167 68 167 191c0 77 -30 100 -109 100c-27 0 -48 -3 -63 -7l-50 -280c2 -1 23 -4 55 -4z" />
    <glyph glyph-name="S" unicode="S" horiz-adv-x="534" 
d="M212 -13c-86 0 -166 24 -206 47l14 176h42c16 -54 28 -82 44 -111c22 -39 49 -60 114 -60c92 0 136 51 136 113c0 55 -29 94 -131 153c-95 56 -136 111 -136 190c0 129 117 210 250 210c91 0 142 -16 172 -31l-13 -160h-38c-15 46 -22 65 -40 94c-16 28 -36 47 -95 47
c-68 0 -123 -39 -123 -107c0 -45 24 -79 115 -132c113 -68 162 -125 162 -209c0 -128 -121 -220 -267 -220z" />
    <glyph glyph-name="T" unicode="T" horiz-adv-x="629" 
d="M116 0l7 36l44 8c32 7 39 11 49 66l96 535h-14c-73 0 -86 -4 -114 -40c-29 -35 -52 -81 -85 -144h-41l52 232h562l-27 -232h-39c-12 62 -21 108 -35 146c-12 31 -22 38 -102 38h-12l-96 -535c-9 -53 -7 -60 24 -66l42 -8l-7 -36h-304z" />
    <glyph glyph-name="U" unicode="U" horiz-adv-x="703" 
d="M346 -13c-178 0 -288 77 -254 265l60 331c9 53 5 60 -23 67l-38 8l7 35h294l-8 -35l-41 -8c-29 -7 -36 -11 -46 -67l-64 -353c-22 -123 17 -181 139 -181c112 0 153 56 173 162l64 360c12 65 2 74 -36 81l-35 6l8 35h220l-8 -35l-33 -7c-29 -6 -45 -17 -57 -82l-68 -371
c-21 -118 -93 -211 -254 -211z" />
    <glyph glyph-name="V" unicode="V" horiz-adv-x="668" 
d="M241 0l-95 556c-12 70 -20 88 -49 96l-23 6l7 35h283l-7 -35l-30 -7c-29 -6 -41 -21 -41 -46c0 -16 2 -38 6 -65l57 -383h5l200 387c16 30 27 59 27 75c0 18 -9 27 -32 32l-29 7l7 35h216l-7 -35l-17 -6c-32 -10 -50 -25 -93 -103l-296 -549h-89z" />
    <glyph glyph-name="W" unicode="W" horiz-adv-x="969" 
d="M218 0l-71 573c-9 70 -19 71 -46 78l-25 7l7 35h280l-7 -35l-27 -6c-31 -7 -42 -22 -42 -52c0 -17 4 -36 6 -57l40 -376h5l174 342l-8 71c-6 51 -16 63 -42 71l-24 7l7 35h278l-6 -35l-33 -7c-32 -7 -43 -27 -43 -55c0 -16 1 -35 3 -55l39 -374h6l181 389
c14 29 19 44 19 64c0 18 -10 28 -34 33l-23 5l7 35h210l-7 -35l-24 -6c-33 -8 -43 -20 -83 -100l-272 -552h-91l-45 419h-3l-215 -419h-91z" />
    <glyph glyph-name="X" unicode="X" horiz-adv-x="694" 
d="M-24 0l9 36l16 4c36 8 55 19 109 84l182 216l-115 239c-22 47 -30 62 -62 73l-18 6l7 35h297l-7 -35l-36 -7c-24 -5 -34 -16 -34 -34c0 -13 3 -27 16 -57l68 -148h3l116 155c19 26 25 42 25 58c0 12 -7 22 -28 27l-25 6l7 35h218l-7 -35l-20 -5c-33 -8 -49 -26 -99 -87
l-164 -201l117 -246c27 -55 37 -70 66 -78l19 -5l-7 -36h-293l6 36l26 4c32 5 41 17 41 33c0 13 -5 33 -17 59l-74 164h-4l-129 -167c-22 -28 -37 -47 -37 -63c0 -13 8 -21 28 -25l24 -5l-7 -36h-217z" />
    <glyph glyph-name="Y" unicode="Y" horiz-adv-x="624" 
d="M113 0l7 36l44 8c32 7 39 13 49 66l31 173l-91 281c-20 64 -31 79 -57 87l-22 7l7 35h291l-7 -35l-28 -6c-32 -7 -48 -19 -48 -42c0 -14 4 -33 12 -59l61 -205h5l133 197c25 38 34 57 34 75c0 16 -8 28 -35 34l-23 6l7 35h218l-7 -35l-22 -6c-33 -11 -54 -32 -101 -101
l-182 -265l-32 -176c-9 -52 -6 -59 26 -66l39 -8l-6 -36h-303z" />
    <glyph glyph-name="Z" unicode="Z" horiz-adv-x="576" 
d="M-20 0l9 47l464 596v4h-47c-143 0 -161 -7 -196 -48c-29 -31 -45 -62 -81 -122h-39l45 216h489l-9 -47l-462 -594v-5h50c157 0 173 6 212 47c31 32 54 74 92 141h41l-48 -235h-520z" />
    <glyph glyph-name="bracketleft" unicode="[" horiz-adv-x="367" 
d="M32 -130l157 864h230l-7 -35l-78 -9c-43 -5 -52 -12 -63 -69l-114 -638c-11 -56 -6 -64 37 -69l76 -9l-7 -35h-231z" />
    <glyph glyph-name="backslash" unicode="\" horiz-adv-x="395" 
d="M262 -130l-168 864h63l168 -864h-63z" />
    <glyph glyph-name="bracketright" unicode="]" horiz-adv-x="367" 
d="M-36 -130l7 35l80 9c44 5 52 12 62 69l114 638c12 56 7 64 -36 69l-78 9l8 35h229l-156 -864h-230z" />
    <glyph glyph-name="asciicircum" unicode="^" horiz-adv-x="425" 
d="M104 455l-19 22l175 223h45l120 -226l-24 -19l-132 128z" />
    <glyph glyph-name="underscore" unicode="_" horiz-adv-x="341" 
d="M-70 -178l11 63h349l-11 -63h-349z" />
    <glyph glyph-name="grave" unicode="`" horiz-adv-x="527" 
d="M427 591l-195 56c-32 9 -43 31 -43 51c0 25 21 52 49 52c16 0 30 -6 48 -19l154 -113z" />
    <glyph glyph-name="a" unicode="a" horiz-adv-x="581" 
d="M136 -13c-77 0 -118 57 -118 135c0 224 181 406 326 406c68 0 91 -15 121 -36h4l60 41l22 -8s-20 -44 -44 -156l-47 -235c-3 -13 -5 -23 -5 -35c0 -21 16 -25 54 -3l20 12l19 -26c-53 -48 -112 -92 -173 -92c-43 0 -51 34 -51 58c0 18 4 46 9 67h-4
c-45 -61 -112 -128 -193 -128zM194 66c53 0 109 69 150 122l54 250c-9 22 -24 44 -62 44c-87 0 -189 -167 -189 -347c0 -47 18 -69 47 -69z" />
    <glyph glyph-name="b" unicode="b" horiz-adv-x="572" 
d="M223 -13c-101 0 -154 30 -190 66v7l116 580c8 40 3 48 -23 60l-38 16l5 32l200 18l11 -10s-17 -52 -29 -115l-29 -154c-7 -37 -23 -90 -26 -97h4c49 59 126 138 211 138c69 0 117 -61 117 -149c0 -226 -156 -392 -329 -392zM240 34c99 0 182 148 182 341
c0 50 -17 69 -49 69c-50 0 -122 -71 -163 -120l-51 -252c14 -20 40 -38 81 -38z" />
    <glyph glyph-name="c" unicode="c" horiz-adv-x="475" 
d="M184 -13c-102 0 -161 69 -161 158c0 223 175 383 322 383c92 0 139 -41 139 -87c0 -40 -21 -63 -61 -63c-41 0 -60 21 -65 74c-2 26 -8 30 -30 30c-85 0 -176 -157 -176 -317c0 -72 28 -109 85 -109c55 0 104 38 154 84l26 -28c-43 -55 -118 -125 -233 -125z" />
    <glyph glyph-name="d" unicode="d" horiz-adv-x="595" 
d="M142 -13c-78 0 -124 56 -124 145c0 215 182 396 330 396c37 0 61 -6 75 -14h4s4 35 12 74l11 52c9 40 3 49 -23 60l-40 16l6 32l203 18l12 -10s-17 -51 -30 -115l-103 -507c-3 -12 -6 -22 -6 -36c0 -21 19 -25 55 -2l19 12l19 -26c-53 -48 -112 -92 -174 -92
c-41 0 -49 33 -49 57c0 19 3 47 9 70h-4c-47 -61 -119 -130 -202 -130zM200 65c54 0 116 72 158 125l52 248c-8 22 -28 44 -66 44c-95 0 -197 -173 -197 -341c0 -55 23 -76 53 -76z" />
    <glyph glyph-name="e" unicode="e" horiz-adv-x="481" 
d="M185 -13c-106 0 -162 68 -162 159c0 221 194 383 333 383c80 0 128 -40 128 -105c0 -94 -144 -170 -330 -218c-1 -13 -2 -27 -2 -40c0 -70 30 -111 86 -111c57 0 103 38 155 81l26 -28c-44 -50 -119 -121 -234 -121zM331 484c-58 0 -144 -98 -171 -232
c74 22 123 45 156 74c33 28 52 66 52 108c0 32 -14 50 -37 50z" />
    <glyph glyph-name="f" unicode="f" horiz-adv-x="344" 
d="M-49 -224c-64 0 -100 24 -100 67c0 27 22 49 52 49s47 -13 55 -56c3 -13 6 -18 16 -18c35 0 48 21 74 186l69 449h-68l6 32l73 29l1 6c25 163 134 249 253 249c74 0 112 -28 112 -66c0 -35 -24 -59 -58 -59c-39 0 -54 17 -59 58c-2 22 -7 26 -19 26
c-41 0 -75 -28 -98 -179l-6 -34h119l-17 -62h-112l-53 -324c-41 -250 -125 -353 -240 -353z" />
    <glyph glyph-name="g" unicode="g" horiz-adv-x="523" 
d="M171 -227c-140 0 -229 51 -229 125c0 66 76 107 151 129v4c-34 11 -58 34 -58 75c0 51 50 91 91 113v3c-35 19 -66 59 -66 112c0 123 117 196 227 196c49 0 82 -10 113 -27c39 38 88 69 136 69c36 0 56 -21 56 -48c0 -37 -22 -57 -51 -57s-37 17 -46 30
c-9 15 -44 1 -64 -23v-4c28 -25 39 -53 39 -91c0 -123 -115 -190 -227 -190c-31 0 -58 6 -81 15c-16 -9 -33 -28 -33 -53c0 -21 12 -35 44 -37l116 -6c111 -6 170 -50 170 -131c0 -117 -115 -204 -288 -204zM185 -182c109 0 168 51 168 112c0 40 -16 64 -79 70l-135 13
c-35 -16 -86 -52 -86 -109c0 -53 41 -86 132 -86zM244 232c65 0 110 74 110 177c0 48 -23 77 -68 77c-67 0 -109 -90 -109 -181c0 -46 22 -73 67 -73z" />
    <glyph glyph-name="h" unicode="h" horiz-adv-x="597" 
d="M391 -10c-37 0 -54 28 -54 55s7 53 14 84l47 205c19 82 15 104 -15 104c-46 0 -114 -64 -163 -120l-68 -318h-126l132 640c8 40 2 49 -22 60l-40 16l6 32l200 18l10 -10s-16 -51 -28 -115l-32 -156c-10 -51 -18 -80 -25 -105h5c68 79 145 148 225 148c54 0 84 -39 84 -90
c0 -21 -4 -54 -12 -91l-51 -216c-2 -11 -5 -21 -5 -34c0 -21 12 -28 55 -1l19 12l20 -26c-54 -48 -112 -92 -176 -92z" />
    <glyph glyph-name="i" unicode="i" horiz-adv-x="305" 
d="M96 -10c-37 0 -54 28 -54 55c0 29 5 55 13 87l64 246c3 15 6 28 6 37c0 21 -20 16 -55 -5l-17 -10l-18 25c60 60 123 103 177 103c36 0 49 -24 49 -52c0 -27 -6 -63 -19 -110l-59 -232c-3 -12 -5 -24 -5 -36c0 -22 16 -25 55 -2l22 14l19 -26c-53 -50 -114 -94 -178 -94z
M223 606c-45 0 -79 34 -79 74c0 42 34 75 79 75c44 0 79 -32 79 -74c0 -40 -35 -75 -79 -75z" />
    <glyph glyph-name="j" unicode="j" horiz-adv-x="297" 
d="M-56 -225c-70 0 -104 35 -104 72c0 35 20 54 53 54c38 0 53 -16 61 -64c3 -16 7 -21 15 -21c26 0 51 24 70 128l80 434c3 16 6 28 6 36c0 24 -19 18 -55 -4l-17 -10l-18 25c60 60 123 103 177 103c36 0 49 -24 49 -52c0 -26 -7 -65 -16 -110l-68 -327
c-39 -188 -129 -264 -233 -264zM223 606c-45 0 -79 34 -79 74c0 42 34 75 79 75c44 0 79 -32 79 -74c0 -40 -35 -75 -79 -75z" />
    <glyph glyph-name="k" unicode="k" horiz-adv-x="552" 
d="M371 -10c-29 0 -49 26 -72 81c-21 46 -42 94 -71 182l1 17c113 164 194 258 271 258c35 0 63 -19 63 -63c0 -45 -29 -65 -57 -65c-43 0 -44 40 -60 40c-27 0 -86 -61 -123 -112c36 -100 59 -150 83 -202c26 -54 40 -57 80 -29l18 12l21 -27c-59 -54 -105 -92 -154 -92z
M26 0l131 640c8 40 4 49 -22 60l-39 16l5 32l200 18l11 -10s-15 -51 -29 -115l-131 -641h-126z" />
    <glyph glyph-name="l" unicode="l" horiz-adv-x="306" 
d="M96 -10c-38 0 -54 28 -54 54c0 29 6 55 12 85l101 511c8 40 4 50 -21 60l-42 16l5 32l203 18l11 -10s-16 -51 -29 -115l-100 -510c-2 -11 -4 -22 -4 -34c0 -21 18 -24 59 1l20 12l19 -26c-56 -52 -114 -94 -180 -94z" />
    <glyph glyph-name="m" unicode="m" horiz-adv-x="881" 
d="M674 -10c-37 0 -52 28 -52 55s5 53 12 84l46 205c19 82 15 104 -13 104c-40 0 -98 -63 -144 -114l-72 -324h-128l74 334c19 82 14 104 -16 104c-41 0 -99 -65 -145 -116l-71 -322h-128l82 378c3 13 6 30 6 39c0 20 -15 17 -56 -7l-15 -9l-18 26c59 58 115 101 169 101
c35 0 48 -23 48 -51c0 -23 -10 -72 -16 -95h5c69 75 136 146 212 146c54 0 82 -38 82 -89c0 -12 -1 -34 -4 -50h4c68 78 127 139 204 139c54 0 83 -40 83 -91c0 -19 -5 -56 -13 -90l-49 -214c-2 -11 -5 -23 -5 -35c0 -20 16 -26 56 -2l19 12l20 -26
c-54 -49 -112 -92 -177 -92z" />
    <glyph glyph-name="n" unicode="n" horiz-adv-x="609" 
d="M403 -10c-38 0 -53 28 -53 55s5 53 12 84l48 205c18 82 14 104 -14 104c-46 0 -116 -66 -161 -119l-70 -319h-128l82 378c3 13 6 30 6 39c0 20 -14 17 -56 -7l-15 -9l-18 26c59 58 115 101 169 101c35 0 48 -22 48 -50c0 -23 -10 -75 -15 -99h5c69 80 144 149 226 149
c54 0 83 -39 83 -90c0 -21 -3 -54 -12 -91l-50 -214c-3 -13 -5 -23 -5 -35c0 -21 13 -29 55 -2l19 12l20 -26c-54 -48 -112 -92 -176 -92z" />
    <glyph glyph-name="o" unicode="o" horiz-adv-x="554" 
d="M234 -13c-138 0 -209 94 -209 207c0 213 161 335 295 335c136 0 208 -94 208 -205c0 -217 -160 -337 -294 -337zM234 34c105 0 167 184 167 332c0 75 -29 117 -83 117c-103 0 -166 -181 -166 -330c0 -77 28 -119 82 -119z" />
    <glyph glyph-name="p" unicode="p" horiz-adv-x="596" 
d="M-69 -219l7 34l35 9c29 6 35 14 44 55l101 494c3 17 7 33 7 43c0 22 -16 18 -56 -6l-15 -9l-18 26c59 58 115 101 172 101c33 0 46 -23 46 -50c0 -24 -7 -63 -14 -92h4c52 64 128 142 212 142c74 0 119 -61 119 -156c0 -219 -147 -385 -314 -385c-43 0 -73 6 -95 17
c0 0 -3 -30 -9 -59l-13 -66c-8 -44 -6 -49 20 -55l44 -9l-6 -34h-271zM270 34c102 0 175 161 175 341c0 49 -19 69 -48 69c-52 0 -122 -71 -162 -120l-50 -243c17 -26 43 -47 85 -47z" />
    <glyph glyph-name="q" unicode="q" horiz-adv-x="568" 
d="M193 -219l8 34l43 10c29 7 34 10 44 54l27 126c11 48 23 88 32 114h-4c-46 -61 -121 -132 -202 -132c-77 0 -124 56 -124 145c0 215 182 396 336 396c64 0 96 -15 129 -37h4l58 42l22 -8s-20 -46 -44 -156l-106 -490c-9 -42 -6 -51 20 -56l36 -8l-8 -34h-271zM199 65
c54 0 115 71 156 125l53 248c-9 21 -27 44 -64 44c-96 0 -198 -174 -198 -341c0 -54 22 -76 53 -76z" />
    <glyph glyph-name="r" unicode="r" horiz-adv-x="472" 
d="M37 0l82 378c3 14 6 29 6 38c0 21 -14 19 -56 -6l-15 -9l-18 26c59 58 116 101 169 101c35 0 48 -23 48 -51c0 -26 -16 -101 -22 -128h5c50 84 117 179 190 179c35 0 64 -21 64 -62c0 -44 -30 -69 -63 -69c-41 0 -46 29 -68 29c-27 0 -85 -74 -135 -159l-59 -267h-128z
" />
    <glyph glyph-name="s" unicode="s" horiz-adv-x="427" 
d="M168 -12c-121 0 -173 51 -173 97c0 36 23 55 60 55c38 0 52 -18 67 -71c6 -23 17 -35 58 -35c53 0 92 27 92 69c0 37 -27 69 -95 116c-70 50 -109 92 -109 153c0 98 96 156 197 156c109 0 153 -46 153 -91c0 -30 -19 -51 -54 -51c-42 0 -54 27 -64 64
c-7 24 -21 33 -48 33c-48 0 -83 -22 -83 -63c0 -35 19 -62 99 -115c73 -47 108 -98 108 -153c0 -98 -90 -164 -208 -164z" />
    <glyph glyph-name="t" unicode="t" horiz-adv-x="357" 
d="M106 -11c-47 0 -61 29 -61 66c0 21 4 47 10 74l72 324h-73l6 32l79 29l19 83l104 49h33l-28 -131h114l-15 -62h-113l-66 -307c-5 -19 -9 -36 -9 -51c0 -23 14 -32 91 17l27 17l22 -25c-81 -76 -148 -115 -212 -115z" />
    <glyph glyph-name="u" unicode="u" horiz-adv-x="606" 
d="M138 -14c-55 0 -85 38 -85 91c0 22 4 54 13 91l50 213c3 12 6 25 6 34c0 22 -18 20 -57 -5l-13 -9l-19 26c59 59 115 101 170 101c38 0 53 -28 53 -59c0 -27 -5 -50 -12 -83l-47 -206c-20 -82 -15 -104 15 -104c44 0 110 65 157 118l69 321h128l-83 -381
c-3 -14 -5 -24 -5 -37c0 -21 15 -25 55 0l19 11l19 -26c-52 -48 -120 -96 -175 -96c-36 0 -49 29 -49 55c0 23 10 67 18 94h-4c-71 -79 -141 -149 -223 -149z" />
    <glyph glyph-name="v" unicode="v" horiz-adv-x="499" 
d="M120 0c1 188 -5 301 -14 380c-6 58 -17 62 -63 32l-20 -12l-18 27c54 57 117 101 164 101c35 0 51 -28 58 -104c8 -85 11 -174 8 -309h4c91 99 170 222 170 274c0 41 -29 50 -29 90c0 30 28 51 58 51c41 0 66 -25 66 -68c0 -101 -159 -318 -311 -462h-73z" />
    <glyph glyph-name="w" unicode="w" horiz-adv-x="751" 
d="M122 0c0 187 -7 301 -17 380c-6 57 -18 60 -62 32l-20 -12l-18 27c55 58 114 101 162 101c35 0 48 -28 55 -102c9 -85 17 -169 15 -303h4c53 67 115 153 152 216l-3 56c-4 43 -16 47 -54 23l-18 -11l-20 27c41 43 103 94 148 94c36 0 51 -28 56 -101c5 -81 8 -176 1 -308
h4c90 102 155 215 155 270c0 40 -31 50 -31 90c0 30 28 50 60 50c39 0 65 -24 65 -67c0 -98 -154 -320 -296 -462h-65c2 110 5 198 3 265h-2c-55 -83 -135 -191 -202 -265h-72z" />
    <glyph glyph-name="x" unicode="x" horiz-adv-x="533" 
d="M44 -13c-39 0 -60 22 -60 58c0 38 23 55 53 55c36 0 57 -28 80 0c30 35 57 86 87 161c-12 52 -21 82 -34 124c-17 53 -25 58 -73 27l-19 -12l-19 27c54 58 118 101 163 101c34 0 42 -27 55 -81c10 -41 19 -81 30 -138h3c26 64 61 134 87 166c31 39 60 53 96 53
c33 0 55 -19 55 -54s-22 -57 -52 -57c-40 0 -50 28 -79 -3c-31 -32 -57 -85 -85 -155c14 -56 25 -95 34 -127c19 -63 26 -63 75 -34l23 14l20 -29c-53 -51 -113 -93 -163 -93c-36 0 -48 28 -65 91c-11 44 -19 84 -26 129h-3c-24 -67 -66 -141 -93 -172
c-25 -32 -57 -51 -90 -51z" />
    <glyph glyph-name="y" unicode="y" horiz-adv-x="516" 
d="M-14 -230c-50 0 -77 26 -77 63c0 36 23 56 52 56c50 0 52 -40 88 -40c30 0 75 30 138 101c-23 199 -44 349 -63 424c-18 65 -31 63 -70 37l-19 -12l-20 28c55 57 115 101 158 101c31 0 50 -15 64 -74c24 -111 41 -246 50 -371h5c73 106 138 228 138 298
c0 42 -32 54 -32 98c0 30 23 50 56 50c38 0 67 -24 67 -69c0 -90 -91 -272 -212 -433c-112 -151 -226 -257 -323 -257z" />
    <glyph glyph-name="z" unicode="z" horiz-adv-x="468" 
d="M274 -17c-78 0 -115 89 -183 89c-23 0 -40 -23 -58 -86h-14l-54 40v14c44 29 74 53 119 97l250 251c-87 6 -132 48 -203 48c-12 0 -18 -7 -18 -13c0 -18 45 -21 45 -57c0 -25 -18 -47 -50 -47c-36 0 -53 31 -53 61c0 49 76 149 160 149c80 0 127 -87 169 -87
c19 0 33 24 48 85h15l58 -38v-14c-37 -24 -62 -42 -114 -94l-244 -249c81 -6 132 -37 177 -37c24 0 45 13 83 66l26 -16c-53 -97 -95 -162 -159 -162z" />
    <glyph glyph-name="braceleft" unicode="{" horiz-adv-x="349" 
d="M257 -131c-157 27 -209 50 -209 114c0 66 91 204 91 253c0 29 -23 48 -104 61l8 44c109 4 126 34 126 75c0 43 -17 136 -17 189c0 90 53 123 250 129l-7 -37c-105 -13 -130 -19 -132 -105c-1 -53 2 -105 0 -157c-1 -58 -26 -97 -155 -119v-4c83 -20 116 -48 116 -95
c0 -56 -66 -183 -66 -248c0 -29 26 -44 106 -63z" />
    <glyph glyph-name="bar" unicode="|" horiz-adv-x="261" 
d="M116 -130v864h61v-864h-61z" />
    <glyph glyph-name="braceright" unicode="}" horiz-adv-x="349" 
d="M-35 -131l7 38c105 12 130 20 131 103c1 53 -1 110 0 162c1 59 26 95 156 117v4c-83 20 -117 50 -117 97c0 56 66 180 66 245c0 29 -25 44 -105 63l7 36c156 -26 208 -49 208 -114s-91 -200 -91 -249c0 -29 24 -48 104 -61l-8 -44c-109 -3 -125 -34 -125 -74
c0 -45 16 -140 16 -193c0 -91 -52 -123 -249 -130z" />
    <glyph glyph-name="asciitilde" unicode="~" horiz-adv-x="396" 
d="M59 226l-26 15c35 68 62 113 107 113c47 0 104 -34 141 -34c22 0 41 17 63 48l29 -16c-38 -68 -62 -112 -109 -112c-48 0 -102 33 -142 33c-20 0 -41 -16 -63 -47z" />
    <glyph glyph-name="Adieresis" unicode="&#xc4;" horiz-adv-x="675" 
d="M-43 0l7 36l29 6c29 8 42 17 89 103l305 548h85l91 -555c13 -73 22 -90 47 -96l23 -6l-7 -36h-283l7 36l29 7c35 8 45 22 45 44s-3 38 -7 63l-11 70h-217l-37 -71c-15 -29 -31 -56 -31 -73c0 -18 7 -27 30 -33l30 -7l-7 -36h-217zM354 537l-139 -267h184l-40 267h-5z
M332 749c-40 0 -73 30 -73 70c0 42 36 74 77 74c37 0 72 -30 72 -70s-36 -74 -76 -74zM559 749c-40 0 -73 30 -73 70c0 42 36 74 77 74c38 0 71 -30 71 -70s-35 -74 -75 -74z" />
    <glyph glyph-name="Aring" unicode="&#xc5;" horiz-adv-x="675" 
d="M-43 0l7 36l29 6c29 8 42 17 89 103l305 548h85l91 -555c13 -73 22 -90 47 -96l23 -6l-7 -36h-283l7 36l29 7c35 8 45 22 45 44s-3 38 -7 63l-11 70h-217l-37 -71c-15 -29 -31 -56 -31 -73c0 -18 7 -27 30 -33l30 -7l-7 -36h-217zM354 537l-139 -267h184l-40 267h-5z
M444 737c-64 0 -109 45 -109 103c0 59 48 104 109 104c62 0 109 -44 109 -104c0 -58 -47 -103 -109 -103zM444 779c35 0 58 25 58 61c0 35 -23 62 -58 62s-58 -27 -58 -62c0 -36 23 -61 58 -61z" />
    <glyph glyph-name="Ccedilla" unicode="&#xc7;" horiz-adv-x="630" 
d="M131 -253l4 29c95 19 129 43 129 74c0 19 -13 34 -60 37l-5 14l59 96c-129 28 -213 128 -213 277c0 263 201 431 412 431c76 0 140 -13 182 -32l-18 -194h-40c-12 50 -28 105 -45 137c-18 31 -38 41 -90 41c-170 0 -253 -234 -253 -433c0 -126 48 -188 152 -188
c57 0 83 15 115 52c28 31 59 80 90 133h38l-48 -201c-42 -18 -112 -32 -199 -32c-13 0 -26 1 -39 2l-38 -44c65 -7 89 -43 89 -76c0 -62 -79 -111 -222 -123z" />
    <glyph glyph-name="Eacute" unicode="&#xc9;" horiz-adv-x="629" 
d="M320 746l-11 24l154 114c18 13 32 20 48 20c28 0 46 -25 46 -49s-13 -44 -45 -53zM-18 0l6 36l41 8c28 7 37 12 47 66l85 473c10 53 5 60 -23 67l-39 8l7 35h516l-7 -190h-38c-17 53 -28 81 -39 101c-22 34 -44 40 -123 40c-56 0 -81 -5 -100 -9l-45 -250h32
c65 0 87 3 105 28c13 18 22 39 36 71h39l-44 -252h-38c-2 32 -5 51 -12 72c-9 26 -27 30 -102 30h-25l-33 -186c-15 -83 -7 -98 93 -98c92 0 116 11 148 47c22 25 52 67 86 127h43l-60 -224h-556z" />
    <glyph glyph-name="Ntilde" unicode="&#xd1;" horiz-adv-x="703" 
d="M322 753l-35 16c37 86 69 134 114 134c48 0 119 -43 151 -43c24 0 41 24 67 65l34 -15c-37 -86 -66 -134 -113 -134c-48 0 -118 42 -151 42c-25 0 -41 -23 -67 -65zM495 -3l-267 605h-4l-86 -479c-12 -62 -1 -73 38 -81l31 -6l-6 -36h-219l6 36l33 6c36 8 47 21 59 87
l82 454c9 53 5 60 -24 67l-38 8l7 35h232l202 -462h3l61 340c12 61 5 73 -31 80l-38 7l7 35h216l-7 -35l-31 -7c-34 -8 -45 -20 -58 -90l-103 -564h-65z" />
    <glyph glyph-name="Odieresis" unicode="&#xd6;" horiz-adv-x="720" 
d="M341 749c-40 0 -73 30 -73 70c0 42 36 74 77 74c37 0 72 -30 72 -70s-36 -74 -76 -74zM568 749c-40 0 -73 30 -73 70c0 42 36 74 77 74c38 0 71 -30 71 -70s-35 -74 -75 -74zM325 -13c-154 0 -281 107 -281 283c0 255 194 435 385 435c154 0 277 -106 277 -286
c0 -256 -189 -432 -381 -432zM330 39c145 0 229 219 229 427c0 109 -31 188 -133 188c-149 0 -234 -227 -234 -427c0 -110 31 -188 138 -188z" />
    <glyph glyph-name="Udieresis" unicode="&#xdc;" horiz-adv-x="703" 
d="M346 -13c-178 0 -288 77 -254 265l60 331c9 53 5 60 -23 67l-38 8l7 35h294l-8 -35l-41 -8c-29 -7 -36 -11 -46 -67l-64 -353c-22 -123 17 -181 139 -181c112 0 153 56 173 162l64 360c12 65 2 74 -36 81l-35 6l8 35h220l-8 -35l-33 -7c-29 -6 -45 -17 -57 -82l-68 -371
c-21 -118 -93 -211 -254 -211zM365 749c-40 0 -73 30 -73 70c0 42 36 74 77 74c37 0 72 -30 72 -70s-36 -74 -76 -74zM592 749c-40 0 -73 30 -73 70c0 42 36 74 77 74c38 0 71 -30 71 -70s-35 -74 -75 -74z" />
    <glyph glyph-name="aacute" unicode="&#xe1;" horiz-adv-x="581" 
d="M136 -13c-77 0 -118 57 -118 135c0 224 181 406 326 406c68 0 91 -15 121 -36h4l60 41l22 -8s-20 -44 -44 -156l-47 -235c-3 -13 -5 -23 -5 -35c0 -21 16 -25 54 -3l20 12l19 -26c-53 -48 -112 -92 -173 -92c-43 0 -51 34 -51 58c0 18 4 46 9 67h-4
c-45 -61 -112 -128 -193 -128zM194 66c53 0 109 69 150 122l54 250c-9 22 -24 44 -62 44c-87 0 -189 -167 -189 -347c0 -47 18 -69 47 -69zM284 593l-12 24l155 114c18 13 32 20 47 20c28 0 46 -25 46 -49s-13 -44 -44 -53z" />
    <glyph glyph-name="agrave" unicode="&#xe0;" horiz-adv-x="581" 
d="M136 -13c-77 0 -118 57 -118 135c0 224 181 406 326 406c68 0 91 -15 121 -36h4l60 41l22 -8s-20 -44 -44 -156l-47 -235c-3 -13 -5 -23 -5 -35c0 -21 16 -25 54 -3l20 12l19 -26c-53 -48 -112 -92 -173 -92c-43 0 -51 34 -51 58c0 18 4 46 9 67h-4
c-45 -61 -112 -128 -193 -128zM194 66c53 0 109 69 150 122l54 250c-9 22 -24 44 -62 44c-87 0 -189 -167 -189 -347c0 -47 18 -69 47 -69zM465 591l-195 56c-32 9 -43 31 -43 51c0 25 21 52 49 52c16 0 30 -6 48 -19l154 -113z" />
    <glyph glyph-name="acircumflex" unicode="&#xe2;" horiz-adv-x="581" 
d="M136 -13c-77 0 -118 57 -118 135c0 224 181 406 326 406c68 0 91 -15 121 -36h4l60 41l22 -8s-20 -44 -44 -156l-47 -235c-3 -13 -5 -23 -5 -35c0 -21 16 -25 54 -3l20 12l19 -26c-53 -48 -112 -92 -173 -92c-43 0 -51 34 -51 58c0 18 4 46 9 67h-4
c-45 -61 -112 -128 -193 -128zM194 66c53 0 109 69 150 122l54 250c-9 22 -24 44 -62 44c-87 0 -189 -167 -189 -347c0 -47 18 -69 47 -69zM212 581l-15 24l159 156h53l105 -157l-19 -23l-124 86z" />
    <glyph glyph-name="adieresis" unicode="&#xe4;" horiz-adv-x="581" 
d="M136 -13c-77 0 -118 57 -118 135c0 224 181 406 326 406c68 0 91 -15 121 -36h4l60 41l22 -8s-20 -44 -44 -156l-47 -235c-3 -13 -5 -23 -5 -35c0 -21 16 -25 54 -3l20 12l19 -26c-53 -48 -112 -92 -173 -92c-43 0 -51 34 -51 58c0 18 4 46 9 67h-4
c-45 -61 -112 -128 -193 -128zM194 66c53 0 109 69 150 122l54 250c-9 22 -24 44 -62 44c-87 0 -189 -167 -189 -347c0 -47 18 -69 47 -69zM262 606c-39 0 -72 29 -72 70c0 42 35 74 76 74c38 0 72 -30 72 -70c0 -41 -36 -74 -76 -74zM473 606c-39 0 -72 29 -72 70
c0 42 35 74 76 74c39 0 71 -30 71 -70c0 -41 -35 -74 -75 -74z" />
    <glyph glyph-name="atilde" unicode="&#xe3;" horiz-adv-x="581" 
d="M136 -13c-77 0 -118 57 -118 135c0 224 181 406 326 406c68 0 91 -15 121 -36h4l60 41l22 -8s-20 -44 -44 -156l-47 -235c-3 -13 -5 -23 -5 -35c0 -21 16 -25 54 -3l20 12l19 -26c-53 -48 -112 -92 -173 -92c-43 0 -51 34 -51 58c0 18 4 46 9 67h-4
c-45 -61 -112 -128 -193 -128zM194 66c53 0 109 69 150 122l54 250c-9 22 -24 44 -62 44c-87 0 -189 -167 -189 -347c0 -47 18 -69 47 -69zM223 584l-35 16c38 86 69 133 114 133c49 0 110 -40 141 -40c24 0 41 24 67 65l34 -16c-36 -85 -66 -133 -112 -133
c-48 0 -109 40 -142 40c-24 0 -40 -24 -67 -65z" />
    <glyph glyph-name="aring" unicode="&#xe5;" horiz-adv-x="581" 
d="M136 -13c-77 0 -118 57 -118 135c0 224 181 406 326 406c68 0 91 -15 121 -36h4l60 41l22 -8s-20 -44 -44 -156l-47 -235c-3 -13 -5 -23 -5 -35c0 -21 16 -25 54 -3l20 12l19 -26c-53 -48 -112 -92 -173 -92c-43 0 -51 34 -51 58c0 18 4 46 9 67h-4
c-45 -61 -112 -128 -193 -128zM194 66c53 0 109 69 150 122l54 250c-9 22 -24 44 -62 44c-87 0 -189 -167 -189 -347c0 -47 18 -69 47 -69zM373 590c-64 0 -110 46 -110 103c0 59 49 105 110 105s109 -45 109 -105c0 -57 -48 -103 -109 -103zM373 632c35 0 57 26 57 61
c0 36 -22 62 -57 62s-58 -26 -58 -62c0 -35 22 -61 58 -61z" />
    <glyph glyph-name="ccedilla" unicode="&#xe7;" horiz-adv-x="475" 
d="M-4 -253l4 29c95 19 129 43 129 74c0 19 -13 34 -60 37l-5 14l59 96c-64 21 -100 78 -100 148c0 223 175 383 322 383c92 0 139 -41 139 -87c0 -40 -21 -63 -61 -63c-41 0 -60 21 -65 74c-2 26 -8 30 -30 30c-85 0 -176 -157 -176 -317c0 -72 28 -109 85 -109
c55 0 104 38 154 84l26 -28c-43 -55 -118 -125 -233 -125c-7 0 -13 1 -19 1l-36 -42c65 -7 89 -43 89 -76c0 -62 -79 -111 -222 -123z" />
    <glyph glyph-name="eacute" unicode="&#xe9;" horiz-adv-x="481" 
d="M273 593l-12 24l155 114c18 13 32 20 47 20c28 0 46 -25 46 -49s-13 -44 -44 -53zM185 -13c-106 0 -162 68 -162 159c0 221 194 383 333 383c80 0 128 -40 128 -105c0 -94 -144 -170 -330 -218c-1 -13 -2 -27 -2 -40c0 -70 30 -111 86 -111c57 0 103 38 155 81l26 -28
c-44 -50 -119 -121 -234 -121zM331 484c-58 0 -144 -98 -171 -232c74 22 123 45 156 74c33 28 52 66 52 108c0 32 -14 50 -37 50z" />
    <glyph glyph-name="egrave" unicode="&#xe8;" horiz-adv-x="481" 
d="M185 -13c-106 0 -162 68 -162 159c0 221 194 383 333 383c80 0 128 -40 128 -105c0 -94 -144 -170 -330 -218c-1 -13 -2 -27 -2 -40c0 -70 30 -111 86 -111c57 0 103 38 155 81l26 -28c-44 -50 -119 -121 -234 -121zM331 484c-58 0 -144 -98 -171 -232
c74 22 123 45 156 74c33 28 52 66 52 108c0 32 -14 50 -37 50zM442 591l-195 56c-32 9 -43 31 -43 51c0 25 21 52 49 52c16 0 30 -6 48 -19l154 -113z" />
    <glyph glyph-name="ecircumflex" unicode="&#xea;" horiz-adv-x="481" 
d="M200 581l-15 24l159 156h53l105 -157l-19 -23l-124 86zM185 -13c-106 0 -162 68 -162 159c0 221 194 383 333 383c80 0 128 -40 128 -105c0 -94 -144 -170 -330 -218c-1 -13 -2 -27 -2 -40c0 -70 30 -111 86 -111c57 0 103 38 155 81l26 -28c-44 -50 -119 -121 -234 -121
zM331 484c-58 0 -144 -98 -171 -232c74 22 123 45 156 74c33 28 52 66 52 108c0 32 -14 50 -37 50z" />
    <glyph glyph-name="edieresis" unicode="&#xeb;" horiz-adv-x="481" 
d="M250 606c-39 0 -72 29 -72 70c0 42 35 74 76 74c38 0 72 -30 72 -70c0 -41 -36 -74 -76 -74zM461 606c-39 0 -72 29 -72 70c0 42 35 74 76 74c39 0 71 -30 71 -70c0 -41 -35 -74 -75 -74zM185 -13c-106 0 -162 68 -162 159c0 221 194 383 333 383c80 0 128 -40 128 -105
c0 -94 -144 -170 -330 -218c-1 -13 -2 -27 -2 -40c0 -70 30 -111 86 -111c57 0 103 38 155 81l26 -28c-44 -50 -119 -121 -234 -121zM331 484c-58 0 -144 -98 -171 -232c74 22 123 45 156 74c33 28 52 66 52 108c0 32 -14 50 -37 50z" />
    <glyph glyph-name="iacute" unicode="&#xed;" horiz-adv-x="305" 
d="M140 593l-12 24l155 114c18 13 32 20 47 20c28 0 46 -25 46 -49s-13 -44 -44 -53zM96 -10c-37 0 -54 28 -54 55c0 29 5 55 13 87l64 246c3 15 6 28 6 37c0 21 -20 16 -55 -5l-17 -10l-18 25c60 60 123 103 177 103c36 0 49 -24 49 -52c0 -27 -6 -63 -19 -110l-59 -232
c-3 -12 -5 -24 -5 -36c0 -22 16 -25 55 -2l22 14l19 -26c-53 -50 -114 -94 -178 -94z" />
    <glyph glyph-name="igrave" unicode="&#xec;" horiz-adv-x="305" 
d="M96 -10c-37 0 -54 28 -54 55c0 29 5 55 13 87l64 246c3 15 6 28 6 37c0 21 -20 16 -55 -5l-17 -10l-18 25c60 60 123 103 177 103c36 0 49 -24 49 -52c0 -27 -6 -63 -19 -110l-59 -232c-3 -12 -5 -24 -5 -36c0 -22 16 -25 55 -2l22 14l19 -26c-53 -50 -114 -94 -178 -94z
M309 591l-195 56c-32 9 -43 31 -43 51c0 25 21 52 49 52c16 0 30 -6 48 -19l154 -113z" />
    <glyph glyph-name="icircumflex" unicode="&#xee;" horiz-adv-x="305" 
d="M66 581l-15 24l159 156h53l105 -157l-19 -23l-124 86zM96 -10c-37 0 -54 28 -54 55c0 29 5 55 13 87l64 246c3 15 6 28 6 37c0 21 -20 16 -55 -5l-17 -10l-18 25c60 60 123 103 177 103c36 0 49 -24 49 -52c0 -27 -6 -63 -19 -110l-59 -232c-3 -12 -5 -24 -5 -36
c0 -22 16 -25 55 -2l22 14l19 -26c-53 -50 -114 -94 -178 -94z" />
    <glyph glyph-name="idieresis" unicode="&#xef;" horiz-adv-x="305" 
d="M117 606c-39 0 -72 29 -72 70c0 42 35 74 76 74c38 0 72 -30 72 -70c0 -41 -36 -74 -76 -74zM328 606c-39 0 -72 29 -72 70c0 42 35 74 76 74c39 0 71 -30 71 -70c0 -41 -35 -74 -75 -74zM96 -10c-37 0 -54 28 -54 55c0 29 5 55 13 87l64 246c3 15 6 28 6 37
c0 21 -20 16 -55 -5l-17 -10l-18 25c60 60 123 103 177 103c36 0 49 -24 49 -52c0 -27 -6 -63 -19 -110l-59 -232c-3 -12 -5 -24 -5 -36c0 -22 16 -25 55 -2l22 14l19 -26c-53 -50 -114 -94 -178 -94z" />
    <glyph glyph-name="ntilde" unicode="&#xf1;" horiz-adv-x="609" 
d="M403 -10c-38 0 -53 28 -53 55s5 53 12 84l48 205c18 82 14 104 -14 104c-46 0 -116 -66 -161 -119l-70 -319h-128l82 378c3 13 6 30 6 39c0 20 -14 17 -56 -7l-15 -9l-18 26c59 58 115 101 169 101c35 0 48 -22 48 -50c0 -23 -10 -75 -15 -99h5c69 80 144 149 226 149
c54 0 83 -39 83 -90c0 -21 -3 -54 -12 -91l-50 -214c-3 -13 -5 -23 -5 -35c0 -21 13 -29 55 -2l19 12l20 -26c-54 -48 -112 -92 -176 -92zM232 584l-35 16c38 86 69 133 114 133c49 0 110 -40 141 -40c24 0 41 24 67 65l34 -16c-36 -85 -66 -133 -112 -133
c-48 0 -109 40 -142 40c-24 0 -40 -24 -67 -65z" />
    <glyph glyph-name="oacute" unicode="&#xf3;" horiz-adv-x="554" 
d="M263 593l-12 24l155 114c18 13 32 20 47 20c28 0 46 -25 46 -49s-13 -44 -44 -53zM234 -13c-138 0 -209 94 -209 207c0 213 161 335 295 335c136 0 208 -94 208 -205c0 -217 -160 -337 -294 -337zM234 34c105 0 167 184 167 332c0 75 -29 117 -83 117
c-103 0 -166 -181 -166 -330c0 -77 28 -119 82 -119z" />
    <glyph glyph-name="ograve" unicode="&#xf2;" horiz-adv-x="554" 
d="M234 -13c-138 0 -209 94 -209 207c0 213 161 335 295 335c136 0 208 -94 208 -205c0 -217 -160 -337 -294 -337zM234 34c105 0 167 184 167 332c0 75 -29 117 -83 117c-103 0 -166 -181 -166 -330c0 -77 28 -119 82 -119zM433 591l-195 56c-32 9 -43 31 -43 51
c0 25 21 52 49 52c16 0 30 -6 48 -19l154 -113z" />
    <glyph glyph-name="ocircumflex" unicode="&#xf4;" horiz-adv-x="554" 
d="M190 581l-15 24l159 156h53l105 -157l-19 -23l-124 86zM234 -13c-138 0 -209 94 -209 207c0 213 161 335 295 335c136 0 208 -94 208 -205c0 -217 -160 -337 -294 -337zM234 34c105 0 167 184 167 332c0 75 -29 117 -83 117c-103 0 -166 -181 -166 -330
c0 -77 28 -119 82 -119z" />
    <glyph glyph-name="odieresis" unicode="&#xf6;" horiz-adv-x="554" 
d="M241 606c-39 0 -72 29 -72 70c0 42 35 74 76 74c38 0 72 -30 72 -70c0 -41 -36 -74 -76 -74zM452 606c-39 0 -72 29 -72 70c0 42 35 74 76 74c39 0 71 -30 71 -70c0 -41 -35 -74 -75 -74zM234 -13c-138 0 -209 94 -209 207c0 213 161 335 295 335c136 0 208 -94 208 -205
c0 -217 -160 -337 -294 -337zM234 34c105 0 167 184 167 332c0 75 -29 117 -83 117c-103 0 -166 -181 -166 -330c0 -77 28 -119 82 -119z" />
    <glyph glyph-name="otilde" unicode="&#xf5;" horiz-adv-x="554" 
d="M234 -13c-138 0 -209 94 -209 207c0 213 161 335 295 335c136 0 208 -94 208 -205c0 -217 -160 -337 -294 -337zM234 34c105 0 167 184 167 332c0 75 -29 117 -83 117c-103 0 -166 -181 -166 -330c0 -77 28 -119 82 -119zM201 584l-35 16c38 86 69 133 114 133
c49 0 110 -40 141 -40c24 0 41 24 67 65l34 -16c-36 -85 -66 -133 -112 -133c-48 0 -109 40 -142 40c-24 0 -40 -24 -67 -65z" />
    <glyph glyph-name="uacute" unicode="&#xfa;" horiz-adv-x="606" 
d="M287 593l-12 24l155 114c18 13 32 20 47 20c28 0 46 -25 46 -49s-13 -44 -44 -53zM138 -14c-55 0 -85 38 -85 91c0 22 4 54 13 91l50 213c3 12 6 25 6 34c0 22 -18 20 -57 -5l-13 -9l-19 26c59 59 115 101 170 101c38 0 53 -28 53 -59c0 -27 -5 -50 -12 -83l-47 -206
c-20 -82 -15 -104 15 -104c44 0 110 65 157 118l69 321h128l-83 -381c-3 -14 -5 -24 -5 -37c0 -21 15 -25 55 0l19 11l19 -26c-52 -48 -120 -96 -175 -96c-36 0 -49 29 -49 55c0 23 10 67 18 94h-4c-71 -79 -141 -149 -223 -149z" />
    <glyph glyph-name="ugrave" unicode="&#xf9;" horiz-adv-x="606" 
d="M138 -14c-55 0 -85 38 -85 91c0 22 4 54 13 91l50 213c3 12 6 25 6 34c0 22 -18 20 -57 -5l-13 -9l-19 26c59 59 115 101 170 101c38 0 53 -28 53 -59c0 -27 -5 -50 -12 -83l-47 -206c-20 -82 -15 -104 15 -104c44 0 110 65 157 118l69 321h128l-83 -381
c-3 -14 -5 -24 -5 -37c0 -21 15 -25 55 0l19 11l19 -26c-52 -48 -120 -96 -175 -96c-36 0 -49 29 -49 55c0 23 10 67 18 94h-4c-71 -79 -141 -149 -223 -149zM456 591l-195 56c-32 9 -43 31 -43 51c0 25 21 52 49 52c16 0 30 -6 48 -19l154 -113z" />
    <glyph glyph-name="ucircumflex" unicode="&#xfb;" horiz-adv-x="606" 
d="M214 581l-15 24l159 156h53l105 -157l-19 -23l-124 86zM138 -14c-55 0 -85 38 -85 91c0 22 4 54 13 91l50 213c3 12 6 25 6 34c0 22 -18 20 -57 -5l-13 -9l-19 26c59 59 115 101 170 101c38 0 53 -28 53 -59c0 -27 -5 -50 -12 -83l-47 -206c-20 -82 -15 -104 15 -104
c44 0 110 65 157 118l69 321h128l-83 -381c-3 -14 -5 -24 -5 -37c0 -21 15 -25 55 0l19 11l19 -26c-52 -48 -120 -96 -175 -96c-36 0 -49 29 -49 55c0 23 10 67 18 94h-4c-71 -79 -141 -149 -223 -149z" />
    <glyph glyph-name="udieresis" unicode="&#xfc;" horiz-adv-x="606" 
d="M265 606c-39 0 -72 29 -72 70c0 42 35 74 76 74c38 0 72 -30 72 -70c0 -41 -36 -74 -76 -74zM476 606c-39 0 -72 29 -72 70c0 42 35 74 76 74c39 0 71 -30 71 -70c0 -41 -35 -74 -75 -74zM138 -14c-55 0 -85 38 -85 91c0 22 4 54 13 91l50 213c3 12 6 25 6 34
c0 22 -18 20 -57 -5l-13 -9l-19 26c59 59 115 101 170 101c38 0 53 -28 53 -59c0 -27 -5 -50 -12 -83l-47 -206c-20 -82 -15 -104 15 -104c44 0 110 65 157 118l69 321h128l-83 -381c-3 -14 -5 -24 -5 -37c0 -21 15 -25 55 0l19 11l19 -26c-52 -48 -120 -96 -175 -96
c-36 0 -49 29 -49 55c0 23 10 67 18 94h-4c-71 -79 -141 -149 -223 -149z" />
    <glyph glyph-name="dagger" unicode="&#x2020;" horiz-adv-x="429" 
d="M137 -67l34 437c29 27 55 72 64 108c-55 -2 -85 -23 -116 -23c-34 0 -53 24 -53 51c0 31 23 54 54 54c39 0 63 -36 121 -47c4 58 -20 105 -20 134c0 31 30 54 65 54c30 0 57 -24 57 -54c0 -39 -52 -81 -65 -136c50 2 87 24 119 24s52 -23 52 -50c0 -31 -23 -55 -55 -55
c-38 0 -65 36 -122 46c-4 -39 6 -85 22 -115l-120 -428h-37z" />
    <glyph glyph-name="degree" unicode="&#xb0;" horiz-adv-x="363" 
d="M233 419c-82 0 -141 66 -141 141c0 76 61 144 144 144c81 0 143 -66 143 -139c0 -78 -64 -146 -146 -146zM234 466c52 0 90 45 90 97c0 51 -35 95 -88 95s-90 -44 -90 -95c0 -52 34 -97 88 -97z" />
    <glyph glyph-name="cent" unicode="&#xa2;" horiz-adv-x="499" 
d="M199 -130l21 118c-9 -1 -19 -1 -28 -1c-95 0 -167 63 -167 161c0 201 153 348 291 375l14 80h52l-14 -75c98 -2 146 -42 146 -85c0 -40 -19 -62 -57 -62c-39 0 -57 14 -62 67c-2 23 -10 34 -34 37l-76 -428c47 13 90 46 127 82l27 -27c-33 -40 -86 -91 -164 -113
l-23 -129h-53zM151 173c0 -78 31 -117 80 -122l77 427c-79 -33 -157 -170 -157 -305z" />
    <glyph glyph-name="sterling" unicode="&#xa3;" horiz-adv-x="533" 
d="M54 332l10 52h57c-4 27 -7 55 -7 83c0 136 99 238 264 238c104 0 166 -37 166 -95c0 -48 -23 -67 -64 -67c-46 0 -63 22 -69 74c-4 35 -8 43 -39 43c-55 0 -104 -41 -115 -126c-6 -41 -8 -98 -11 -150h173l-9 -52h-166l-3 -30c-10 -79 -57 -145 -137 -193v-6h259
c39 0 53 7 97 79h32l-46 -182h-463l15 79c91 50 134 106 136 191c0 19 -2 40 -5 62h-75z" />
    <glyph glyph-name="section" unicode="&#xa7;" horiz-adv-x="574" 
d="M186 -205c-114 0 -163 46 -163 98c0 34 23 55 58 55c43 0 59 -18 66 -62c6 -37 11 -48 52 -48c62 0 92 40 92 84c0 54 -31 91 -123 181c-82 81 -132 133 -132 207c0 79 61 138 148 168c-4 14 -6 27 -6 43c0 104 91 180 209 180c99 0 152 -36 152 -91
c0 -30 -18 -52 -54 -52c-39 0 -58 12 -64 59c-3 32 -11 43 -45 43c-60 0 -94 -39 -94 -88s24 -84 118 -176c86 -87 134 -137 134 -210c0 -77 -48 -132 -143 -168c4 -14 6 -30 6 -46c0 -88 -85 -177 -211 -177zM137 362c0 -44 27 -76 117 -167c49 -51 94 -93 119 -138
c35 17 58 44 58 79c0 43 -26 75 -116 168c-50 50 -90 92 -114 136c-33 -13 -64 -39 -64 -78z" />
    <glyph glyph-name="bullet" unicode="&#x2022;" horiz-adv-x="429" 
d="M219 180c-86 0 -155 69 -155 152c0 92 71 164 161 164c85 0 156 -67 156 -155s-77 -161 -162 -161z" />
    <glyph glyph-name="paragraph" unicode="&#xb6;" horiz-adv-x="583" 
d="M198 -100l79 441c-7 -1 -19 -3 -34 -3c-111 0 -170 66 -172 156c0 114 81 199 226 199h336l-7 -35l-41 -8c-29 -6 -37 -14 -47 -69l-123 -681h-61l134 745h-96l-133 -745h-61z" />
    <glyph glyph-name="germandbls" unicode="&#xdf;" horiz-adv-x="623" 
d="M-52 -224c-63 0 -96 26 -96 65c0 31 21 49 51 49c31 0 46 -14 55 -54c3 -13 6 -18 14 -18c32 0 50 21 75 186l70 449h-68l6 32l73 29l1 6c26 173 152 249 282 249c106 0 178 -54 178 -123c0 -119 -189 -185 -189 -240c0 -59 187 -132 187 -251c0 -94 -81 -166 -188 -166
c-105 0 -147 39 -147 84c0 32 19 52 52 52c35 0 48 -13 57 -57c6 -22 15 -34 48 -34c48 0 75 29 75 65c0 94 -168 143 -168 249c0 110 155 170 155 296c0 53 -24 79 -71 79c-56 0 -117 -27 -139 -163l-69 -423c-44 -260 -133 -361 -244 -361z" />
    <glyph glyph-name="registered" unicode="&#xae;" horiz-adv-x="586" 
d="M329 187c-145 0 -255 115 -255 256c0 144 110 258 255 258c146 0 259 -114 259 -258c0 -141 -113 -256 -259 -256zM329 229c122 0 207 97 207 214c0 121 -85 216 -207 216c-123 0 -204 -95 -204 -216c0 -117 81 -214 204 -214zM208 321v26l17 5c8 3 9 4 9 23v147
c0 17 -1 18 -9 23l-16 4v26h121c77 0 107 -24 107 -68c0 -32 -17 -54 -48 -64v-4c16 -32 26 -51 41 -71c8 -10 11 -13 24 -17l12 -4v-26h-79c-24 34 -43 68 -57 102h-29v-48c0 -19 1 -20 12 -23l17 -5v-26h-122zM301 454h22c31 0 46 14 46 49c0 33 -13 40 -44 40
c-2 0 -22 0 -24 -1v-88z" />
    <glyph glyph-name="copyright" unicode="&#xa9;" horiz-adv-x="823" 
d="M421 147c-113 0 -197 63 -197 195c0 147 94 206 208 206c53 0 91 -7 117 -14l6 -115h-31c-13 31 -26 51 -39 69c-15 19 -28 23 -61 23c-64 0 -93 -50 -93 -154c0 -128 36 -173 100 -173c28 0 44 5 61 27c12 16 25 41 38 75h30l-8 -117c-28 -11 -73 -22 -131 -22zM419 -15
c-207 0 -365 161 -365 359s158 357 365 357c205 0 366 -159 366 -357s-161 -359 -366 -359zM419 29c183 0 314 142 314 315s-131 313 -314 313c-185 0 -312 -140 -312 -313s127 -315 312 -315z" />
    <glyph glyph-name="trademark" unicode="&#x2122;" horiz-adv-x="890" 
d="M398 346l7 33l25 5c16 4 24 14 29 49l36 191c4 23 0 27 -13 31l-25 6l6 32h157l42 -219h2l107 219h165l-7 -31l-25 -6c-16 -5 -20 -8 -24 -31l-31 -205c-5 -28 -4 -33 9 -36l25 -5l-5 -33h-177l7 33l25 5c16 4 19 8 24 36l37 230h-3l-148 -295h-42l-52 295h-4l-39 -216
c-6 -37 -4 -46 14 -50l24 -5l-5 -33h-141zM118 347l5 32l34 6c17 4 19 8 24 35l43 239h-5c-35 0 -41 -1 -55 -21c-14 -22 -23 -40 -43 -79h-30l28 134h308l-10 -134h-29c-11 37 -15 58 -25 79c-7 16 -17 21 -45 21h-5l-43 -239c-4 -27 -2 -32 13 -35l31 -6l-5 -32h-191z" />
    <glyph glyph-name="acute" unicode="&#xb4;" horiz-adv-x="527" 
d="M223 593l-12 24l155 114c18 13 32 20 47 20c28 0 46 -25 46 -49s-13 -44 -44 -53z" />
    <glyph glyph-name="dieresis" unicode="&#xa8;" horiz-adv-x="527" 
d="M235 606c-39 0 -72 29 -72 70c0 42 35 74 76 74c38 0 72 -30 72 -70c0 -41 -36 -74 -76 -74zM446 606c-39 0 -72 29 -72 70c0 42 35 74 76 74c39 0 71 -30 71 -70c0 -41 -35 -74 -75 -74z" />
    <glyph glyph-name="notequal" unicode="&#x2260;" horiz-adv-x="521" 
d="M54 389v60h246l73 133h63l-73 -133h126v-60h-159l-59 -108h218v-60h-251l-71 -130h-62l71 130h-122v60h154l59 108h-213z" />
    <glyph glyph-name="AE" unicode="&#xc6;" horiz-adv-x="965" 
d="M-41 0l8 36l20 5c33 8 47 17 118 112l369 494l-15 3l-47 8l7 35h540l-7 -190h-38c-18 53 -28 81 -39 101c-21 34 -45 40 -124 40c-56 0 -76 -5 -95 -9l-44 -250h29c65 0 84 3 102 28c13 18 23 39 37 71h39l-44 -252h-38c-3 32 -5 51 -12 72c-8 26 -25 30 -101 30h-21
l-33 -186c-15 -83 -11 -98 87 -98c92 0 117 11 149 47c23 25 52 67 86 127h42l-59 -224h-548l8 36l40 8c28 7 36 12 46 66l17 98h-223l-40 -54c-28 -39 -44 -64 -44 -83c0 -16 9 -23 32 -29l27 -6l-7 -36h-224zM506 603l-254 -344h195l63 344h-4z" />
    <glyph glyph-name="Oslash" unicode="&#xd8;" horiz-adv-x="720" 
d="M37 -64l93 123c-53 49 -86 121 -86 211c0 255 195 435 386 435c57 0 110 -15 154 -44l52 69h62l-75 -99c51 -49 83 -121 83 -212c0 -256 -189 -432 -382 -432c-57 0 -110 15 -155 42l-70 -93h-62zM187 227c0 -33 1 -61 5 -85l348 461c-19 33 -54 51 -114 51
c-149 0 -239 -227 -239 -427zM330 39c145 0 233 219 233 427c0 29 -1 56 -5 79l-346 -459c21 -31 56 -47 118 -47z" />
    <glyph glyph-name="plusminus" unicode="&#xb1;" horiz-adv-x="481" 
d="M55 0v63h394v-63h-394zM216 162v160h-161v63h161v160h72v-160h161v-63h-161v-160h-72z" />
    <glyph glyph-name="lessequal" unicode="&#x2264;" horiz-adv-x="481" 
d="M441 133l-392 164v73l392 164v-72l-327 -128l327 -130v-71zM49 0v63h392v-63h-392z" />
    <glyph glyph-name="greaterequal" unicode="&#x2265;" horiz-adv-x="481" 
d="M440 297l-392 -165v72l327 130l-327 128v72l392 -164v-73zM440 63v-63h-392v63h392z" />
    <glyph glyph-name="yen" unicode="&#xa5;" horiz-adv-x="597" 
d="M56 300l10 51h162l-74 213c-22 62 -33 81 -56 87l-24 7l8 35h285l-9 -35l-27 -6c-31 -7 -46 -22 -46 -44c0 -15 8 -32 16 -58l54 -175h5l116 177c19 29 30 54 30 69c0 14 -4 23 -31 30l-26 7l8 35h211l-7 -35l-26 -6c-32 -8 -47 -31 -95 -101l-139 -200h162l-10 -51h-175
l-16 -92h174l-9 -51h-175l-8 -47c-10 -52 -6 -59 25 -66l41 -8l-8 -36h-302l7 36l43 8c33 7 40 12 49 66l8 47h-178l10 51h178l17 92h-178z" />
    <glyph glyph-name="ordfeminine" unicode="&#xaa;" horiz-adv-x="531" 
d="M157 237c-65 0 -100 49 -100 121c0 187 151 343 281 343c56 0 83 -13 109 -34h3l55 39l18 -9s-17 -39 -38 -134l-44 -200c-2 -11 -3 -19 -3 -27c0 -15 15 -21 48 0l16 10l19 -26c-43 -39 -100 -81 -155 -81c-39 0 -47 30 -47 50c0 14 3 32 6 47h-3
c-42 -50 -98 -99 -165 -99zM217 310c42 0 85 55 118 95l48 221c-6 14 -21 33 -52 33c-70 0 -155 -139 -155 -291c0 -40 14 -58 41 -58z" />
    <glyph glyph-name="ordmasculine" unicode="&#xba;" horiz-adv-x="513" 
d="M248 240c-120 0 -184 81 -184 178c0 174 136 283 257 283c119 0 182 -83 182 -179c0 -176 -134 -282 -255 -282zM250 282c85 0 135 149 135 290c0 58 -23 87 -68 87c-83 0 -135 -147 -135 -291c0 -56 22 -86 68 -86z" />
    <glyph glyph-name="ae" unicode="&#xe6;" horiz-adv-x="749" 
d="M126 -13c-71 0 -114 44 -114 113c0 100 88 158 305 194l9 55c17 101 1 135 -69 135c-32 0 -43 -6 -46 -34c-5 -52 -25 -71 -65 -71c-35 0 -56 19 -56 51c0 61 82 99 180 99c86 0 143 -27 159 -90c58 58 128 90 189 90c91 0 135 -36 135 -101c0 -89 -159 -171 -328 -196
c-3 -21 -5 -43 -5 -66c0 -70 29 -111 86 -111c56 0 106 36 156 81l26 -28c-45 -52 -120 -121 -234 -121c-81 0 -132 41 -151 103h-3c-39 -50 -96 -103 -174 -103zM600 484c-55 0 -134 -86 -166 -209c73 16 128 37 163 69c25 22 41 50 41 94c0 33 -16 46 -38 46zM295 146
c0 39 5 75 12 104c-140 -29 -175 -58 -175 -132c0 -35 17 -56 49 -56c34 0 78 31 114 73v11z" />
    <glyph glyph-name="oslash" unicode="&#xf8;" horiz-adv-x="554" 
d="M15 -64l73 102c-42 38 -63 95 -63 157c0 214 161 334 295 334c41 0 76 -8 105 -23l50 69h60l-70 -97c42 -39 63 -95 63 -155c0 -217 -160 -336 -294 -336c-42 0 -78 9 -107 23l-53 -74h-59zM234 32c105 0 174 178 174 336c0 10 -1 20 -2 29l-243 -337
c13 -18 35 -28 71 -28zM145 148c0 -11 0 -20 1 -30l242 336c-14 19 -36 29 -70 29c-103 0 -173 -173 -173 -335z" />
    <glyph glyph-name="questiondown" unicode="&#xbf;" horiz-adv-x="453" 
d="M224 -89c-127 0 -219 61 -219 177c0 142 120 203 264 225l17 81h56l-29 -167c-102 -15 -194 -61 -194 -180c0 -63 42 -91 92 -91c26 0 36 8 41 38c8 52 33 68 73 68c39 0 58 -24 58 -58c0 -65 -79 -93 -159 -93zM330 457c-48 0 -85 38 -85 84s37 83 85 83
c47 0 85 -37 85 -83s-38 -84 -85 -84z" />
    <glyph glyph-name="exclamdown" unicode="&#xa1;" horiz-adv-x="284" 
d="M200 455c-48 0 -86 37 -86 83s38 82 86 82c47 0 84 -36 84 -82s-37 -83 -84 -83zM92 -89c-56 0 -98 39 -66 116l128 359h41l-14 -380c0 -71 -38 -95 -89 -95z" />
    <glyph glyph-name="florin" unicode="&#x192;" horiz-adv-x="467" 
d="M60 350l12 52h78l18 78c35 159 132 223 242 223c77 0 117 -34 117 -79c0 -33 -19 -55 -55 -55c-37 0 -56 15 -60 62c-2 26 -7 31 -21 31c-31 0 -59 -25 -78 -106l-35 -154h127l-13 -52h-125l-70 -312c-37 -162 -116 -235 -219 -235c-77 0 -106 34 -106 71
c0 32 18 50 52 50c31 0 47 -11 52 -50c3 -27 7 -33 18 -33c21 0 36 18 49 74l96 435h-79z" />
    <glyph glyph-name="approxequal" unicode="&#x2248;" horiz-adv-x="508" 
d="M437 489l50 -23c-27 -60 -58 -105 -121 -105c-60 0 -153 46 -202 46c-32 0 -54 -33 -66 -65l-50 24c20 55 58 102 119 102c59 0 149 -45 202 -45c33 0 52 31 68 66zM437 329l50 -24c-27 -59 -58 -104 -121 -104c-60 0 -153 45 -202 45c-32 0 -54 -32 -66 -65l-50 24
c20 55 58 103 119 103c59 0 149 -46 202 -46c33 0 52 31 68 67z" />
    <glyph glyph-name="guillemotleft" unicode="&#xab;" horiz-adv-x="476" 
d="M167 45l-129 197l4 29l191 189h46l-128 -211l58 -204h-42zM359 45l-128 197l3 29l192 189h46l-129 -211l59 -204h-43z" />
    <glyph glyph-name="guillemotright" unicode="&#xbb;" horiz-adv-x="476" 
d="M3 45l130 211l-58 204h42l129 -197l-4 -29l-192 -189h-47zM198 45l127 211l-57 204h42l128 -197l-3 -29l-192 -189h-45z" />
    <glyph glyph-name="ellipsis" unicode="&#x2026;" horiz-adv-x="875" 
d="M116 -7c-48 0 -87 38 -87 84c0 47 39 85 87 85c49 0 87 -38 87 -85c0 -46 -38 -84 -87 -84zM407 -7c-48 0 -87 38 -87 84c0 47 39 85 87 85s87 -38 87 -85c0 -46 -39 -84 -87 -84zM698 -7c-48 0 -86 38 -86 84c0 47 38 85 86 85c49 0 87 -38 87 -85
c0 -46 -38 -84 -87 -84z" />
    <glyph glyph-name="uni00A0" unicode="&#xa0;" horiz-adv-x="215" 
 />
    <glyph glyph-name="Agrave" unicode="&#xc0;" horiz-adv-x="675" 
d="M-43 0l7 36l29 6c29 8 42 17 89 103l305 548h85l91 -555c13 -73 22 -90 47 -96l23 -6l-7 -36h-283l7 36l29 7c35 8 45 22 45 44s-3 38 -7 63l-11 70h-217l-37 -71c-15 -29 -31 -56 -31 -73c0 -18 7 -27 30 -33l30 -7l-7 -36h-217zM354 537l-139 -267h184l-40 267h-5z
M538 746l-195 56c-31 9 -43 31 -43 51c0 26 22 52 49 52c16 0 30 -7 47 -19l155 -113z" />
    <glyph glyph-name="Atilde" unicode="&#xc3;" horiz-adv-x="675" 
d="M-43 0l7 36l29 6c29 8 42 17 89 103l305 548h85l91 -555c13 -73 22 -90 47 -96l23 -6l-7 -36h-283l7 36l29 7c35 8 45 22 45 44s-3 38 -7 63l-11 70h-217l-37 -71c-15 -29 -31 -56 -31 -73c0 -18 7 -27 30 -33l30 -7l-7 -36h-217zM354 537l-139 -267h184l-40 267h-5z
M300 753l-35 16c37 86 69 134 114 134c48 0 119 -43 151 -43c24 0 41 24 67 65l34 -15c-37 -86 -66 -134 -113 -134c-48 0 -118 42 -151 42c-25 0 -41 -23 -67 -65z" />
    <glyph glyph-name="Otilde" unicode="&#xd5;" horiz-adv-x="720" 
d="M310 753l-35 16c37 86 69 134 114 134c48 0 119 -43 151 -43c24 0 41 24 67 65l34 -15c-37 -86 -66 -134 -113 -134c-48 0 -118 42 -151 42c-25 0 -41 -23 -67 -65zM325 -13c-154 0 -281 107 -281 283c0 255 194 435 385 435c154 0 277 -106 277 -286
c0 -256 -189 -432 -381 -432zM330 39c145 0 229 219 229 427c0 109 -31 188 -133 188c-149 0 -234 -227 -234 -427c0 -110 31 -188 138 -188z" />
    <glyph glyph-name="OE" unicode="&#x152;" horiz-adv-x="995" 
d="M356 0c-184 0 -312 97 -312 273c0 258 195 420 419 420h525l-7 -190h-38c-18 53 -29 81 -39 101c-22 34 -45 40 -124 40c-55 0 -81 -5 -100 -9l-44 -250h32c65 0 86 3 104 28c13 18 23 39 37 71h39l-44 -252h-38c-3 32 -5 51 -13 72c-8 26 -26 30 -102 30h-24l-33 -186
c-15 -83 -8 -98 93 -98c91 0 116 11 148 47c22 25 52 67 86 127h42l-59 -224h-548zM361 46c55 0 74 18 85 78l76 427c14 74 -2 96 -64 96c-187 0 -266 -204 -266 -419c0 -127 60 -182 169 -182z" />
    <glyph glyph-name="oe" unicode="&#x153;" horiz-adv-x="827" 
d="M229 -13c-135 0 -205 96 -205 208c0 214 160 334 291 334c90 0 147 -53 170 -125c61 78 145 125 216 125c90 0 133 -36 133 -101c0 -90 -144 -174 -330 -220c-1 -14 -2 -28 -2 -42c0 -70 30 -111 86 -111c57 0 103 38 154 81l27 -28c-44 -50 -119 -121 -235 -121
c-66 0 -107 35 -125 88c-53 -58 -120 -88 -180 -88zM230 34c101 0 165 184 165 332c0 75 -33 117 -82 117c-100 0 -163 -181 -163 -330c0 -77 30 -119 80 -119zM681 484c-58 0 -143 -98 -171 -232c74 22 123 45 156 74c32 28 52 66 52 110c0 30 -15 48 -37 48z" />
    <glyph glyph-name="endash" unicode="&#x2013;" horiz-adv-x="429" 
d="M50 260l12 57h328l-11 -57h-329z" />
    <glyph glyph-name="emdash" unicode="&#x2014;" horiz-adv-x="682" 
d="M50 260l12 57h581l-11 -57h-582z" />
    <glyph glyph-name="quotedblleft" unicode="&#x201c;" horiz-adv-x="488" 
d="M170 416c-56 0 -94 42 -94 104c0 85 71 171 213 193l10 -33c-100 -31 -141 -81 -146 -134c8 6 21 10 34 10c26 0 62 -20 62 -68c0 -44 -36 -72 -79 -72zM400 416c-55 0 -93 42 -93 104c0 85 70 171 212 193l11 -33c-100 -31 -142 -81 -147 -134c9 6 21 10 34 10
c26 0 63 -20 63 -68c0 -44 -37 -72 -80 -72z" />
    <glyph glyph-name="quotedblright" unicode="&#x201d;" horiz-adv-x="488" 
d="M64 410l-10 34c101 30 141 79 146 132c-9 -6 -21 -10 -34 -10c-26 0 -62 20 -62 68c0 44 36 72 79 72c55 0 93 -41 93 -103c0 -86 -70 -171 -212 -193zM294 410l-10 34c101 30 141 79 146 132c-8 -6 -21 -10 -34 -10c-26 0 -62 20 -62 68c0 44 36 72 79 72
c56 0 94 -41 94 -103c0 -86 -71 -171 -213 -193z" />
    <glyph glyph-name="quoteleft" unicode="&#x2018;" horiz-adv-x="257" 
d="M170 416c-56 0 -94 42 -94 104c0 85 71 171 213 193l10 -33c-100 -31 -141 -81 -146 -134c8 6 21 10 34 10c26 0 62 -20 62 -68c0 -44 -36 -72 -79 -72z" />
    <glyph glyph-name="quoteright" unicode="&#x2019;" horiz-adv-x="258" 
d="M64 410l-10 34c101 30 141 79 146 132c-9 -6 -21 -10 -34 -10c-26 0 -62 20 -62 68c0 44 36 72 79 72c55 0 93 -41 93 -103c0 -86 -70 -171 -212 -193z" />
    <glyph glyph-name="divide" unicode="&#xf7;" horiz-adv-x="481" 
d="M250 93c-40 0 -73 33 -73 73c0 39 33 71 73 71c41 0 74 -32 74 -71c0 -40 -33 -73 -74 -73zM250 448c-40 0 -73 33 -73 72c0 40 33 72 73 72c41 0 74 -32 74 -72c0 -39 -33 -72 -74 -72zM53 312v62h395v-62h-395z" />
    <glyph glyph-name="ydieresis" unicode="&#xff;" horiz-adv-x="516" 
d="M-14 -230c-50 0 -77 26 -77 63c0 36 23 56 52 56c50 0 52 -40 88 -40c30 0 75 30 138 101c-23 199 -44 349 -63 424c-18 65 -31 63 -70 37l-19 -12l-20 28c55 57 115 101 158 101c31 0 50 -15 64 -74c24 -111 41 -246 50 -371h5c73 106 138 228 138 298
c0 42 -32 54 -32 98c0 30 23 50 56 50c38 0 67 -24 67 -69c0 -90 -91 -272 -212 -433c-112 -151 -226 -257 -323 -257zM223 606c-39 0 -72 29 -72 70c0 42 35 74 76 74c38 0 72 -30 72 -70c0 -41 -36 -74 -76 -74zM434 606c-39 0 -72 29 -72 70c0 42 35 74 76 74
c39 0 71 -30 71 -70c0 -41 -35 -74 -75 -74z" />
    <glyph glyph-name="Ydieresis" unicode="&#x178;" horiz-adv-x="624" 
d="M113 0l7 36l44 8c32 7 39 13 49 66l31 173l-91 281c-20 64 -31 79 -57 87l-22 7l7 35h291l-7 -35l-28 -6c-32 -7 -48 -19 -48 -42c0 -14 4 -33 12 -59l61 -205h5l133 197c25 38 34 57 34 75c0 16 -8 28 -35 34l-23 6l7 35h218l-7 -35l-22 -6c-33 -11 -54 -32 -101 -101
l-182 -265l-32 -176c-9 -52 -6 -59 26 -66l39 -8l-6 -36h-303zM318 749c-40 0 -73 30 -73 70c0 42 36 74 77 74c37 0 72 -30 72 -70s-36 -74 -76 -74zM545 749c-40 0 -73 30 -73 70c0 42 36 74 77 74c38 0 71 -30 71 -70s-35 -74 -75 -74z" />
    <glyph glyph-name="fraction" unicode="&#x2044;" horiz-adv-x="293" 
d="M-158 -50l596 764h65l-594 -764h-67z" />
    <glyph glyph-name="Euro" unicode="&#x20ac;" horiz-adv-x="604" 
d="M45 392l9 52h76c64 164 204 261 339 261c111 0 165 -45 165 -104c0 -43 -22 -69 -63 -69c-44 0 -62 15 -68 76c-4 43 -8 52 -46 52c-86 0 -158 -92 -197 -216h225l-19 -52h-219c-7 -30 -11 -60 -14 -91h204l-18 -52h-188v-5c0 -129 50 -185 156 -185c67 0 115 20 156 42
l-6 -45c-41 -35 -105 -69 -201 -69c-156 0 -240 97 -240 262h-77l10 52h69c3 32 8 62 16 91h-69z" />
    <glyph glyph-name="guilsinglleft" unicode="&#x2039;" horiz-adv-x="284" 
d="M167 45l-129 197l4 29l191 189h47l-129 -211l58 -204h-42z" />
    <glyph glyph-name="guilsinglright" unicode="&#x203a;" horiz-adv-x="284" 
d="M3 45l130 211l-58 204h42l129 -197l-4 -29l-192 -189h-47z" />
    <glyph glyph-name="daggerdbl" unicode="&#x2021;" horiz-adv-x="438" 
d="M162 -105c-33 0 -57 25 -57 54c0 39 50 70 62 124c-50 -2 -86 -22 -117 -22c-34 0 -52 22 -52 50c0 31 21 54 54 54c38 0 65 -37 120 -48c4 34 -6 53 -25 76l59 103h34l25 -110c-27 -17 -46 -37 -55 -71c54 2 87 25 117 25c35 0 52 -23 52 -50c0 -31 -21 -54 -54 -54
c-37 0 -62 34 -120 45c-4 -53 20 -93 20 -121c0 -31 -30 -55 -63 -55zM209 311l-23 110c25 17 45 36 53 70c-53 -1 -86 -25 -117 -25c-34 0 -53 23 -53 51c0 30 23 53 53 53c40 0 64 -33 123 -44c4 53 -21 93 -21 121c0 31 30 54 65 54c31 0 57 -24 57 -54
c0 -39 -52 -70 -65 -124c50 2 87 22 119 22s52 -21 52 -50c0 -30 -23 -53 -55 -53c-38 0 -65 37 -121 47c-3 -34 7 -53 28 -76l-61 -102h-34z" />
    <glyph glyph-name="periodcentered" unicode="&#xb7;" horiz-adv-x="316" 
d="M169 254c-48 0 -87 37 -87 83c0 48 39 86 87 86s87 -38 87 -86c0 -46 -39 -83 -87 -83z" />
    <glyph glyph-name="quotesinglbase" unicode="&#x201a;" horiz-adv-x="257" 
d="M-33 -138l-10 34c101 30 142 80 147 133c-9 -6 -21 -10 -34 -10c-26 0 -63 20 -63 68c0 44 37 72 80 72c55 0 93 -41 93 -103c0 -86 -70 -171 -213 -194z" />
    <glyph glyph-name="quotedblbase" unicode="&#x201e;" horiz-adv-x="488" 
d="M-33 -138l-10 34c101 30 142 80 147 133c-9 -6 -21 -10 -34 -10c-26 0 -63 20 -63 68c0 44 37 72 80 72c55 0 93 -41 93 -103c0 -86 -70 -171 -213 -194zM198 -138l-10 34c101 30 141 80 146 133c-8 -6 -21 -10 -34 -10c-26 0 -62 20 -62 68c0 44 36 72 79 72
c56 0 94 -41 94 -103c0 -86 -71 -171 -213 -194z" />
    <glyph glyph-name="perthousand" unicode="&#x2030;" horiz-adv-x="1197" 
d="M209 385c58 0 100 102 100 201c0 54 -17 79 -51 79c-58 0 -100 -106 -100 -201c0 -54 17 -79 51 -79zM207 346c-81 0 -147 54 -147 145c0 115 98 213 199 213c79 0 148 -53 148 -144c0 -117 -99 -214 -200 -214zM134 -50h-70l620 764h68zM580 26c57 0 99 102 99 201
c0 54 -17 79 -51 79c-57 0 -100 -105 -100 -200c0 -54 17 -80 52 -80zM577 -13c-81 0 -147 55 -147 145c0 114 98 213 199 213c80 0 148 -53 148 -145c0 -116 -98 -213 -200 -213zM969 26c57 0 100 102 100 201c0 54 -17 79 -51 79c-58 0 -101 -105 -101 -200
c0 -54 17 -80 52 -80zM967 -13c-82 0 -148 55 -148 145c0 114 98 213 200 213c79 0 147 -53 147 -145c0 -116 -98 -213 -199 -213z" />
    <glyph glyph-name="Acircumflex" unicode="&#xc2;" horiz-adv-x="675" 
d="M-43 0l7 36l29 6c29 8 42 17 89 103l305 548h85l91 -555c13 -73 22 -90 47 -96l23 -6l-7 -36h-283l7 36l29 7c35 8 45 22 45 44s-3 38 -7 63l-11 70h-217l-37 -71c-15 -29 -31 -56 -31 -73c0 -18 7 -27 30 -33l30 -7l-7 -36h-217zM354 537l-139 -267h184l-40 267h-5z
M289 744l-13 25l153 130h54l114 -131l-16 -24l-136 61z" />
    <glyph glyph-name="Ecircumflex" unicode="&#xca;" horiz-adv-x="629" 
d="M250 744l-13 25l153 130h54l114 -131l-16 -24l-136 61zM-18 0l6 36l41 8c28 7 37 12 47 66l85 473c10 53 5 60 -23 67l-39 8l7 35h516l-7 -190h-38c-17 53 -28 81 -39 101c-22 34 -44 40 -123 40c-56 0 -81 -5 -100 -9l-45 -250h32c65 0 87 3 105 28c13 18 22 39 36 71
h39l-44 -252h-38c-2 32 -5 51 -12 72c-9 26 -27 30 -102 30h-25l-33 -186c-15 -83 -7 -98 93 -98c92 0 116 11 148 47c22 25 52 67 86 127h43l-60 -224h-556z" />
    <glyph glyph-name="Aacute" unicode="&#xc1;" horiz-adv-x="675" 
d="M-43 0l7 36l29 6c29 8 42 17 89 103l305 548h85l91 -555c13 -73 22 -90 47 -96l23 -6l-7 -36h-283l7 36l29 7c35 8 45 22 45 44s-3 38 -7 63l-11 70h-217l-37 -71c-15 -29 -31 -56 -31 -73c0 -18 7 -27 30 -33l30 -7l-7 -36h-217zM354 537l-139 -267h184l-40 267h-5z
M359 746l-11 24l154 114c18 13 32 20 48 20c28 0 46 -25 46 -49s-13 -44 -45 -53z" />
    <glyph glyph-name="Edieresis" unicode="&#xcb;" horiz-adv-x="629" 
d="M-18 0l6 36l41 8c28 7 37 12 47 66l85 473c10 53 5 60 -23 67l-39 8l7 35h516l-7 -190h-38c-17 53 -28 81 -39 101c-22 34 -44 40 -123 40c-56 0 -81 -5 -100 -9l-45 -250h32c65 0 87 3 105 28c13 18 22 39 36 71h39l-44 -252h-38c-2 32 -5 51 -12 72
c-9 26 -27 30 -102 30h-25l-33 -186c-15 -83 -7 -98 93 -98c92 0 116 11 148 47c22 25 52 67 86 127h43l-60 -224h-556zM293 749c-40 0 -73 30 -73 70c0 42 36 74 77 74c37 0 72 -30 72 -70s-36 -74 -76 -74zM520 749c-40 0 -73 30 -73 70c0 42 36 74 77 74
c38 0 71 -30 71 -70s-35 -74 -75 -74z" />
    <glyph glyph-name="Egrave" unicode="&#xc8;" horiz-adv-x="629" 
d="M499 746l-195 56c-31 9 -43 31 -43 51c0 26 22 52 49 52c16 0 30 -7 47 -19l155 -113zM-18 0l6 36l41 8c28 7 37 12 47 66l85 473c10 53 5 60 -23 67l-39 8l7 35h516l-7 -190h-38c-17 53 -28 81 -39 101c-22 34 -44 40 -123 40c-56 0 -81 -5 -100 -9l-45 -250h32
c65 0 87 3 105 28c13 18 22 39 36 71h39l-44 -252h-38c-2 32 -5 51 -12 72c-9 26 -27 30 -102 30h-25l-33 -186c-15 -83 -7 -98 93 -98c92 0 116 11 148 47c22 25 52 67 86 127h43l-60 -224h-556z" />
    <glyph glyph-name="Iacute" unicode="&#xcd;" horiz-adv-x="358" 
d="M-18 0l6 36l45 8c29 6 37 12 47 66l85 473c9 53 5 61 -24 67l-42 8l7 35h303l-7 -35l-45 -8c-27 -5 -36 -12 -47 -67l-84 -473c-10 -52 -7 -59 23 -66l42 -8l-8 -36h-301zM190 746l-11 24l154 114c18 13 32 20 48 20c28 0 46 -25 46 -49s-13 -44 -45 -53z" />
    <glyph glyph-name="Icircumflex" unicode="&#xce;" horiz-adv-x="358" 
d="M-18 0l6 36l45 8c29 6 37 12 47 66l85 473c9 53 5 61 -24 67l-42 8l7 35h303l-7 -35l-45 -8c-27 -5 -36 -12 -47 -67l-84 -473c-10 -52 -7 -59 23 -66l42 -8l-8 -36h-301zM120 744l-13 25l153 130h54l114 -131l-16 -24l-136 61z" />
    <glyph glyph-name="Idieresis" unicode="&#xcf;" horiz-adv-x="358" 
d="M-18 0l6 36l45 8c29 6 37 12 47 66l85 473c9 53 5 61 -24 67l-42 8l7 35h303l-7 -35l-45 -8c-27 -5 -36 -12 -47 -67l-84 -473c-10 -52 -7 -59 23 -66l42 -8l-8 -36h-301zM163 749c-40 0 -73 30 -73 70c0 42 36 74 77 74c37 0 72 -30 72 -70s-36 -74 -76 -74zM390 749
c-40 0 -73 30 -73 70c0 42 36 74 77 74c38 0 71 -30 71 -70s-35 -74 -75 -74z" />
    <glyph glyph-name="Igrave" unicode="&#xcc;" horiz-adv-x="358" 
d="M-18 0l6 36l45 8c29 6 37 12 47 66l85 473c9 53 5 61 -24 67l-42 8l7 35h303l-7 -35l-45 -8c-27 -5 -36 -12 -47 -67l-84 -473c-10 -52 -7 -59 23 -66l42 -8l-8 -36h-301zM369 746l-195 56c-31 9 -43 31 -43 51c0 26 22 52 49 52c16 0 30 -7 47 -19l155 -113z" />
    <glyph glyph-name="Oacute" unicode="&#xd3;" horiz-adv-x="720" 
d="M368 746l-11 24l154 114c18 13 32 20 48 20c28 0 46 -25 46 -49s-13 -44 -45 -53zM325 -13c-154 0 -281 107 -281 283c0 255 194 435 385 435c154 0 277 -106 277 -286c0 -256 -189 -432 -381 -432zM330 39c145 0 229 219 229 427c0 109 -31 188 -133 188
c-149 0 -234 -227 -234 -427c0 -110 31 -188 138 -188z" />
    <glyph glyph-name="Ocircumflex" unicode="&#xd4;" horiz-adv-x="720" 
d="M298 744l-13 25l153 130h54l114 -131l-16 -24l-136 61zM325 -13c-154 0 -281 107 -281 283c0 255 194 435 385 435c154 0 277 -106 277 -286c0 -256 -189 -432 -381 -432zM330 39c145 0 229 219 229 427c0 109 -31 188 -133 188c-149 0 -234 -227 -234 -427
c0 -110 31 -188 138 -188z" />
    <glyph glyph-name="Ograve" unicode="&#xd2;" horiz-adv-x="720" 
d="M547 746l-195 56c-31 9 -43 31 -43 51c0 26 22 52 49 52c16 0 30 -7 47 -19l155 -113zM325 -13c-154 0 -281 107 -281 283c0 255 194 435 385 435c154 0 277 -106 277 -286c0 -256 -189 -432 -381 -432zM330 39c145 0 229 219 229 427c0 109 -31 188 -133 188
c-149 0 -234 -227 -234 -427c0 -110 31 -188 138 -188z" />
    <glyph glyph-name="Uacute" unicode="&#xda;" horiz-adv-x="703" 
d="M392 746l-11 24l154 114c18 13 32 20 48 20c28 0 46 -25 46 -49s-13 -44 -45 -53zM346 -13c-178 0 -288 77 -254 265l60 331c9 53 5 60 -23 67l-38 8l7 35h294l-8 -35l-41 -8c-29 -7 -36 -11 -46 -67l-64 -353c-22 -123 17 -181 139 -181c112 0 153 56 173 162l64 360
c12 65 2 74 -36 81l-35 6l8 35h220l-8 -35l-33 -7c-29 -6 -45 -17 -57 -82l-68 -371c-21 -118 -93 -211 -254 -211z" />
    <glyph glyph-name="Ucircumflex" unicode="&#xdb;" horiz-adv-x="703" 
d="M322 744l-13 25l153 130h54l114 -131l-16 -24l-136 61zM346 -13c-178 0 -288 77 -254 265l60 331c9 53 5 60 -23 67l-38 8l7 35h294l-8 -35l-41 -8c-29 -7 -36 -11 -46 -67l-64 -353c-22 -123 17 -181 139 -181c112 0 153 56 173 162l64 360c12 65 2 74 -36 81l-35 6
l8 35h220l-8 -35l-33 -7c-29 -6 -45 -17 -57 -82l-68 -371c-21 -118 -93 -211 -254 -211z" />
    <glyph glyph-name="Ugrave" unicode="&#xd9;" horiz-adv-x="703" 
d="M571 746l-195 56c-31 9 -43 31 -43 51c0 26 22 52 49 52c16 0 30 -7 47 -19l155 -113zM346 -13c-178 0 -288 77 -254 265l60 331c9 53 5 60 -23 67l-38 8l7 35h294l-8 -35l-41 -8c-29 -7 -36 -11 -46 -67l-64 -353c-22 -123 17 -181 139 -181c112 0 153 56 173 162
l64 360c12 65 2 74 -36 81l-35 6l8 35h220l-8 -35l-33 -7c-29 -6 -45 -17 -57 -82l-68 -371c-21 -118 -93 -211 -254 -211z" />
    <glyph glyph-name="dotlessi" unicode="&#x131;" horiz-adv-x="305" 
d="M96 -10c-37 0 -54 28 -54 55c0 29 5 55 13 87l64 246c3 15 6 28 6 37c0 21 -20 16 -55 -5l-17 -10l-18 25c60 60 123 103 177 103c36 0 49 -24 49 -52c0 -27 -6 -63 -19 -110l-59 -232c-3 -12 -5 -24 -5 -36c0 -22 16 -25 55 -2l22 14l19 -26c-53 -50 -114 -94 -178 -94z
" />
    <glyph glyph-name="circumflex" unicode="&#x2c6;" horiz-adv-x="527" 
d="M178 581l-15 24l159 156h53l105 -157l-19 -23l-124 86z" />
    <glyph glyph-name="tilde" unicode="&#x2dc;" horiz-adv-x="527" 
d="M179 584l-35 16c38 86 69 133 114 133c49 0 110 -40 141 -40c24 0 41 24 67 65l34 -16c-36 -85 -66 -133 -112 -133c-48 0 -109 40 -142 40c-24 0 -40 -24 -67 -65z" />
    <glyph glyph-name="macron" unicode="&#xaf;" horiz-adv-x="513" 
d="M178 623l13 71h284l-13 -71h-284z" />
    <glyph glyph-name="breve" unicode="&#x2d8;" horiz-adv-x="513" 
d="M350 593c-79 0 -125 69 -124 158l34 9c10 -47 30 -83 99 -83c65 0 99 36 122 83l35 -11c-23 -91 -85 -156 -166 -156z" />
    <glyph glyph-name="dotaccent" unicode="&#x2d9;" horiz-adv-x="517" 
d="M314 606c-45 0 -80 34 -80 74c0 42 35 75 80 75c44 0 79 -32 79 -74c0 -40 -35 -75 -79 -75z" />
    <glyph glyph-name="ring" unicode="&#x2da;" horiz-adv-x="513" 
d="M328 590c-64 0 -110 46 -110 103c0 59 49 105 110 105s109 -45 109 -105c0 -57 -48 -103 -109 -103zM328 632c35 0 57 26 57 61c0 36 -22 62 -57 62s-58 -26 -58 -62c0 -35 22 -61 58 -61z" />
    <glyph glyph-name="cedilla" unicode="&#xb8;" horiz-adv-x="527" 
d="M105 -253l4 29c95 19 129 43 129 74c0 19 -13 34 -60 37l-5 14l61 99h51l-47 -54c65 -7 89 -43 89 -76c0 -62 -79 -111 -222 -123z" />
    <glyph glyph-name="hungarumlaut" unicode="&#x2dd;" horiz-adv-x="513" 
d="M184 589l-19 21l85 123c13 23 28 31 44 31c20 0 51 -21 51 -47c0 -17 -8 -34 -35 -50zM364 589l-18 21l86 123c13 22 27 31 43 31c22 0 52 -22 52 -47c0 -17 -7 -32 -32 -48z" />
    <glyph glyph-name="ogonek" unicode="&#x2db;" horiz-adv-x="517" 
d="M216 -233c-60 0 -101 31 -101 81c0 72 77 118 145 152h41c-45 -38 -82 -89 -82 -135c0 -26 20 -45 51 -45c18 0 35 4 47 9l-5 -34c-17 -13 -49 -28 -96 -28z" />
    <glyph glyph-name="caron" unicode="&#x2c7;" horiz-adv-x="520" 
d="M262 592l-106 156l20 23l124 -85l158 85l16 -24l-159 -155h-53z" />
    <glyph glyph-name="space_uni0326" horiz-adv-x="510" 
d="M147 -285l-6 27c87 17 116 52 119 88c-5 -3 -15 -8 -27 -8c-38 0 -58 22 -58 54c0 37 34 62 75 62c48 0 82 -28 82 -78c0 -67 -52 -132 -185 -145z" />
    <glyph glyph-name="caron.alt" horiz-adv-x="510" 
d="M290 569l-24 10l32 141c6 26 18 44 45 45c24 0 54 -17 53 -47c0 -14 -7 -27 -17 -40z" />
    <glyph glyph-name="space_uni0326.alt" horiz-adv-x="510" 
d="M356 823l6 -26c-87 -17 -116 -53 -120 -89c6 4 15 8 28 8c37 0 58 -22 58 -54c0 -36 -34 -62 -75 -62c-48 0 -82 29 -82 79c0 67 52 132 185 144z" />
    <glyph glyph-name="acute.pl" horiz-adv-x="510" 
d="M216 574l-21 19l75 148c12 24 27 40 50 40c28 0 57 -24 57 -52c0 -17 -9 -32 -25 -45z" />
    <glyph glyph-name="grave.uc" horiz-adv-x="511" 
d="M461 746l-195 56c-31 9 -43 31 -43 51c0 26 22 52 49 52c16 0 30 -7 47 -19l155 -113z" />
    <glyph glyph-name="dieresis.uc" horiz-adv-x="513" 
d="M242 749c-40 0 -73 30 -73 70c0 42 36 74 77 74c37 0 72 -30 72 -70s-36 -74 -76 -74zM469 749c-40 0 -73 30 -73 70c0 42 36 74 77 74c38 0 71 -30 71 -70s-35 -74 -75 -74z" />
    <glyph glyph-name="macron.uc" horiz-adv-x="513" 
d="M199 777l13 71h297l-14 -71h-296z" />
    <glyph glyph-name="acute.uc" horiz-adv-x="513" 
d="M246 746l-11 24l154 114c18 13 32 20 48 20c28 0 46 -25 46 -49s-13 -44 -45 -53z" />
    <glyph glyph-name="circumflex.uc" horiz-adv-x="513" 
d="M191 744l-13 25l153 130h54l114 -131l-16 -24l-136 61z" />
    <glyph glyph-name="caron.uc" horiz-adv-x="513" 
d="M505 912l13 -25l-153 -130h-54l-114 132l16 23l136 -61z" />
    <glyph glyph-name="breve.uc" horiz-adv-x="513" 
d="M340 754c-79 0 -136 65 -134 141l34 9c11 -40 39 -66 109 -66c64 0 105 23 127 66l35 -10c-22 -79 -88 -140 -171 -140z" />
    <glyph glyph-name="dotaccent.uc" horiz-adv-x="456" 
d="M328 747c-45 0 -80 34 -80 74c0 42 35 75 80 75c44 0 79 -32 79 -74c0 -40 -35 -75 -79 -75z" />
    <glyph glyph-name="ring.uc" horiz-adv-x="513" 
d="M357 737c-64 0 -109 45 -109 103c0 59 48 104 109 104c62 0 109 -44 109 -104c0 -58 -47 -103 -109 -103zM357 779c35 0 58 25 58 61c0 35 -23 62 -58 62s-58 -27 -58 -62c0 -36 23 -61 58 -61z" />
    <glyph glyph-name="tilde.uc" horiz-adv-x="513" 
d="M206 753l-35 16c37 86 69 134 114 134c48 0 119 -43 151 -43c24 0 41 24 67 65l34 -15c-37 -86 -66 -134 -113 -134c-48 0 -118 42 -151 42c-25 0 -41 -23 -67 -65z" />
    <glyph glyph-name="hungarumlaut.uc" horiz-adv-x="513" 
d="M415 760l-19 21l82 119c13 21 25 29 42 29c22 0 51 -23 51 -48c0 -16 -7 -32 -32 -47zM234 760l-19 21l80 119c14 21 28 29 44 29c20 0 50 -22 50 -47c0 -18 -8 -35 -35 -50z" />
    <glyph glyph-name="acute.ucpl" horiz-adv-x="510" 
d="M324 748l-21 19l61 128c12 25 27 40 50 40c29 0 57 -23 57 -52c0 -17 -8 -33 -26 -45z" />
    <glyph glyph-name="Dcroat" unicode="&#x110;" horiz-adv-x="719" 
d="M46 325l9 49h68l38 209c10 53 4 60 -23 67l-39 8l7 35h297c189 0 302 -102 302 -274c0 -259 -184 -419 -410 -419h-313l6 36l41 8c28 6 37 11 47 66l38 215h-68zM294 48c189 0 263 185 263 414c0 124 -51 183 -165 183c-40 0 -62 -4 -77 -9l-47 -262h160l-9 -49h-159
l-32 -182c-14 -73 -3 -95 66 -95z" />
    <glyph glyph-name="Eng" unicode="&#x14a;" horiz-adv-x="703" 
d="M404 -156c38 0 73 27 96 142l-272 616h-4l-86 -479c-12 -62 -1 -73 38 -81l31 -6l-6 -36h-219l6 36l33 6c36 8 47 21 59 87l82 454c9 53 5 60 -24 67l-38 8l7 35h232l202 -462h3l61 340c12 61 5 73 -31 80l-38 7l7 35h216l-7 -35l-31 -7c-34 -8 -45 -20 -58 -90
l-102 -558c-20 -114 -64 -203 -182 -203c-78 0 -122 37 -122 85c0 32 25 56 64 56c44 0 57 -16 62 -75c2 -17 7 -22 21 -22z" />
    <glyph glyph-name="IJ" unicode="&#x132;" horiz-adv-x="699" 
d="M-18 0l6 36l45 8c29 6 37 12 47 66l85 473c9 53 5 61 -24 67l-42 8l7 35h303l-7 -35l-45 -8c-27 -5 -36 -12 -47 -67l-84 -473c-10 -52 -7 -59 23 -66l42 -8l-8 -36h-301zM325 -178c-77 0 -124 38 -124 85c0 32 25 57 64 57c44 0 57 -17 62 -75c2 -17 7 -22 20 -22
c30 0 47 20 60 92l112 624c10 53 5 60 -23 67l-39 8l7 35h295l-6 -35l-42 -8c-28 -6 -37 -11 -47 -67l-95 -516c-25 -139 -110 -245 -244 -245z" />
    <glyph glyph-name="uni0237" unicode="&#x237;" horiz-adv-x="297" 
d="M-56 -225c-70 0 -104 35 -104 72c0 35 20 54 53 54c38 0 53 -16 61 -64c3 -16 7 -21 15 -21c26 0 51 24 70 128l80 434c3 16 6 28 6 36c0 24 -19 18 -55 -4l-17 -10l-18 25c60 60 123 103 177 103c36 0 49 -24 49 -52c0 -26 -7 -65 -16 -110l-68 -327
c-39 -188 -129 -264 -233 -264z" />
    <glyph glyph-name="dcroat" unicode="&#x111;" horiz-adv-x="612" 
d="M280 595l8 47h162c9 38 2 47 -23 58l-40 16l6 32l203 18l12 -10s-17 -51 -30 -114h82l-8 -47h-84l-93 -461c-3 -12 -6 -22 -6 -36c0 -21 19 -25 55 -2l19 12l19 -26c-53 -48 -112 -92 -174 -92c-41 0 -49 33 -49 57c0 19 3 47 9 70h-4c-47 -61 -119 -130 -202 -130
c-78 0 -124 56 -124 145c0 215 182 396 330 396c37 0 61 -6 75 -14h4s4 35 12 74l1 7h-160zM200 65c54 0 116 72 158 125l52 248c-8 22 -28 44 -66 44c-95 0 -197 -173 -197 -341c0 -55 23 -76 53 -76z" />
    <glyph glyph-name="eng" unicode="&#x14b;" horiz-adv-x="586" 
d="M540 347l-64 -308c-39 -188 -129 -264 -233 -264c-70 0 -104 35 -104 72c0 35 20 54 53 54c38 0 53 -16 61 -64c3 -16 7 -21 15 -21c26 0 50 24 69 128l73 390c16 83 14 104 -14 104c-46 0 -116 -66 -161 -119l-70 -319h-128l82 378c3 13 6 30 6 39c0 20 -14 17 -56 -7
l-15 -9l-18 26c59 58 115 101 169 101c35 0 48 -22 48 -50c0 -23 -10 -75 -15 -99h5c69 80 144 149 226 149c54 0 83 -39 83 -90c0 -21 -4 -54 -12 -91z" />
    <glyph glyph-name="ij" unicode="&#x133;" horiz-adv-x="585" 
d="M96 -10c-37 0 -54 28 -54 55c0 29 5 55 13 87l64 246c3 15 6 28 6 37c0 21 -20 16 -55 -5l-17 -10l-18 25c60 60 123 103 177 103c36 0 49 -24 49 -52c0 -27 -6 -63 -19 -110l-59 -232c-3 -12 -5 -24 -5 -36c0 -22 16 -25 55 -2l22 14l19 -26c-53 -50 -114 -94 -178 -94z
M223 606c-45 0 -79 34 -79 74c0 42 34 75 79 75c44 0 79 -32 79 -74c0 -40 -35 -75 -79 -75zM232 -225c-70 0 -104 35 -104 72c0 35 20 54 53 54c38 0 53 -16 61 -64c3 -16 7 -21 15 -21c26 0 51 24 70 128l80 434c3 16 6 28 6 36c0 24 -19 18 -55 -4l-17 -10l-18 25
c60 60 123 103 177 103c36 0 49 -24 49 -52c0 -26 -7 -65 -16 -110l-68 -327c-39 -188 -129 -264 -233 -264zM511 606c-45 0 -79 34 -79 74c0 42 34 75 79 75c44 0 79 -32 79 -74c0 -40 -35 -75 -79 -75z" />
    <glyph glyph-name="Abreve" unicode="&#x102;" horiz-adv-x="675" 
d="M-43 0l7 36l29 6c29 8 42 17 89 103l305 548h85l91 -555c13 -73 22 -90 47 -96l23 -6l-7 -36h-283l7 36l29 7c35 8 45 22 45 44s-3 38 -7 63l-11 70h-217l-37 -71c-15 -29 -31 -56 -31 -73c0 -18 7 -27 30 -33l30 -7l-7 -36h-217zM354 537l-139 -267h184l-40 267h-5z
M436 754c-79 0 -136 65 -134 141l34 9c11 -40 39 -66 109 -66c64 0 105 23 127 66l35 -10c-22 -79 -88 -140 -171 -140z" />
    <glyph glyph-name="Amacron" unicode="&#x100;" horiz-adv-x="675" 
d="M-43 0l7 36l29 6c29 8 42 17 89 103l305 548h85l91 -555c13 -73 22 -90 47 -96l23 -6l-7 -36h-283l7 36l29 7c35 8 45 22 45 44s-3 38 -7 63l-11 70h-217l-37 -71c-15 -29 -31 -56 -31 -73c0 -18 7 -27 30 -33l30 -7l-7 -36h-217zM354 537l-139 -267h184l-40 267h-5z
M290 777l13 71h297l-14 -71h-296z" />
    <glyph glyph-name="Aogonek" unicode="&#x104;" horiz-adv-x="675" 
d="M378 -233c-61 0 -102 31 -102 81c0 70 72 122 161 167l-31 205h-217l-37 -71c-15 -29 -31 -56 -31 -73c0 -18 7 -27 30 -33l30 -7l-7 -36h-217l7 36l29 6c29 8 42 17 89 103l305 548h85l91 -555c13 -73 22 -90 47 -96l23 -6l-7 -36h-65c-126 0 -181 -75 -181 -135
c0 -26 20 -45 51 -45c18 0 35 4 47 9l-5 -34c-17 -13 -48 -28 -95 -28zM354 537l-139 -267h184l-40 267h-5z" />
    <glyph glyph-name="Aringacute" unicode="&#x1fa;" horiz-adv-x="675" 
d="M-43 0l7 36l29 6c29 8 42 17 89 103l305 548h85l91 -555c13 -73 22 -90 47 -96l23 -6l-7 -36h-283l7 36l29 7c35 8 45 22 45 44s-3 38 -7 63l-11 70h-217l-37 -71c-15 -29 -31 -56 -31 -73c0 -18 7 -27 30 -33l30 -7l-7 -36h-217zM354 537l-139 -267h184l-40 267h-5z
M371 958l-11 24l154 114c18 13 32 20 48 20c28 0 46 -25 46 -49s-13 -44 -45 -53zM444 737c-64 0 -109 45 -109 103c0 59 48 104 109 104c62 0 109 -44 109 -104c0 -58 -47 -103 -109 -103zM444 779c35 0 58 25 58 61c0 35 -23 62 -58 62s-58 -27 -58 -62
c0 -36 23 -61 58 -61z" />
    <glyph glyph-name="AEacute" unicode="&#x1fc;" horiz-adv-x="965" 
d="M639 746l-11 24l154 114c18 13 32 20 48 20c28 0 46 -25 46 -49s-13 -44 -45 -53zM-41 0l8 36l20 5c33 8 47 17 118 112l369 494l-15 3l-47 8l7 35h540l-7 -190h-38c-18 53 -28 81 -39 101c-21 34 -45 40 -124 40c-56 0 -76 -5 -95 -9l-44 -250h29c65 0 84 3 102 28
c13 18 23 39 37 71h39l-44 -252h-38c-3 32 -5 51 -12 72c-8 26 -25 30 -101 30h-21l-33 -186c-15 -83 -11 -98 87 -98c92 0 117 11 149 47c23 25 52 67 86 127h42l-59 -224h-548l8 36l40 8c28 7 36 12 46 66l17 98h-223l-40 -54c-28 -39 -44 -64 -44 -83c0 -16 9 -23 32 -29
l27 -6l-7 -36h-224zM506 603l-254 -344h195l63 344h-4z" />
    <glyph glyph-name="Cacute" unicode="&#x106;" horiz-adv-x="630" 
d="M341 -12c-175 0 -296 107 -296 286c0 263 201 431 412 431c76 0 140 -13 182 -32l-18 -194h-40c-12 50 -28 105 -45 137c-18 31 -38 41 -90 41c-170 0 -253 -234 -253 -433c0 -126 48 -188 152 -188c57 0 83 15 115 52c28 31 59 80 90 133h38l-48 -201
c-42 -18 -112 -32 -199 -32zM367 746l-11 24l154 114c18 13 32 20 48 20c28 0 46 -25 46 -49s-13 -44 -45 -53z" />
    <glyph glyph-name="Ccaron" unicode="&#x10c;" horiz-adv-x="630" 
d="M614 912l13 -25l-153 -130h-54l-114 132l16 23l136 -61zM341 -12c-175 0 -296 107 -296 286c0 263 201 431 412 431c76 0 140 -13 182 -32l-18 -194h-40c-12 50 -28 105 -45 137c-18 31 -38 41 -90 41c-170 0 -253 -234 -253 -433c0 -126 48 -188 152 -188
c57 0 83 15 115 52c28 31 59 80 90 133h38l-48 -201c-42 -18 -112 -32 -199 -32z" />
    <glyph glyph-name="Ccircumflex" unicode="&#x108;" horiz-adv-x="630" 
d="M296 744l-13 25l153 130h54l114 -131l-16 -24l-136 61zM341 -12c-175 0 -296 107 -296 286c0 263 201 431 412 431c76 0 140 -13 182 -32l-18 -194h-40c-12 50 -28 105 -45 137c-18 31 -38 41 -90 41c-170 0 -253 -234 -253 -433c0 -126 48 -188 152 -188
c57 0 83 15 115 52c28 31 59 80 90 133h38l-48 -201c-42 -18 -112 -32 -199 -32z" />
    <glyph glyph-name="Cdotaccent" unicode="&#x10a;" horiz-adv-x="630" 
d="M341 -12c-175 0 -296 107 -296 286c0 263 201 431 412 431c76 0 140 -13 182 -32l-18 -194h-40c-12 50 -28 105 -45 137c-18 31 -38 41 -90 41c-170 0 -253 -234 -253 -433c0 -126 48 -188 152 -188c57 0 83 15 115 52c28 31 59 80 90 133h38l-48 -201
c-42 -18 -112 -32 -199 -32zM451 747c-45 0 -80 34 -80 74c0 42 35 75 80 75c44 0 79 -32 79 -74c0 -40 -35 -75 -79 -75z" />
    <glyph glyph-name="Cacute.pl" horiz-adv-x="630" 
d="M341 -12c-175 0 -296 107 -296 286c0 263 201 431 412 431c76 0 140 -13 182 -32l-18 -194h-40c-12 50 -28 105 -45 137c-18 31 -38 41 -90 41c-170 0 -253 -234 -253 -433c0 -126 48 -188 152 -188c57 0 83 15 115 52c28 31 59 80 90 133h38l-48 -201
c-42 -18 -112 -32 -199 -32zM450 748l-21 19l61 128c12 25 27 40 50 40c29 0 57 -23 57 -52c0 -17 -8 -33 -26 -45z" />
    <glyph glyph-name="Dcaron" unicode="&#x10e;" horiz-adv-x="719" 
d="M569 912l13 -25l-153 -130h-54l-114 132l16 23l136 -61zM-18 0l6 36l41 8c28 6 37 11 47 66l85 473c10 53 4 60 -23 67l-39 8l7 35h297c189 0 302 -102 302 -274c0 -259 -184 -419 -410 -419h-313zM294 48c189 0 263 185 263 414c0 124 -51 183 -165 183
c-40 0 -62 -4 -77 -9l-87 -493c-14 -73 -3 -95 66 -95z" />
    <glyph glyph-name="Ebreve" unicode="&#x114;" horiz-adv-x="629" 
d="M-18 0l6 36l41 8c28 7 37 12 47 66l85 473c10 53 5 60 -23 67l-39 8l7 35h516l-7 -190h-38c-17 53 -28 81 -39 101c-22 34 -44 40 -123 40c-56 0 -81 -5 -100 -9l-45 -250h32c65 0 87 3 105 28c13 18 22 39 36 71h39l-44 -252h-38c-2 32 -5 51 -12 72
c-9 26 -27 30 -102 30h-25l-33 -186c-15 -83 -7 -98 93 -98c92 0 116 11 148 47c22 25 52 67 86 127h43l-60 -224h-556zM400 754c-79 0 -136 65 -134 141l34 9c11 -40 39 -66 109 -66c64 0 105 23 127 66l35 -10c-22 -79 -88 -140 -171 -140z" />
    <glyph glyph-name="Ecaron" unicode="&#x11a;" horiz-adv-x="629" 
d="M567 912l13 -25l-153 -130h-54l-114 132l16 23l136 -61zM-18 0l6 36l41 8c28 7 37 12 47 66l85 473c10 53 5 60 -23 67l-39 8l7 35h516l-7 -190h-38c-17 53 -28 81 -39 101c-22 34 -44 40 -123 40c-56 0 -81 -5 -100 -9l-45 -250h32c65 0 87 3 105 28c13 18 22 39 36 71
h39l-44 -252h-38c-2 32 -5 51 -12 72c-9 26 -27 30 -102 30h-25l-33 -186c-15 -83 -7 -98 93 -98c92 0 116 11 148 47c22 25 52 67 86 127h43l-60 -224h-556z" />
    <glyph glyph-name="Edotaccent" unicode="&#x116;" horiz-adv-x="629" 
d="M404 747c-45 0 -80 34 -80 74c0 42 35 75 80 75c44 0 79 -32 79 -74c0 -40 -35 -75 -79 -75zM-18 0l6 36l41 8c28 7 37 12 47 66l85 473c10 53 5 60 -23 67l-39 8l7 35h516l-7 -190h-38c-17 53 -28 81 -39 101c-22 34 -44 40 -123 40c-56 0 -81 -5 -100 -9l-45 -250h32
c65 0 87 3 105 28c13 18 22 39 36 71h39l-44 -252h-38c-2 32 -5 51 -12 72c-9 26 -27 30 -102 30h-25l-33 -186c-15 -83 -7 -98 93 -98c92 0 116 11 148 47c22 25 52 67 86 127h43l-60 -224h-556z" />
    <glyph glyph-name="Emacron" unicode="&#x112;" horiz-adv-x="629" 
d="M-18 0l6 36l41 8c28 7 37 12 47 66l85 473c10 53 5 60 -23 67l-39 8l7 35h516l-7 -190h-38c-17 53 -28 81 -39 101c-22 34 -44 40 -123 40c-56 0 -81 -5 -100 -9l-45 -250h32c65 0 87 3 105 28c13 18 22 39 36 71h39l-44 -252h-38c-2 32 -5 51 -12 72
c-9 26 -27 30 -102 30h-25l-33 -186c-15 -83 -7 -98 93 -98c92 0 116 11 148 47c22 25 52 67 86 127h43l-60 -224h-556zM251 777l13 71h297l-14 -71h-296z" />
    <glyph glyph-name="Eogonek" unicode="&#x118;" horiz-adv-x="629" 
d="M-18 0l6 36l41 8c28 7 37 12 47 66l85 473c10 53 5 60 -23 67l-39 8l7 35h516l-7 -190h-38c-17 53 -28 81 -39 101c-22 34 -44 40 -123 40c-56 0 -81 -5 -100 -9l-45 -250h32c65 0 87 3 105 28c13 18 22 39 36 71h39l-44 -252h-38c-2 32 -5 51 -12 72
c-9 26 -27 30 -102 30h-25l-33 -186c-15 -83 -7 -98 93 -98c92 0 116 11 148 47c22 25 52 67 86 127h43l-60 -224h-92c-44 -38 -82 -89 -82 -135c0 -26 20 -45 51 -45c18 0 35 4 47 9l-5 -34c-17 -13 -48 -28 -95 -28c-61 0 -102 31 -102 81c0 68 69 116 135 152h-413z" />
    <glyph glyph-name="Gbreve" unicode="&#x11e;" horiz-adv-x="692" 
d="M459 754c-79 0 -136 65 -134 141l34 9c11 -40 39 -66 109 -66c64 0 105 23 127 66l35 -10c-22 -79 -88 -140 -171 -140zM354 -12c-186 0 -310 100 -310 281c0 277 210 436 415 436c88 0 153 -13 194 -29l-18 -197h-38c-17 60 -30 102 -48 132c-22 32 -36 46 -101 46
c-157 0 -256 -215 -256 -445c0 -111 41 -176 159 -176c42 0 68 9 91 23l24 140c9 52 6 60 -28 67l-34 8l7 36h278l-6 -36l-32 -7c-27 -7 -35 -13 -45 -68l-30 -175c-53 -20 -132 -36 -222 -36z" />
    <glyph glyph-name="Gcircumflex" unicode="&#x11c;" horiz-adv-x="692" 
d="M306 744l-13 25l153 130h54l114 -131l-16 -24l-136 61zM354 -12c-186 0 -310 100 -310 281c0 277 210 436 415 436c88 0 153 -13 194 -29l-18 -197h-38c-17 60 -30 102 -48 132c-22 32 -36 46 -101 46c-157 0 -256 -215 -256 -445c0 -111 41 -176 159 -176
c42 0 68 9 91 23l24 140c9 52 6 60 -28 67l-34 8l7 36h278l-6 -36l-32 -7c-27 -7 -35 -13 -45 -68l-30 -175c-53 -20 -132 -36 -222 -36z" />
    <glyph glyph-name="Gcommaaccent" unicode="&#x122;" horiz-adv-x="692" 
d="M187 -285l-6 27c87 17 116 52 119 88c-5 -3 -15 -8 -27 -8c-38 0 -58 22 -58 54c0 37 34 62 75 62c48 0 82 -28 82 -78c0 -67 -52 -132 -185 -145zM354 -12c-186 0 -310 100 -310 281c0 277 210 436 415 436c88 0 153 -13 194 -29l-18 -197h-38c-17 60 -30 102 -48 132
c-22 32 -36 46 -101 46c-157 0 -256 -215 -256 -445c0 -111 41 -176 159 -176c42 0 68 9 91 23l24 140c9 52 6 60 -28 67l-34 8l7 36h278l-6 -36l-32 -7c-27 -7 -35 -13 -45 -68l-30 -175c-53 -20 -132 -36 -222 -36z" />
    <glyph glyph-name="Gdotaccent" unicode="&#x120;" horiz-adv-x="692" 
d="M461 747c-45 0 -80 34 -80 74c0 42 35 75 80 75c44 0 79 -32 79 -74c0 -40 -35 -75 -79 -75zM354 -12c-186 0 -310 100 -310 281c0 277 210 436 415 436c88 0 153 -13 194 -29l-18 -197h-38c-17 60 -30 102 -48 132c-22 32 -36 46 -101 46c-157 0 -256 -215 -256 -445
c0 -111 41 -176 159 -176c42 0 68 9 91 23l24 140c9 52 6 60 -28 67l-34 8l7 36h278l-6 -36l-32 -7c-27 -7 -35 -13 -45 -68l-30 -175c-53 -20 -132 -36 -222 -36z" />
    <glyph glyph-name="Hbar" unicode="&#x126;" horiz-adv-x="769" 
d="M56 490l9 49h104l8 44c10 53 5 60 -23 67l-39 8l7 35h295l-6 -35l-42 -8c-28 -7 -36 -11 -47 -67l-8 -44h263l8 44c9 53 5 60 -25 67l-38 8l8 35h295l-7 -35l-42 -8c-27 -6 -36 -11 -46 -67l-8 -44h77l-8 -49h-78l-69 -380c-9 -52 -5 -59 24 -66l39 -8l-7 -36h-296l7 36
l41 8c29 7 37 12 47 66l40 218h-263l-39 -218c-9 -52 -7 -59 24 -66l38 -8l-6 -36h-295l6 36l41 8c28 7 37 12 47 66l68 380h-104zM285 380h263l20 110h-263z" />
    <glyph glyph-name="Hcircumflex" unicode="&#x124;" horiz-adv-x="758" 
d="M-18 0l6 36l41 8c28 7 37 12 47 66l85 473c10 53 5 60 -23 67l-39 8l7 35h295l-6 -35l-42 -8c-28 -7 -36 -11 -47 -67l-37 -203h263l37 203c9 53 5 60 -25 67l-38 8l8 35h295l-7 -35l-42 -8c-27 -6 -36 -11 -46 -67l-86 -473c-9 -52 -5 -59 24 -66l39 -8l-7 -36h-296
l7 36l41 8c29 7 37 12 47 66l40 218h-263l-39 -218c-9 -52 -7 -59 24 -66l38 -8l-6 -36h-295zM320 744l-13 25l153 130h54l114 -131l-16 -24l-136 61z" />
    <glyph glyph-name="Idotaccent" unicode="&#x130;" horiz-adv-x="358" 
d="M-18 0l6 36l45 8c29 6 37 12 47 66l85 473c9 53 5 61 -24 67l-42 8l7 35h303l-7 -35l-45 -8c-27 -5 -36 -12 -47 -67l-84 -473c-10 -52 -7 -59 23 -66l42 -8l-8 -36h-301zM274 747c-45 0 -80 34 -80 74c0 42 35 75 80 75c44 0 79 -32 79 -74c0 -40 -35 -75 -79 -75z" />
    <glyph glyph-name="Ibreve" unicode="&#x12c;" horiz-adv-x="358" 
d="M-18 0l6 36l45 8c29 6 37 12 47 66l85 473c9 53 5 61 -24 67l-42 8l7 35h303l-7 -35l-45 -8c-27 -5 -36 -12 -47 -67l-84 -473c-10 -52 -7 -59 23 -66l42 -8l-8 -36h-301zM270 754c-79 0 -136 65 -134 141l34 9c11 -40 39 -66 109 -66c64 0 105 23 127 66l35 -10
c-22 -79 -88 -140 -171 -140z" />
    <glyph glyph-name="Imacron" unicode="&#x12a;" horiz-adv-x="358" 
d="M-18 0l6 36l45 8c29 6 37 12 47 66l85 473c9 53 5 61 -24 67l-42 8l7 35h303l-7 -35l-45 -8c-27 -5 -36 -12 -47 -67l-84 -473c-10 -52 -7 -59 23 -66l42 -8l-8 -36h-301zM121 777l13 71h297l-14 -71h-296z" />
    <glyph glyph-name="Iogonek" unicode="&#x12e;" horiz-adv-x="358" 
d="M-18 0l6 36l45 8c29 6 37 12 47 66l85 473c9 53 5 61 -24 67l-42 8l7 35h303l-7 -35l-45 -8c-27 -5 -36 -12 -47 -67l-84 -473c-10 -52 -7 -59 23 -66l42 -8l-8 -36h-83c-42 -37 -78 -89 -78 -135c0 -26 20 -45 51 -45c18 0 35 4 47 9l-5 -34c-17 -13 -48 -28 -95 -28
c-61 0 -102 31 -102 81c0 68 69 118 131 152h-167z" />
    <glyph glyph-name="Itilde" unicode="&#x128;" horiz-adv-x="358" 
d="M-18 0l6 36l45 8c29 6 37 12 47 66l85 473c9 53 5 61 -24 67l-42 8l7 35h303l-7 -35l-45 -8c-27 -5 -36 -12 -47 -67l-84 -473c-10 -52 -7 -59 23 -66l42 -8l-8 -36h-301zM131 753l-35 16c37 86 69 134 114 134c48 0 119 -43 151 -43c24 0 41 24 67 65l34 -15
c-37 -86 -66 -134 -113 -134c-48 0 -118 42 -151 42c-25 0 -41 -23 -67 -65z" />
    <glyph glyph-name="Jcircumflex" unicode="&#x134;" horiz-adv-x="341" 
d="M116 744l-13 25l153 130h54l114 -131l-16 -24l-136 61zM-33 -178c-77 0 -124 38 -124 85c0 32 25 57 64 57c44 0 57 -17 62 -75c2 -17 7 -22 20 -22c30 0 47 20 60 92l112 624c10 53 5 60 -23 67l-39 8l7 35h295l-6 -35l-42 -8c-28 -6 -37 -11 -47 -67l-95 -516
c-25 -139 -110 -245 -244 -245z" />
    <glyph glyph-name="Kcommaaccent" unicode="&#x136;" horiz-adv-x="693" 
d="M195 -285l-6 27c87 17 116 52 119 88c-5 -3 -15 -8 -27 -8c-38 0 -58 22 -58 54c0 37 34 62 75 62c48 0 82 -28 82 -78c0 -67 -52 -132 -185 -145zM447 0c-61 100 -118 235 -157 342l4 16l198 189c45 42 54 53 54 75c0 12 -9 23 -34 29l-25 7l7 35h240l-6 -35l-18 -4
c-38 -10 -67 -32 -122 -82l-177 -166c49 -125 105 -246 155 -336c9 -15 22 -20 43 -25l37 -9l-6 -36h-193zM-18 0l6 36l41 8c28 7 37 12 47 66l85 473c10 53 5 60 -23 67l-39 8l7 35h295l-6 -35l-42 -8c-28 -7 -37 -11 -47 -67l-85 -473c-9 -52 -7 -59 24 -66l38 -8l-6 -36
h-295z" />
    <glyph glyph-name="Lacute" unicode="&#x139;" horiz-adv-x="603" 
d="M181 746l-11 24l154 114c18 13 32 20 48 20c28 0 46 -25 46 -49s-13 -44 -45 -53zM-18 0l6 36l41 8c28 7 37 11 47 66l85 473c10 53 5 60 -23 67l-39 8l7 35h302l-7 -35l-47 -9c-31 -7 -38 -12 -48 -66l-78 -439c-16 -78 -8 -96 81 -96c84 0 107 13 142 52
c25 28 51 67 88 135h40l-55 -235h-542z" />
    <glyph glyph-name="Lcaron" unicode="&#x13d;" horiz-adv-x="615" 
d="M465 495l-24 11l41 162c7 26 19 44 46 45c25 0 54 -17 54 -47c0 -14 -8 -27 -18 -40zM-18 0l6 36l41 8c28 7 37 11 47 66l85 473c10 53 5 60 -23 67l-39 8l7 35h302l-7 -35l-47 -9c-31 -7 -38 -12 -48 -66l-78 -439c-16 -78 -8 -96 81 -96c84 0 107 13 142 52
c25 28 51 67 88 135h40l-55 -235h-542z" />
    <glyph glyph-name="Lcommaaccent" unicode="&#x13b;" horiz-adv-x="603" 
d="M154 -285l-6 27c87 17 116 52 119 88c-5 -3 -15 -8 -27 -8c-38 0 -58 22 -58 54c0 37 34 62 75 62c48 0 82 -28 82 -78c0 -67 -52 -132 -185 -145zM-18 0l6 36l41 8c28 7 37 11 47 66l85 473c10 53 5 60 -23 67l-39 8l7 35h302l-7 -35l-47 -9c-31 -7 -38 -12 -48 -66
l-78 -439c-16 -78 -8 -96 81 -96c84 0 107 13 142 52c25 28 51 67 88 135h40l-55 -235h-542z" />
    <glyph glyph-name="Ldot" unicode="&#x13f;" horiz-adv-x="584" 
d="M-18 0l6 36l41 8c28 7 37 11 47 66l85 473c10 53 5 60 -23 67l-39 8l7 35h302l-7 -35l-47 -9c-31 -7 -38 -12 -48 -66l-78 -439c-16 -78 -8 -96 81 -96c84 0 107 13 142 52c25 28 51 67 88 135h40l-55 -235h-542zM509 320c-42 0 -77 33 -77 74c0 43 35 77 77 77
c43 0 78 -34 78 -77c0 -41 -35 -74 -78 -74z" />
    <glyph glyph-name="Nacute" unicode="&#x143;" horiz-adv-x="703" 
d="M380 746l-11 24l154 114c18 13 32 20 48 20c28 0 46 -25 46 -49s-13 -44 -45 -53zM495 -3l-267 605h-4l-86 -479c-12 -62 -1 -73 38 -81l31 -6l-6 -36h-219l6 36l33 6c36 8 47 21 59 87l82 454c9 53 5 60 -24 67l-38 8l7 35h232l202 -462h3l61 340c12 61 5 73 -31 80
l-38 7l7 35h216l-7 -35l-31 -7c-34 -8 -45 -20 -58 -90l-103 -564h-65z" />
    <glyph glyph-name="Ncaron" unicode="&#x147;" horiz-adv-x="703" 
d="M627 912l13 -25l-153 -130h-54l-114 132l16 23l136 -61zM495 -3l-267 605h-4l-86 -479c-12 -62 -1 -73 38 -81l31 -6l-6 -36h-219l6 36l33 6c36 8 47 21 59 87l82 454c9 53 5 60 -24 67l-38 8l7 35h232l202 -462h3l61 340c12 61 5 73 -31 80l-38 7l7 35h216l-7 -35
l-31 -7c-34 -8 -45 -20 -58 -90l-103 -564h-65z" />
    <glyph glyph-name="Ncommaaccent" unicode="&#x145;" horiz-adv-x="703" 
d="M195 -285l-6 27c87 17 116 52 119 88c-5 -3 -15 -8 -27 -8c-38 0 -58 22 -58 54c0 37 34 62 75 62c48 0 82 -28 82 -78c0 -67 -52 -132 -185 -145zM495 -3l-267 605h-4l-86 -479c-12 -62 -1 -73 38 -81l31 -6l-6 -36h-219l6 36l33 6c36 8 47 21 59 87l82 454
c9 53 5 60 -24 67l-38 8l7 35h232l202 -462h3l61 340c12 61 5 73 -31 80l-38 7l7 35h216l-7 -35l-31 -7c-34 -8 -45 -20 -58 -90l-103 -564h-65z" />
    <glyph glyph-name="Nacute.pl" horiz-adv-x="703" 
d="M464 748l-21 19l61 128c12 25 27 40 50 40c29 0 57 -23 57 -52c0 -17 -8 -33 -26 -45zM495 -3l-267 605h-4l-86 -479c-12 -62 -1 -73 38 -81l31 -6l-6 -36h-219l6 36l33 6c36 8 47 21 59 87l82 454c9 53 5 60 -24 67l-38 8l7 35h232l202 -462h3l61 340c12 61 5 73 -31 80
l-38 7l7 35h216l-7 -35l-31 -7c-34 -8 -45 -20 -58 -90l-103 -564h-65z" />
    <glyph glyph-name="Obreve" unicode="&#x14e;" horiz-adv-x="720" 
d="M449 754c-79 0 -136 65 -134 141l34 9c11 -40 39 -66 109 -66c64 0 105 23 127 66l35 -10c-22 -79 -88 -140 -171 -140zM325 -13c-154 0 -281 107 -281 283c0 255 194 435 385 435c154 0 277 -106 277 -286c0 -256 -189 -432 -381 -432zM330 39c145 0 229 219 229 427
c0 109 -31 188 -133 188c-149 0 -234 -227 -234 -427c0 -110 31 -188 138 -188z" />
    <glyph glyph-name="Ohungarumlaut" unicode="&#x150;" horiz-adv-x="720" 
d="M541 760l-19 21l82 119c13 21 25 29 42 29c22 0 51 -23 51 -48c0 -16 -7 -32 -32 -47zM360 760l-19 21l80 119c14 21 28 29 44 29c20 0 50 -22 50 -47c0 -18 -8 -35 -35 -50zM325 -13c-154 0 -281 107 -281 283c0 255 194 435 385 435c154 0 277 -106 277 -286
c0 -256 -189 -432 -381 -432zM330 39c145 0 229 219 229 427c0 109 -31 188 -133 188c-149 0 -234 -227 -234 -427c0 -110 31 -188 138 -188z" />
    <glyph glyph-name="Omacron" unicode="&#x14c;" horiz-adv-x="720" 
d="M300 777l13 71h297l-14 -71h-296zM325 -13c-154 0 -281 107 -281 283c0 255 194 435 385 435c154 0 277 -106 277 -286c0 -256 -189 -432 -381 -432zM330 39c145 0 229 219 229 427c0 109 -31 188 -133 188c-149 0 -234 -227 -234 -427c0 -110 31 -188 138 -188z" />
    <glyph glyph-name="Oacute.pl" horiz-adv-x="720" 
d="M452 748l-21 19l61 128c12 25 27 40 50 40c29 0 57 -23 57 -52c0 -17 -8 -33 -26 -45zM325 -13c-154 0 -281 107 -281 283c0 255 194 435 385 435c154 0 277 -106 277 -286c0 -256 -189 -432 -381 -432zM330 39c145 0 229 219 229 427c0 109 -31 188 -133 188
c-149 0 -234 -227 -234 -427c0 -110 31 -188 138 -188z" />
    <glyph glyph-name="Oslashacute" unicode="&#x1fe;" horiz-adv-x="720" 
d="M37 -64l93 123c-53 49 -86 121 -86 211c0 255 195 435 386 435c57 0 110 -15 154 -44l52 69h62l-75 -99c51 -49 83 -121 83 -212c0 -256 -189 -432 -382 -432c-57 0 -110 15 -155 42l-70 -93h-62zM187 227c0 -33 1 -61 5 -85l348 461c-19 33 -54 51 -114 51
c-149 0 -239 -227 -239 -427zM330 39c145 0 233 219 233 427c0 29 -1 56 -5 79l-346 -459c21 -31 56 -47 118 -47zM368 746l-11 24l154 114c18 13 32 20 48 20c28 0 46 -25 46 -49s-13 -44 -45 -53z" />
    <glyph glyph-name="Racute" unicode="&#x154;" horiz-adv-x="683" 
d="M310 746l-11 24l154 114c18 13 32 20 48 20c28 0 46 -25 46 -49s-13 -44 -45 -53zM-18 0l6 36l41 8c28 7 37 11 47 66l85 473c10 53 6 60 -23 67l-39 8l7 35h282c170 0 242 -74 242 -171c0 -92 -60 -161 -164 -186v-6c34 -97 73 -190 114 -259c9 -14 17 -22 41 -28l28 -7
l-7 -36h-179c-54 91 -96 205 -127 303h-81l-34 -193c-10 -52 -7 -60 21 -66l41 -8l-7 -36h-294zM320 353c121 0 167 68 167 191c0 77 -30 100 -109 100c-27 0 -48 -3 -63 -7l-50 -280c2 -1 23 -4 55 -4z" />
    <glyph glyph-name="Rcaron" unicode="&#x158;" horiz-adv-x="683" 
d="M557 912l13 -25l-153 -130h-54l-114 132l16 23l136 -61zM-18 0l6 36l41 8c28 7 37 11 47 66l85 473c10 53 6 60 -23 67l-39 8l7 35h282c170 0 242 -74 242 -171c0 -92 -60 -161 -164 -186v-6c34 -97 73 -190 114 -259c9 -14 17 -22 41 -28l28 -7l-7 -36h-179
c-54 91 -96 205 -127 303h-81l-34 -193c-10 -52 -7 -60 21 -66l41 -8l-7 -36h-294zM320 353c121 0 167 68 167 191c0 77 -30 100 -109 100c-27 0 -48 -3 -63 -7l-50 -280c2 -1 23 -4 55 -4z" />
    <glyph glyph-name="Rcommaaccent" unicode="&#x156;" horiz-adv-x="683" 
d="M210 -285l-6 27c87 17 116 52 119 88c-5 -3 -15 -8 -27 -8c-38 0 -58 22 -58 54c0 37 34 62 75 62c48 0 82 -28 82 -78c0 -67 -52 -132 -185 -145zM-18 0l6 36l41 8c28 7 37 11 47 66l85 473c10 53 6 60 -23 67l-39 8l7 35h282c170 0 242 -74 242 -171
c0 -92 -60 -161 -164 -186v-6c34 -97 73 -190 114 -259c9 -14 17 -22 41 -28l28 -7l-7 -36h-179c-54 91 -96 205 -127 303h-81l-34 -193c-10 -52 -7 -60 21 -66l41 -8l-7 -36h-294zM320 353c121 0 167 68 167 191c0 77 -30 100 -109 100c-27 0 -48 -3 -63 -7l-50 -280
c2 -1 23 -4 55 -4z" />
    <glyph glyph-name="Sacute" unicode="&#x15a;" horiz-adv-x="534" 
d="M212 -13c-86 0 -166 24 -206 47l14 176h42c16 -54 28 -82 44 -111c22 -39 49 -60 114 -60c92 0 136 51 136 113c0 55 -29 94 -131 153c-95 56 -136 111 -136 190c0 129 117 210 250 210c91 0 142 -16 172 -31l-13 -160h-38c-15 46 -22 65 -40 94c-16 28 -36 47 -95 47
c-68 0 -123 -39 -123 -107c0 -45 24 -79 115 -132c113 -68 162 -125 162 -209c0 -128 -121 -220 -267 -220zM265 746l-11 24l154 114c18 13 32 20 48 20c28 0 46 -25 46 -49s-13 -44 -45 -53z" />
    <glyph glyph-name="Scedilla" unicode="&#x15e;" horiz-adv-x="534" 
d="M51 -253l4 29c95 19 129 43 129 74c0 19 -13 34 -60 37l-5 14l54 88c-71 5 -133 25 -167 45l14 176h42c16 -54 28 -82 44 -111c22 -39 49 -60 114 -60c92 0 136 51 136 113c0 55 -29 94 -131 153c-95 56 -136 111 -136 190c0 129 117 210 250 210c91 0 142 -16 172 -31
l-13 -160h-38c-15 46 -22 65 -40 94c-16 28 -36 47 -95 47c-68 0 -123 -39 -123 -107c0 -45 24 -79 115 -132c113 -68 162 -125 162 -209c0 -126 -117 -217 -260 -220l-35 -41c65 -7 89 -43 89 -76c0 -62 -79 -111 -222 -123z" />
    <glyph glyph-name="Scircumflex" unicode="&#x15c;" horiz-adv-x="534" 
d="M195 744l-13 25l153 130h54l114 -131l-16 -24l-136 61zM212 -13c-86 0 -166 24 -206 47l14 176h42c16 -54 28 -82 44 -111c22 -39 49 -60 114 -60c92 0 136 51 136 113c0 55 -29 94 -131 153c-95 56 -136 111 -136 190c0 129 117 210 250 210c91 0 142 -16 172 -31
l-13 -160h-38c-15 46 -22 65 -40 94c-16 28 -36 47 -95 47c-68 0 -123 -39 -123 -107c0 -45 24 -79 115 -132c113 -68 162 -125 162 -209c0 -128 -121 -220 -267 -220z" />
    <glyph glyph-name="Scommaaccent" unicode="&#x218;" horiz-adv-x="534" 
d="M83 -285l-6 27c87 17 116 52 119 88c-5 -3 -15 -8 -27 -8c-38 0 -58 22 -58 54c0 37 34 62 75 62c48 0 82 -28 82 -78c0 -67 -52 -132 -185 -145zM212 -13c-86 0 -166 24 -206 47l14 176h42c16 -54 28 -82 44 -111c22 -39 49 -60 114 -60c92 0 136 51 136 113
c0 55 -29 94 -131 153c-95 56 -136 111 -136 190c0 129 117 210 250 210c91 0 142 -16 172 -31l-13 -160h-38c-15 46 -22 65 -40 94c-16 28 -36 47 -95 47c-68 0 -123 -39 -123 -107c0 -45 24 -79 115 -132c113 -68 162 -125 162 -209c0 -128 -121 -220 -267 -220z" />
    <glyph glyph-name="Sacute.pl" horiz-adv-x="534" 
d="M212 -13c-86 0 -166 24 -206 47l14 176h42c16 -54 28 -82 44 -111c22 -39 49 -60 114 -60c92 0 136 51 136 113c0 55 -29 94 -131 153c-95 56 -136 111 -136 190c0 129 117 210 250 210c91 0 142 -16 172 -31l-13 -160h-38c-15 46 -22 65 -40 94c-16 28 -36 47 -95 47
c-68 0 -123 -39 -123 -107c0 -45 24 -79 115 -132c113 -68 162 -125 162 -209c0 -128 -121 -220 -267 -220zM348 748l-21 19l61 128c12 25 27 40 50 40c29 0 57 -23 57 -52c0 -17 -8 -33 -26 -45z" />
    <glyph glyph-name="Tcaron" unicode="&#x164;" horiz-adv-x="629" 
d="M569 912l13 -25l-153 -130h-54l-114 132l16 23l136 -61zM116 0l7 36l44 8c32 7 39 11 49 66l96 535h-14c-73 0 -86 -4 -114 -40c-29 -35 -52 -81 -85 -144h-41l52 232h562l-27 -232h-39c-12 62 -21 108 -35 146c-12 31 -22 38 -102 38h-12l-96 -535c-9 -53 -7 -60 24 -66
l42 -8l-7 -36h-304z" />
    <glyph glyph-name="Tcommaaccent" unicode="&#x162;" horiz-adv-x="629" 
d="M140 -285l-6 27c87 17 116 52 119 88c-5 -3 -15 -8 -27 -8c-38 0 -58 22 -58 54c0 37 34 62 75 62c48 0 82 -28 82 -78c0 -67 -52 -132 -185 -145zM116 0l7 36l44 8c32 7 39 11 49 66l96 535h-14c-73 0 -86 -4 -114 -40c-29 -35 -52 -81 -85 -144h-41l52 232h562
l-27 -232h-39c-12 62 -21 108 -35 146c-12 31 -22 38 -102 38h-12l-96 -535c-9 -53 -7 -60 24 -66l42 -8l-7 -36h-304z" />
    <glyph glyph-name="Tbar" unicode="&#x166;" horiz-adv-x="629" 
d="M113 354l9 48h146l44 243h-14c-73 0 -86 -4 -114 -40c-29 -35 -52 -81 -85 -144h-41l52 232h562l-27 -232h-39c-12 62 -21 108 -35 146c-12 31 -22 38 -102 38h-12l-44 -243h152l-9 -48h-151l-44 -244c-9 -53 -7 -60 24 -66l42 -8l-7 -36h-304l7 36l44 8
c32 7 39 11 49 66l44 244h-147z" />
    <glyph glyph-name="Ubreve" unicode="&#x16c;" horiz-adv-x="703" 
d="M346 -13c-178 0 -288 77 -254 265l60 331c9 53 5 60 -23 67l-38 8l7 35h294l-8 -35l-41 -8c-29 -7 -36 -11 -46 -67l-64 -353c-22 -123 17 -181 139 -181c112 0 153 56 173 162l64 360c12 65 2 74 -36 81l-35 6l8 35h220l-8 -35l-33 -7c-29 -6 -45 -17 -57 -82l-68 -371
c-21 -118 -93 -211 -254 -211zM472 754c-79 0 -136 65 -134 141l34 9c11 -40 39 -66 109 -66c64 0 105 23 127 66l35 -10c-22 -79 -88 -140 -171 -140z" />
    <glyph glyph-name="Uhungarumlaut" unicode="&#x170;" horiz-adv-x="703" 
d="M565 760l-19 21l82 119c13 21 25 29 42 29c22 0 51 -23 51 -48c0 -16 -7 -32 -32 -47zM384 760l-19 21l80 119c14 21 28 29 44 29c20 0 50 -22 50 -47c0 -18 -8 -35 -35 -50zM346 -13c-178 0 -288 77 -254 265l60 331c9 53 5 60 -23 67l-38 8l7 35h294l-8 -35l-41 -8
c-29 -7 -36 -11 -46 -67l-64 -353c-22 -123 17 -181 139 -181c112 0 153 56 173 162l64 360c12 65 2 74 -36 81l-35 6l8 35h220l-8 -35l-33 -7c-29 -6 -45 -17 -57 -82l-68 -371c-21 -118 -93 -211 -254 -211z" />
    <glyph glyph-name="Umacron" unicode="&#x16a;" horiz-adv-x="703" 
d="M346 -13c-178 0 -288 77 -254 265l60 331c9 53 5 60 -23 67l-38 8l7 35h294l-8 -35l-41 -8c-29 -7 -36 -11 -46 -67l-64 -353c-22 -123 17 -181 139 -181c112 0 153 56 173 162l64 360c12 65 2 74 -36 81l-35 6l8 35h220l-8 -35l-33 -7c-29 -6 -45 -17 -57 -82l-68 -371
c-21 -118 -93 -211 -254 -211zM324 777l13 71h297l-14 -71h-296z" />
    <glyph glyph-name="Uogonek" unicode="&#x172;" horiz-adv-x="703" 
d="M346 -13c-178 0 -288 77 -254 265l60 331c9 53 5 60 -23 67l-38 8l7 35h294l-8 -35l-41 -8c-29 -7 -36 -11 -46 -67l-64 -353c-22 -123 17 -181 139 -181c112 0 153 56 173 162l64 360c12 65 2 74 -36 81l-35 6l8 35h220l-8 -35l-33 -7c-29 -6 -45 -17 -57 -82l-68 -371
c-15 -81 -53 -149 -126 -184c-75 -37 -140 -67 -140 -149c0 -26 20 -45 51 -45c18 0 35 4 47 9l-5 -34c-17 -13 -49 -28 -96 -28c-60 0 -101 31 -101 81c0 64 62 108 125 139h-9z" />
    <glyph glyph-name="Uring" unicode="&#x16e;" horiz-adv-x="703" 
d="M346 -13c-178 0 -288 77 -254 265l60 331c9 53 5 60 -23 67l-38 8l7 35h294l-8 -35l-41 -8c-29 -7 -36 -11 -46 -67l-64 -353c-22 -123 17 -181 139 -181c112 0 153 56 173 162l64 360c12 65 2 74 -36 81l-35 6l8 35h220l-8 -35l-33 -7c-29 -6 -45 -17 -57 -82l-68 -371
c-21 -118 -93 -211 -254 -211zM476 714c-64 0 -109 45 -109 103c0 59 48 104 109 104c62 0 109 -44 109 -104c0 -58 -47 -103 -109 -103zM476 756c35 0 58 25 58 61c0 35 -23 62 -58 62s-58 -27 -58 -62c0 -36 23 -61 58 -61z" />
    <glyph glyph-name="Utilde" unicode="&#x168;" horiz-adv-x="703" 
d="M346 -13c-178 0 -288 77 -254 265l60 331c9 53 5 60 -23 67l-38 8l7 35h294l-8 -35l-41 -8c-29 -7 -36 -11 -46 -67l-64 -353c-22 -123 17 -181 139 -181c112 0 153 56 173 162l64 360c12 65 2 74 -36 81l-35 6l8 35h220l-8 -35l-33 -7c-29 -6 -45 -17 -57 -82l-68 -371
c-21 -118 -93 -211 -254 -211zM334 753l-35 16c37 86 69 134 114 134c48 0 119 -43 151 -43c24 0 41 24 67 65l34 -15c-37 -86 -66 -134 -113 -134c-48 0 -118 42 -151 42c-25 0 -41 -23 -67 -65z" />
    <glyph glyph-name="Wacute" unicode="&#x1e82;" horiz-adv-x="969" 
d="M513 746l-11 24l154 114c18 13 32 20 48 20c28 0 46 -25 46 -49s-13 -44 -45 -53zM218 0l-71 573c-9 70 -19 71 -46 78l-25 7l7 35h280l-7 -35l-27 -6c-31 -7 -42 -22 -42 -52c0 -17 4 -36 6 -57l40 -376h5l174 342l-8 71c-6 51 -16 63 -42 71l-24 7l7 35h278l-6 -35
l-33 -7c-32 -7 -43 -27 -43 -55c0 -16 1 -35 3 -55l39 -374h6l181 389c14 29 19 44 19 64c0 18 -10 28 -34 33l-23 5l7 35h210l-7 -35l-24 -6c-33 -8 -43 -20 -83 -100l-272 -552h-91l-45 419h-3l-215 -419h-91z" />
    <glyph glyph-name="Wcircumflex" unicode="&#x174;" horiz-adv-x="969" 
d="M442 744l-13 25l153 130h54l114 -131l-16 -24l-136 61zM218 0l-71 573c-9 70 -19 71 -46 78l-25 7l7 35h280l-7 -35l-27 -6c-31 -7 -42 -22 -42 -52c0 -17 4 -36 6 -57l40 -376h5l174 342l-8 71c-6 51 -16 63 -42 71l-24 7l7 35h278l-6 -35l-33 -7
c-32 -7 -43 -27 -43 -55c0 -16 1 -35 3 -55l39 -374h6l181 389c14 29 19 44 19 64c0 18 -10 28 -34 33l-23 5l7 35h210l-7 -35l-24 -6c-33 -8 -43 -20 -83 -100l-272 -552h-91l-45 419h-3l-215 -419h-91z" />
    <glyph glyph-name="Wdieresis" unicode="&#x1e84;" horiz-adv-x="969" 
d="M485 749c-40 0 -73 30 -73 70c0 42 36 74 77 74c37 0 72 -30 72 -70s-36 -74 -76 -74zM712 749c-40 0 -73 30 -73 70c0 42 36 74 77 74c38 0 71 -30 71 -70s-35 -74 -75 -74zM218 0l-71 573c-9 70 -19 71 -46 78l-25 7l7 35h280l-7 -35l-27 -6c-31 -7 -42 -22 -42 -52
c0 -17 4 -36 6 -57l40 -376h5l174 342l-8 71c-6 51 -16 63 -42 71l-24 7l7 35h278l-6 -35l-33 -7c-32 -7 -43 -27 -43 -55c0 -16 1 -35 3 -55l39 -374h6l181 389c14 29 19 44 19 64c0 18 -10 28 -34 33l-23 5l7 35h210l-7 -35l-24 -6c-33 -8 -43 -20 -83 -100l-272 -552h-91
l-45 419h-3l-215 -419h-91z" />
    <glyph glyph-name="Wgrave" unicode="&#x1e80;" horiz-adv-x="969" 
d="M691 746l-195 56c-31 9 -43 31 -43 51c0 26 22 52 49 52c16 0 30 -7 47 -19l155 -113zM218 0l-71 573c-9 70 -19 71 -46 78l-25 7l7 35h280l-7 -35l-27 -6c-31 -7 -42 -22 -42 -52c0 -17 4 -36 6 -57l40 -376h5l174 342l-8 71c-6 51 -16 63 -42 71l-24 7l7 35h278l-6 -35
l-33 -7c-32 -7 -43 -27 -43 -55c0 -16 1 -35 3 -55l39 -374h6l181 389c14 29 19 44 19 64c0 18 -10 28 -34 33l-23 5l7 35h210l-7 -35l-24 -6c-33 -8 -43 -20 -83 -100l-272 -552h-91l-45 419h-3l-215 -419h-91z" />
    <glyph glyph-name="Ycircumflex" unicode="&#x176;" horiz-adv-x="624" 
d="M113 0l7 36l44 8c32 7 39 13 49 66l31 173l-91 281c-20 64 -31 79 -57 87l-22 7l7 35h291l-7 -35l-28 -6c-32 -7 -48 -19 -48 -42c0 -14 4 -33 12 -59l61 -205h5l133 197c25 38 34 57 34 75c0 16 -8 28 -35 34l-23 6l7 35h218l-7 -35l-22 -6c-33 -11 -54 -32 -101 -101
l-182 -265l-32 -176c-9 -52 -6 -59 26 -66l39 -8l-6 -36h-303zM275 744l-13 25l153 130h54l114 -131l-16 -24l-136 61z" />
    <glyph glyph-name="Ygrave" unicode="&#x1ef2;" horiz-adv-x="624" 
d="M113 0l7 36l44 8c32 7 39 13 49 66l31 173l-91 281c-20 64 -31 79 -57 87l-22 7l7 35h291l-7 -35l-28 -6c-32 -7 -48 -19 -48 -42c0 -14 4 -33 12 -59l61 -205h5l133 197c25 38 34 57 34 75c0 16 -8 28 -35 34l-23 6l7 35h218l-7 -35l-22 -6c-33 -11 -54 -32 -101 -101
l-182 -265l-32 -176c-9 -52 -6 -59 26 -66l39 -8l-6 -36h-303zM524 746l-195 56c-31 9 -43 31 -43 51c0 26 22 52 49 52c16 0 30 -7 47 -19l155 -113z" />
    <glyph glyph-name="Zacute" unicode="&#x179;" horiz-adv-x="576" 
d="M300 746l-11 24l154 114c18 13 32 20 48 20c28 0 46 -25 46 -49s-13 -44 -45 -53zM-20 0l9 47l464 596v4h-47c-143 0 -161 -7 -196 -48c-29 -31 -45 -62 -81 -122h-39l45 216h489l-9 -47l-462 -594v-5h50c157 0 173 6 212 47c31 32 54 74 92 141h41l-48 -235h-520z" />
    <glyph glyph-name="Zacute.pl" horiz-adv-x="576" 
d="M368 748l-21 19l61 128c12 25 27 40 50 40c29 0 57 -23 57 -52c0 -17 -8 -33 -26 -45zM-20 0l9 47l464 596v4h-47c-143 0 -161 -7 -196 -48c-29 -31 -45 -62 -81 -122h-39l45 216h489l-9 -47l-462 -594v-5h50c157 0 173 6 212 47c31 32 54 74 92 141h41l-48 -235h-520z
" />
    <glyph glyph-name="Zdotaccent" unicode="&#x17b;" horiz-adv-x="576" 
d="M-20 0l9 47l464 596v4h-47c-143 0 -161 -7 -196 -48c-29 -31 -45 -62 -81 -122h-39l45 216h489l-9 -47l-462 -594v-5h50c157 0 173 6 212 47c31 32 54 74 92 141h41l-48 -235h-520zM384 747c-45 0 -80 34 -80 74c0 42 35 75 80 75c44 0 79 -32 79 -74
c0 -40 -35 -75 -79 -75z" />
    <glyph glyph-name="abreve" unicode="&#x103;" horiz-adv-x="581" 
d="M136 -13c-77 0 -118 57 -118 135c0 224 181 406 326 406c68 0 91 -15 121 -36h4l60 41l22 -8s-20 -44 -44 -156l-47 -235c-3 -13 -5 -23 -5 -35c0 -21 16 -25 54 -3l20 12l19 -26c-53 -48 -112 -92 -173 -92c-43 0 -51 34 -51 58c0 18 4 46 9 67h-4
c-45 -61 -112 -128 -193 -128zM194 66c53 0 109 69 150 122l54 250c-9 22 -24 44 -62 44c-87 0 -189 -167 -189 -347c0 -47 18 -69 47 -69zM359 593c-79 0 -125 69 -124 158l34 9c10 -47 30 -83 99 -83c65 0 99 36 122 83l35 -11c-23 -91 -85 -156 -166 -156z" />
    <glyph glyph-name="amacron" unicode="&#x101;" horiz-adv-x="581" 
d="M136 -13c-77 0 -118 57 -118 135c0 224 181 406 326 406c68 0 91 -15 121 -36h4l60 41l22 -8s-20 -44 -44 -156l-47 -235c-3 -13 -5 -23 -5 -35c0 -21 16 -25 54 -3l20 12l19 -26c-53 -48 -112 -92 -173 -92c-43 0 -51 34 -51 58c0 18 4 46 9 67h-4
c-45 -61 -112 -128 -193 -128zM194 66c53 0 109 69 150 122l54 250c-9 22 -24 44 -62 44c-87 0 -189 -167 -189 -347c0 -47 18 -69 47 -69zM219 623l13 71h284l-13 -71h-284z" />
    <glyph glyph-name="aogonek" unicode="&#x105;" horiz-adv-x="581" 
d="M331 -233c-60 0 -102 31 -102 81c0 67 65 111 130 144c-29 8 -35 35 -35 56c0 18 4 46 9 67h-4c-45 -61 -112 -128 -193 -128c-77 0 -118 57 -118 135c0 224 181 406 326 406c68 0 91 -15 121 -36h4l60 41l22 -8s-20 -44 -44 -156l-47 -235c-3 -13 -5 -23 -5 -35
c0 -21 16 -25 54 -3l20 12l19 -26c-33 -29 -67 -56 -100 -74c-59 -30 -114 -85 -114 -143c0 -26 19 -45 50 -45c18 0 36 4 48 9l-6 -34c-16 -13 -48 -28 -95 -28zM194 66c53 0 109 69 150 122l54 250c-9 22 -24 44 -62 44c-87 0 -189 -167 -189 -347c0 -47 18 -69 47 -69z
" />
    <glyph glyph-name="aringacute" unicode="&#x1fb;" horiz-adv-x="581" 
d="M136 -13c-77 0 -118 57 -118 135c0 224 181 406 326 406c68 0 91 -15 121 -36h4l60 41l22 -8s-20 -44 -44 -156l-47 -235c-3 -13 -5 -23 -5 -35c0 -21 16 -25 54 -3l20 12l19 -26c-53 -48 -112 -92 -173 -92c-43 0 -51 34 -51 58c0 18 4 46 9 67h-4
c-45 -61 -112 -128 -193 -128zM194 66c53 0 109 69 150 122l54 250c-9 22 -24 44 -62 44c-87 0 -189 -167 -189 -347c0 -47 18 -69 47 -69zM373 590c-64 0 -110 46 -110 103c0 59 49 105 110 105s109 -45 109 -105c0 -57 -48 -103 -109 -103zM373 632c35 0 57 26 57 61
c0 36 -22 62 -57 62s-58 -26 -58 -62c0 -35 22 -61 58 -61zM303 825l-11 24l154 114c18 13 32 20 48 20c28 0 46 -25 46 -49s-13 -44 -45 -53z" />
    <glyph glyph-name="aeacute" unicode="&#x1fd;" horiz-adv-x="749" 
d="M423 593l-12 24l155 114c18 13 32 20 47 20c28 0 46 -25 46 -49s-13 -44 -44 -53zM126 -13c-71 0 -114 44 -114 113c0 100 88 158 305 194l9 55c17 101 1 135 -69 135c-32 0 -43 -6 -46 -34c-5 -52 -25 -71 -65 -71c-35 0 -56 19 -56 51c0 61 82 99 180 99
c86 0 143 -27 159 -90c58 58 128 90 189 90c91 0 135 -36 135 -101c0 -89 -159 -171 -328 -196c-3 -21 -5 -43 -5 -66c0 -70 29 -111 86 -111c56 0 106 36 156 81l26 -28c-45 -52 -120 -121 -234 -121c-81 0 -132 41 -151 103h-3c-39 -50 -96 -103 -174 -103zM600 484
c-55 0 -134 -86 -166 -209c73 16 128 37 163 69c25 22 41 50 41 94c0 33 -16 46 -38 46zM295 146c0 39 5 75 12 104c-140 -29 -175 -58 -175 -132c0 -35 17 -56 49 -56c34 0 78 31 114 73v11z" />
    <glyph glyph-name="cacute" unicode="&#x107;" horiz-adv-x="475" 
d="M268 593l-12 24l155 114c18 13 32 20 47 20c28 0 46 -25 46 -49s-13 -44 -44 -53zM184 -13c-102 0 -161 69 -161 158c0 223 175 383 322 383c92 0 139 -41 139 -87c0 -40 -21 -63 -61 -63c-41 0 -60 21 -65 74c-2 26 -8 30 -30 30c-85 0 -176 -157 -176 -317
c0 -72 28 -109 85 -109c55 0 104 38 154 84l26 -28c-43 -55 -118 -125 -233 -125z" />
    <glyph glyph-name="ccaron" unicode="&#x10d;" horiz-adv-x="475" 
d="M318 592l-106 156l20 23l124 -85l158 85l16 -24l-159 -155h-53zM184 -13c-102 0 -161 69 -161 158c0 223 175 383 322 383c92 0 139 -41 139 -87c0 -40 -21 -63 -61 -63c-41 0 -60 21 -65 74c-2 26 -8 30 -30 30c-85 0 -176 -157 -176 -317c0 -72 28 -109 85 -109
c55 0 104 38 154 84l26 -28c-43 -55 -118 -125 -233 -125z" />
    <glyph glyph-name="ccircumflex" unicode="&#x109;" horiz-adv-x="475" 
d="M195 581l-15 24l159 156h53l105 -157l-19 -23l-124 86zM184 -13c-102 0 -161 69 -161 158c0 223 175 383 322 383c92 0 139 -41 139 -87c0 -40 -21 -63 -61 -63c-41 0 -60 21 -65 74c-2 26 -8 30 -30 30c-85 0 -176 -157 -176 -317c0 -72 28 -109 85 -109
c55 0 104 38 154 84l26 -28c-43 -55 -118 -125 -233 -125z" />
    <glyph glyph-name="cdotaccent" unicode="&#x10b;" horiz-adv-x="475" 
d="M184 -13c-102 0 -161 69 -161 158c0 223 175 383 322 383c92 0 139 -41 139 -87c0 -40 -21 -63 -61 -63c-41 0 -60 21 -65 74c-2 26 -8 30 -30 30c-85 0 -176 -157 -176 -317c0 -72 28 -109 85 -109c55 0 104 38 154 84l26 -28c-43 -55 -118 -125 -233 -125zM352 606
c-45 0 -80 34 -80 74c0 42 35 75 80 75c44 0 79 -32 79 -74c0 -40 -35 -75 -79 -75z" />
    <glyph glyph-name="cacute.pl" horiz-adv-x="475" 
d="M184 -13c-102 0 -161 69 -161 158c0 223 175 383 322 383c92 0 139 -41 139 -87c0 -40 -21 -63 -61 -63c-41 0 -60 21 -65 74c-2 26 -8 30 -30 30c-85 0 -176 -157 -176 -317c0 -72 28 -109 85 -109c55 0 104 38 154 84l26 -28c-43 -55 -118 -125 -233 -125zM327 574
l-21 19l75 148c12 24 27 40 50 40c28 0 57 -24 57 -52c0 -17 -9 -32 -25 -45z" />
    <glyph glyph-name="dcaron" unicode="&#x10f;" horiz-adv-x="595" 
d="M658 569l-24 10l32 141c6 26 18 44 45 45c24 0 54 -17 53 -47c0 -14 -7 -27 -17 -40zM142 -13c-78 0 -124 56 -124 145c0 215 182 396 330 396c37 0 61 -6 75 -14h4s4 35 12 74l11 52c9 40 3 49 -23 60l-40 16l6 32l203 18l12 -10s-17 -51 -30 -115l-103 -507
c-3 -12 -6 -22 -6 -36c0 -21 19 -25 55 -2l19 12l19 -26c-53 -48 -112 -92 -174 -92c-41 0 -49 33 -49 57c0 19 3 47 9 70h-4c-47 -61 -119 -130 -202 -130zM200 65c54 0 116 72 158 125l52 248c-8 22 -28 44 -66 44c-95 0 -197 -173 -197 -341c0 -55 23 -76 53 -76z" />
    <glyph glyph-name="ebreve" unicode="&#x115;" horiz-adv-x="481" 
d="M185 -13c-106 0 -162 68 -162 159c0 221 194 383 333 383c80 0 128 -40 128 -105c0 -94 -144 -170 -330 -218c-1 -13 -2 -27 -2 -40c0 -70 30 -111 86 -111c57 0 103 38 155 81l26 -28c-44 -50 -119 -121 -234 -121zM331 484c-58 0 -144 -98 -171 -232
c74 22 123 45 156 74c33 28 52 66 52 108c0 32 -14 50 -37 50zM347 593c-79 0 -125 69 -124 158l34 9c10 -47 30 -83 99 -83c65 0 99 36 122 83l35 -11c-23 -91 -85 -156 -166 -156z" />
    <glyph glyph-name="ecaron" unicode="&#x11b;" horiz-adv-x="481" 
d="M322 592l-106 156l20 23l124 -85l158 85l16 -24l-159 -155h-53zM185 -13c-106 0 -162 68 -162 159c0 221 194 383 333 383c80 0 128 -40 128 -105c0 -94 -144 -170 -330 -218c-1 -13 -2 -27 -2 -40c0 -70 30 -111 86 -111c57 0 103 38 155 81l26 -28
c-44 -50 -119 -121 -234 -121zM331 484c-58 0 -144 -98 -171 -232c74 22 123 45 156 74c33 28 52 66 52 108c0 32 -14 50 -37 50z" />
    <glyph glyph-name="edotaccent" unicode="&#x117;" horiz-adv-x="481" 
d="M185 -13c-106 0 -162 68 -162 159c0 221 194 383 333 383c80 0 128 -40 128 -105c0 -94 -144 -170 -330 -218c-1 -13 -2 -27 -2 -40c0 -70 30 -111 86 -111c57 0 103 38 155 81l26 -28c-44 -50 -119 -121 -234 -121zM331 484c-58 0 -144 -98 -171 -232
c74 22 123 45 156 74c33 28 52 66 52 108c0 32 -14 50 -37 50zM357 606c-45 0 -80 34 -80 74c0 42 35 75 80 75c44 0 79 -32 79 -74c0 -40 -35 -75 -79 -75z" />
    <glyph glyph-name="emacron" unicode="&#x113;" horiz-adv-x="481" 
d="M185 -13c-106 0 -162 68 -162 159c0 221 194 383 333 383c80 0 128 -40 128 -105c0 -94 -144 -170 -330 -218c-1 -13 -2 -27 -2 -40c0 -70 30 -111 86 -111c57 0 103 38 155 81l26 -28c-44 -50 -119 -121 -234 -121zM331 484c-58 0 -144 -98 -171 -232
c74 22 123 45 156 74c33 28 52 66 52 108c0 32 -14 50 -37 50zM208 623l13 71h284l-13 -71h-284z" />
    <glyph glyph-name="eogonek" unicode="&#x119;" horiz-adv-x="481" 
d="M194 -233c-60 0 -102 31 -102 81c0 65 65 108 128 141c-11 -1 -23 -2 -35 -2c-106 0 -162 68 -162 159c0 221 194 383 333 383c80 0 128 -40 128 -105c0 -94 -144 -170 -330 -218c-1 -13 -2 -27 -2 -40c0 -70 30 -111 86 -111c57 0 103 38 155 81l26 -28
c-32 -38 -80 -76 -130 -110c-48 -33 -92 -85 -92 -133c0 -26 19 -45 50 -45c18 0 35 4 47 9l-5 -34c-17 -13 -48 -28 -95 -28zM331 484c-58 0 -144 -98 -171 -232c74 22 123 45 156 74c33 28 52 66 52 108c0 32 -14 50 -37 50z" />
    <glyph glyph-name="gbreve" unicode="&#x11f;" horiz-adv-x="523" 
d="M171 -227c-140 0 -229 51 -229 125c0 66 76 107 151 129v4c-34 11 -58 34 -58 75c0 51 50 91 91 113v3c-35 19 -66 59 -66 112c0 123 117 196 227 196c49 0 82 -10 113 -27c39 38 88 69 136 69c36 0 56 -21 56 -48c0 -37 -22 -57 -51 -57s-37 17 -46 30
c-9 15 -44 1 -64 -23v-4c28 -25 39 -53 39 -91c0 -123 -115 -190 -227 -190c-31 0 -58 6 -81 15c-16 -9 -33 -28 -33 -53c0 -21 12 -35 44 -37l116 -6c111 -6 170 -50 170 -131c0 -117 -115 -204 -288 -204zM185 -182c109 0 168 51 168 112c0 40 -16 64 -79 70l-135 13
c-35 -16 -86 -52 -86 -109c0 -53 41 -86 132 -86zM244 232c65 0 110 74 110 177c0 48 -23 77 -68 77c-67 0 -109 -90 -109 -181c0 -46 22 -73 67 -73zM319 593c-79 0 -125 69 -124 158l34 9c10 -47 30 -83 99 -83c65 0 99 36 122 83l35 -11c-23 -91 -85 -156 -166 -156z" />
    <glyph glyph-name="gcircumflex" unicode="&#x11d;" horiz-adv-x="523" 
d="M172 581l-15 24l159 156h53l105 -157l-19 -23l-124 86zM171 -227c-140 0 -229 51 -229 125c0 66 76 107 151 129v4c-34 11 -58 34 -58 75c0 51 50 91 91 113v3c-35 19 -66 59 -66 112c0 123 117 196 227 196c49 0 82 -10 113 -27c39 38 88 69 136 69c36 0 56 -21 56 -48
c0 -37 -22 -57 -51 -57s-37 17 -46 30c-9 15 -44 1 -64 -23v-4c28 -25 39 -53 39 -91c0 -123 -115 -190 -227 -190c-31 0 -58 6 -81 15c-16 -9 -33 -28 -33 -53c0 -21 12 -35 44 -37l116 -6c111 -6 170 -50 170 -131c0 -117 -115 -204 -288 -204zM185 -182
c109 0 168 51 168 112c0 40 -16 64 -79 70l-135 13c-35 -16 -86 -52 -86 -109c0 -53 41 -86 132 -86zM244 232c65 0 110 74 110 177c0 48 -23 77 -68 77c-67 0 -109 -90 -109 -181c0 -46 22 -73 67 -73z" />
    <glyph glyph-name="gcommaaccent" unicode="&#x123;" horiz-adv-x="523" 
d="M426 823l6 -26c-87 -17 -116 -53 -120 -89c6 4 15 8 28 8c37 0 58 -22 58 -54c0 -36 -34 -62 -75 -62c-48 0 -82 29 -82 79c0 67 52 132 185 144zM171 -227c-140 0 -229 51 -229 125c0 66 76 107 151 129v4c-34 11 -58 34 -58 75c0 51 50 91 91 113v3
c-35 19 -66 59 -66 112c0 123 117 196 227 196c49 0 82 -10 113 -27c39 38 88 69 136 69c36 0 56 -21 56 -48c0 -37 -22 -57 -51 -57s-37 17 -46 30c-9 15 -44 1 -64 -23v-4c28 -25 39 -53 39 -91c0 -123 -115 -190 -227 -190c-31 0 -58 6 -81 15c-16 -9 -33 -28 -33 -53
c0 -21 12 -35 44 -37l116 -6c111 -6 170 -50 170 -131c0 -117 -115 -204 -288 -204zM185 -182c109 0 168 51 168 112c0 40 -16 64 -79 70l-135 13c-35 -16 -86 -52 -86 -109c0 -53 41 -86 132 -86zM244 232c65 0 110 74 110 177c0 48 -23 77 -68 77
c-67 0 -109 -90 -109 -181c0 -46 22 -73 67 -73z" />
    <glyph glyph-name="gdotaccent" unicode="&#x121;" horiz-adv-x="523" 
d="M171 -227c-140 0 -229 51 -229 125c0 66 76 107 151 129v4c-34 11 -58 34 -58 75c0 51 50 91 91 113v3c-35 19 -66 59 -66 112c0 123 117 196 227 196c49 0 82 -10 113 -27c39 38 88 69 136 69c36 0 56 -21 56 -48c0 -37 -22 -57 -51 -57s-37 17 -46 30
c-9 15 -44 1 -64 -23v-4c28 -25 39 -53 39 -91c0 -123 -115 -190 -227 -190c-31 0 -58 6 -81 15c-16 -9 -33 -28 -33 -53c0 -21 12 -35 44 -37l116 -6c111 -6 170 -50 170 -131c0 -117 -115 -204 -288 -204zM185 -182c109 0 168 51 168 112c0 40 -16 64 -79 70l-135 13
c-35 -16 -86 -52 -86 -109c0 -53 41 -86 132 -86zM244 232c65 0 110 74 110 177c0 48 -23 77 -68 77c-67 0 -109 -90 -109 -181c0 -46 22 -73 67 -73zM329 606c-45 0 -80 34 -80 74c0 42 35 75 80 75c44 0 79 -32 79 -74c0 -40 -35 -75 -79 -75z" />
    <glyph glyph-name="hbar" unicode="&#x127;" horiz-adv-x="597" 
d="M56 595l9 47h93c8 38 1 47 -22 58l-40 16l6 32l200 18l10 -10s-16 -51 -28 -114h152l-8 -47h-154l-22 -110c-10 -51 -18 -80 -25 -105h5c68 79 145 148 225 148c54 0 84 -39 84 -90c0 -21 -4 -54 -12 -91l-51 -216c-2 -11 -5 -21 -5 -34c0 -21 12 -28 55 -1l19 12l20 -26
c-54 -48 -112 -92 -176 -92c-37 0 -54 28 -54 55s7 53 14 84l47 205c19 82 15 104 -15 104c-46 0 -114 -64 -163 -120l-68 -318h-126l122 595h-92z" />
    <glyph glyph-name="hcircumflex" unicode="&#x125;" horiz-adv-x="597" 
d="M391 -10c-37 0 -54 28 -54 55s7 53 14 84l47 205c19 82 15 104 -15 104c-46 0 -114 -64 -163 -120l-68 -318h-126l132 640c8 40 2 49 -22 60l-40 16l6 32l200 18l10 -10s-16 -51 -28 -115l-32 -156c-10 -51 -18 -80 -25 -105h5c68 79 145 148 225 148c54 0 84 -39 84 -90
c0 -21 -4 -54 -12 -91l-51 -216c-2 -11 -5 -21 -5 -34c0 -21 12 -28 55 -1l19 12l20 -26c-54 -48 -112 -92 -176 -92zM248 809l-13 25l153 130h54l114 -131l-16 -24l-136 61z" />
    <glyph glyph-name="ibreve" unicode="&#x12d;" horiz-adv-x="305" 
d="M96 -10c-37 0 -54 28 -54 55c0 29 5 55 13 87l64 246c3 15 6 28 6 37c0 21 -20 16 -55 -5l-17 -10l-18 25c60 60 123 103 177 103c36 0 49 -24 49 -52c0 -27 -6 -63 -19 -110l-59 -232c-3 -12 -5 -24 -5 -36c0 -22 16 -25 55 -2l22 14l19 -26c-53 -50 -114 -94 -178 -94z
M214 593c-79 0 -125 69 -124 158l34 9c10 -47 30 -83 99 -83c65 0 99 36 122 83l35 -11c-23 -91 -85 -156 -166 -156z" />
    <glyph glyph-name="imacron" unicode="&#x12b;" horiz-adv-x="305" 
d="M79 623l13 71h255l-13 -71h-255zM96 -10c-37 0 -54 28 -54 55c0 29 5 55 13 87l64 246c3 15 6 28 6 37c0 21 -20 16 -55 -5l-17 -10l-18 25c60 60 123 103 177 103c36 0 49 -24 49 -52c0 -27 -6 -63 -19 -110l-59 -232c-3 -12 -5 -24 -5 -36c0 -22 16 -25 55 -2l22 14
l19 -26c-53 -50 -114 -94 -178 -94z" />
    <glyph glyph-name="iogonek" unicode="&#x12f;" horiz-adv-x="305" 
d="M60 -233c-60 0 -102 31 -102 81c0 66 64 110 128 143c-30 5 -44 29 -44 54c0 29 5 55 13 87l64 246c3 15 6 28 6 37c0 21 -20 16 -55 -5l-17 -10l-18 25c60 60 123 103 177 103c36 0 49 -24 49 -52c0 -27 -6 -63 -19 -110l-59 -232c-3 -12 -5 -24 -5 -36
c0 -22 16 -25 55 -2l22 14l19 -26c-35 -33 -70 -58 -107 -80c-55 -34 -104 -82 -104 -139c0 -26 19 -45 50 -45c18 0 36 4 48 9l-6 -34c-16 -13 -48 -28 -95 -28zM223 606c-45 0 -79 34 -79 74c0 42 34 75 79 75c44 0 79 -32 79 -74c0 -40 -35 -75 -79 -75z" />
    <glyph glyph-name="itilde" unicode="&#x129;" horiz-adv-x="305" 
d="M96 -10c-37 0 -54 28 -54 55c0 29 5 55 13 87l64 246c3 15 6 28 6 37c0 21 -20 16 -55 -5l-17 -10l-18 25c60 60 123 103 177 103c36 0 49 -24 49 -52c0 -27 -6 -63 -19 -110l-59 -232c-3 -12 -5 -24 -5 -36c0 -22 16 -25 55 -2l22 14l19 -26c-53 -50 -114 -94 -178 -94z
M78 584l-35 16c38 86 69 133 114 133c49 0 110 -40 141 -40c24 0 41 24 67 65l34 -16c-36 -85 -66 -133 -112 -133c-48 0 -109 40 -142 40c-24 0 -40 -24 -67 -65z" />
    <glyph glyph-name="idotaccent" horiz-adv-x="305" 
d="M96 -10c-37 0 -54 28 -54 55c0 29 5 55 13 87l64 246c3 15 6 28 6 37c0 21 -20 16 -55 -5l-17 -10l-18 25c60 60 123 103 177 103c36 0 49 -24 49 -52c0 -27 -6 -63 -19 -110l-59 -232c-3 -12 -5 -24 -5 -36c0 -22 16 -25 55 -2l22 14l19 -26c-53 -50 -114 -94 -178 -94z
M223 606c-45 0 -79 34 -79 74c0 42 34 75 79 75c44 0 79 -32 79 -74c0 -40 -35 -75 -79 -75z" />
    <glyph glyph-name="jcircumflex" unicode="&#x135;" horiz-adv-x="297" 
d="M-56 -225c-70 0 -104 35 -104 72c0 35 20 54 53 54c38 0 53 -16 61 -64c3 -16 7 -21 15 -21c26 0 51 24 70 128l80 434c3 16 6 28 6 36c0 24 -19 18 -55 -4l-17 -10l-18 25c60 60 123 103 177 103c36 0 49 -24 49 -52c0 -26 -7 -65 -16 -110l-68 -327
c-39 -188 -129 -264 -233 -264zM69 581l-15 24l159 156h53l105 -157l-19 -23l-124 86z" />
    <glyph glyph-name="kcommaaccent" unicode="&#x137;" horiz-adv-x="552" 
d="M112 -285l-6 27c87 17 116 52 119 88c-5 -3 -15 -8 -27 -8c-38 0 -58 22 -58 54c0 37 34 62 75 62c48 0 82 -28 82 -78c0 -67 -52 -132 -185 -145zM371 -10c-29 0 -49 26 -72 81c-21 46 -42 94 -71 182l1 17c113 164 194 258 271 258c35 0 63 -19 63 -63
c0 -45 -29 -65 -57 -65c-43 0 -44 40 -60 40c-27 0 -86 -61 -123 -112c36 -100 59 -150 83 -202c26 -54 40 -57 80 -29l18 12l21 -27c-59 -54 -105 -92 -154 -92zM26 0l131 640c8 40 4 49 -22 60l-39 16l5 32l200 18l11 -10s-15 -51 -29 -115l-131 -641h-126z" />
    <glyph glyph-name="lacute" unicode="&#x13a;" horiz-adv-x="306" 
d="M159 811l-11 24l154 114c18 13 32 20 48 20c28 0 46 -25 46 -49s-13 -44 -45 -53zM96 -10c-38 0 -54 28 -54 54c0 29 6 55 12 85l101 511c8 40 4 50 -21 60l-42 16l5 32l203 18l11 -10s-16 -51 -29 -115l-100 -510c-2 -11 -4 -22 -4 -34c0 -21 18 -24 59 1l20 12l19 -26
c-56 -52 -114 -94 -180 -94z" />
    <glyph glyph-name="lcaron" unicode="&#x13e;" horiz-adv-x="306" 
d="M362 569l-24 10l32 141c6 26 18 44 45 45c24 0 54 -17 53 -47c0 -14 -7 -27 -17 -40zM96 -10c-38 0 -54 28 -54 54c0 29 6 55 12 85l101 511c8 40 4 50 -21 60l-42 16l5 32l203 18l11 -10s-16 -51 -29 -115l-100 -510c-2 -11 -4 -22 -4 -34c0 -21 18 -24 59 1l20 12
l19 -26c-56 -52 -114 -94 -180 -94z" />
    <glyph glyph-name="lcommaaccent" unicode="&#x13c;" horiz-adv-x="306" 
d="M-25 -285l-6 27c87 17 116 52 119 88c-5 -3 -15 -8 -27 -8c-38 0 -58 22 -58 54c0 37 34 62 75 62c48 0 82 -28 82 -78c0 -67 -52 -132 -185 -145zM96 -10c-38 0 -54 28 -54 54c0 29 6 55 12 85l101 511c8 40 4 50 -21 60l-42 16l5 32l203 18l11 -10s-16 -51 -29 -115
l-100 -510c-2 -11 -4 -22 -4 -34c0 -21 18 -24 59 1l20 12l19 -26c-56 -52 -114 -94 -180 -94z" />
    <glyph glyph-name="ldot" unicode="&#x140;" horiz-adv-x="401" 
d="M96 -10c-38 0 -54 28 -54 54c0 29 6 55 12 85l101 511c8 40 4 50 -21 60l-42 16l5 32l203 18l11 -10s-16 -51 -29 -115l-100 -510c-2 -11 -4 -22 -4 -34c0 -21 18 -24 59 1l20 12l19 -26c-56 -52 -114 -94 -180 -94zM367 301c-41 0 -74 32 -74 71c0 41 33 74 74 74
c42 0 75 -33 75 -74c0 -39 -33 -71 -75 -71z" />
    <glyph glyph-name="nacute" unicode="&#x144;" horiz-adv-x="609" 
d="M294 593l-12 24l155 114c18 13 32 20 47 20c28 0 46 -25 46 -49s-13 -44 -44 -53zM403 -10c-38 0 -53 28 -53 55s5 53 12 84l48 205c18 82 14 104 -14 104c-46 0 -116 -66 -161 -119l-70 -319h-128l82 378c3 13 6 30 6 39c0 20 -14 17 -56 -7l-15 -9l-18 26
c59 58 115 101 169 101c35 0 48 -22 48 -50c0 -23 -10 -75 -15 -99h5c69 80 144 149 226 149c54 0 83 -39 83 -90c0 -21 -3 -54 -12 -91l-50 -214c-3 -13 -5 -23 -5 -35c0 -21 13 -29 55 -2l19 12l20 -26c-54 -48 -112 -92 -176 -92z" />
    <glyph glyph-name="napostrophe" unicode="&#x149;" horiz-adv-x="700" 
d="M493 -10c-37 0 -52 28 -52 55s5 53 12 84l47 205c19 82 15 104 -13 104c-47 0 -116 -66 -162 -119l-69 -319h-128l82 378c3 13 6 30 6 39c0 20 -14 17 -56 -7l-15 -9l-18 26c59 58 114 101 168 101c35 0 48 -22 48 -50c0 -23 -9 -75 -15 -99h5c70 80 145 149 227 149
c54 0 83 -39 83 -90c0 -21 -3 -54 -12 -91l-51 -214c-2 -13 -5 -23 -5 -35c0 -21 13 -29 55 -2l19 12l21 -26c-54 -48 -112 -92 -177 -92zM-54 410l-10 34c101 30 142 79 146 132c-8 -6 -20 -10 -34 -10c-26 0 -62 20 -62 68c0 44 36 72 79 72c56 0 94 -41 94 -103
c0 -86 -70 -171 -213 -193z" />
    <glyph glyph-name="ncaron" unicode="&#x148;" horiz-adv-x="609" 
d="M344 592l-106 156l20 23l124 -85l158 85l16 -24l-159 -155h-53zM403 -10c-38 0 -53 28 -53 55s5 53 12 84l48 205c18 82 14 104 -14 104c-46 0 -116 -66 -161 -119l-70 -319h-128l82 378c3 13 6 30 6 39c0 20 -14 17 -56 -7l-15 -9l-18 26c59 58 115 101 169 101
c35 0 48 -22 48 -50c0 -23 -10 -75 -15 -99h5c69 80 144 149 226 149c54 0 83 -39 83 -90c0 -21 -3 -54 -12 -91l-50 -214c-3 -13 -5 -23 -5 -35c0 -21 13 -29 55 -2l19 12l20 -26c-54 -48 -112 -92 -176 -92z" />
    <glyph glyph-name="ncommaaccent" unicode="&#x146;" horiz-adv-x="609" 
d="M142 -285l-6 27c87 17 116 52 119 88c-5 -3 -15 -8 -27 -8c-38 0 -58 22 -58 54c0 37 34 62 75 62c48 0 82 -28 82 -78c0 -67 -52 -132 -185 -145zM403 -10c-38 0 -53 28 -53 55s5 53 12 84l48 205c18 82 14 104 -14 104c-46 0 -116 -66 -161 -119l-70 -319h-128l82 378
c3 13 6 30 6 39c0 20 -14 17 -56 -7l-15 -9l-18 26c59 58 115 101 169 101c35 0 48 -22 48 -50c0 -23 -10 -75 -15 -99h5c69 80 144 149 226 149c54 0 83 -39 83 -90c0 -21 -3 -54 -12 -91l-50 -214c-3 -13 -5 -23 -5 -35c0 -21 13 -29 55 -2l19 12l20 -26
c-54 -48 -112 -92 -176 -92z" />
    <glyph glyph-name="nacute.pl" horiz-adv-x="609" 
d="M354 574l-21 19l75 148c12 24 27 40 50 40c28 0 57 -24 57 -52c0 -17 -9 -32 -25 -45zM403 -10c-38 0 -53 28 -53 55s5 53 12 84l48 205c18 82 14 104 -14 104c-46 0 -116 -66 -161 -119l-70 -319h-128l82 378c3 13 6 30 6 39c0 20 -14 17 -56 -7l-15 -9l-18 26
c59 58 115 101 169 101c35 0 48 -22 48 -50c0 -23 -10 -75 -15 -99h5c69 80 144 149 226 149c54 0 83 -39 83 -90c0 -21 -3 -54 -12 -91l-50 -214c-3 -13 -5 -23 -5 -35c0 -21 13 -29 55 -2l19 12l20 -26c-54 -48 -112 -92 -176 -92z" />
    <glyph glyph-name="obreve" unicode="&#x14f;" horiz-adv-x="554" 
d="M234 -13c-138 0 -209 94 -209 207c0 213 161 335 295 335c136 0 208 -94 208 -205c0 -217 -160 -337 -294 -337zM234 34c105 0 167 184 167 332c0 75 -29 117 -83 117c-103 0 -166 -181 -166 -330c0 -77 28 -119 82 -119zM338 593c-79 0 -125 69 -124 158l34 9
c10 -47 30 -83 99 -83c65 0 99 36 122 83l35 -11c-23 -91 -85 -156 -166 -156z" />
    <glyph glyph-name="ohungarumlaut" unicode="&#x151;" horiz-adv-x="554" 
d="M241 589l-19 21l85 123c13 23 28 31 44 31c20 0 51 -21 51 -47c0 -17 -8 -34 -35 -50zM421 589l-18 21l86 123c13 22 27 31 43 31c22 0 52 -22 52 -47c0 -17 -7 -32 -32 -48zM234 -13c-138 0 -209 94 -209 207c0 213 161 335 295 335c136 0 208 -94 208 -205
c0 -217 -160 -337 -294 -337zM234 34c105 0 167 184 167 332c0 75 -29 117 -83 117c-103 0 -166 -181 -166 -330c0 -77 28 -119 82 -119z" />
    <glyph glyph-name="omacron" unicode="&#x14d;" horiz-adv-x="554" 
d="M198 623l13 71h284l-13 -71h-284zM234 -13c-138 0 -209 94 -209 207c0 213 161 335 295 335c136 0 208 -94 208 -205c0 -217 -160 -337 -294 -337zM234 34c105 0 167 184 167 332c0 75 -29 117 -83 117c-103 0 -166 -181 -166 -330c0 -77 28 -119 82 -119z" />
    <glyph glyph-name="oacute.pl" horiz-adv-x="554" 
d="M234 -13c-138 0 -209 94 -209 207c0 213 161 335 295 335c136 0 208 -94 208 -205c0 -217 -160 -337 -294 -337zM234 34c105 0 167 184 167 332c0 75 -29 117 -83 117c-103 0 -166 -181 -166 -330c0 -77 28 -119 82 -119zM323 574l-21 19l75 148c12 24 27 40 50 40
c28 0 57 -24 57 -52c0 -17 -9 -32 -25 -45z" />
    <glyph glyph-name="oslashacute" unicode="&#x1ff;" horiz-adv-x="554" 
d="M15 -64l73 102c-42 38 -63 95 -63 157c0 214 161 334 295 334c41 0 76 -8 105 -23l50 69h60l-70 -97c42 -39 63 -95 63 -155c0 -217 -160 -336 -294 -336c-42 0 -78 9 -107 23l-53 -74h-59zM234 32c105 0 174 178 174 336c0 10 -1 20 -2 29l-243 -337
c13 -18 35 -28 71 -28zM145 148c0 -11 0 -20 1 -30l242 336c-14 19 -36 29 -70 29c-103 0 -173 -173 -173 -335zM263 593l-12 24l155 114c18 13 32 20 47 20c28 0 46 -25 46 -49s-13 -44 -44 -53z" />
    <glyph glyph-name="racute" unicode="&#x155;" horiz-adv-x="472" 
d="M241 593l-12 24l155 114c18 13 32 20 47 20c28 0 46 -25 46 -49s-13 -44 -44 -53zM37 0l82 378c3 14 6 29 6 38c0 21 -14 19 -56 -6l-15 -9l-18 26c59 58 116 101 169 101c35 0 48 -23 48 -51c0 -26 -16 -101 -22 -128h5c50 84 117 179 190 179c35 0 64 -21 64 -62
c0 -44 -30 -69 -63 -69c-41 0 -46 29 -68 29c-27 0 -85 -74 -135 -159l-59 -267h-128z" />
    <glyph glyph-name="rcaron" unicode="&#x159;" horiz-adv-x="472" 
d="M291 592l-106 156l20 23l124 -85l158 85l16 -24l-159 -155h-53zM37 0l82 378c3 14 6 29 6 38c0 21 -14 19 -56 -6l-15 -9l-18 26c59 58 116 101 169 101c35 0 48 -23 48 -51c0 -26 -16 -101 -22 -128h5c50 84 117 179 190 179c35 0 64 -21 64 -62c0 -44 -30 -69 -63 -69
c-41 0 -46 29 -68 29c-27 0 -85 -74 -135 -159l-59 -267h-128z" />
    <glyph glyph-name="rcommaaccent" unicode="&#x157;" horiz-adv-x="472" 
d="M-27 -285l-6 27c87 17 116 52 119 88c-5 -3 -15 -8 -27 -8c-38 0 -58 22 -58 54c0 37 34 62 75 62c48 0 82 -28 82 -78c0 -67 -52 -132 -185 -145zM37 0l82 378c3 14 6 29 6 38c0 21 -14 19 -56 -6l-15 -9l-18 26c59 58 116 101 169 101c35 0 48 -23 48 -51
c0 -26 -16 -101 -22 -128h5c50 84 117 179 190 179c35 0 64 -21 64 -62c0 -44 -30 -69 -63 -69c-41 0 -46 29 -68 29c-27 0 -85 -74 -135 -159l-59 -267h-128z" />
    <glyph glyph-name="sacute" unicode="&#x15b;" horiz-adv-x="427" 
d="M201 593l-12 24l155 114c18 13 32 20 47 20c28 0 46 -25 46 -49s-13 -44 -44 -53zM168 -12c-121 0 -173 51 -173 97c0 36 23 55 60 55c38 0 52 -18 67 -71c6 -23 17 -35 58 -35c53 0 92 27 92 69c0 37 -27 69 -95 116c-70 50 -109 92 -109 153c0 98 96 156 197 156
c109 0 153 -46 153 -91c0 -30 -19 -51 -54 -51c-42 0 -54 27 -64 64c-7 24 -21 33 -48 33c-48 0 -83 -22 -83 -63c0 -35 19 -62 99 -115c73 -47 108 -98 108 -153c0 -98 -90 -164 -208 -164z" />
    <glyph glyph-name="scedilla" unicode="&#x15f;" horiz-adv-x="427" 
d="M0 -253l4 29c95 19 129 43 129 74c0 19 -13 34 -60 37l-5 14l55 90c-89 11 -128 54 -128 94c0 36 23 55 60 55c38 0 52 -18 67 -71c6 -23 17 -35 58 -35c53 0 92 27 92 69c0 37 -27 69 -95 116c-70 50 -109 92 -109 153c0 98 96 156 197 156c109 0 153 -46 153 -91
c0 -30 -19 -51 -54 -51c-42 0 -54 27 -64 64c-7 24 -21 33 -48 33c-48 0 -83 -22 -83 -63c0 -35 19 -62 99 -115c73 -47 108 -98 108 -153c0 -98 -89 -163 -207 -164l-36 -42c65 -7 89 -43 89 -76c0 -62 -79 -111 -222 -123z" />
    <glyph glyph-name="scircumflex" unicode="&#x15d;" horiz-adv-x="427" 
d="M127 581l-15 24l159 156h53l105 -157l-19 -23l-124 86zM168 -12c-121 0 -173 51 -173 97c0 36 23 55 60 55c38 0 52 -18 67 -71c6 -23 17 -35 58 -35c53 0 92 27 92 69c0 37 -27 69 -95 116c-70 50 -109 92 -109 153c0 98 96 156 197 156c109 0 153 -46 153 -91
c0 -30 -19 -51 -54 -51c-42 0 -54 27 -64 64c-7 24 -21 33 -48 33c-48 0 -83 -22 -83 -63c0 -35 19 -62 99 -115c73 -47 108 -98 108 -153c0 -98 -90 -164 -208 -164z" />
    <glyph glyph-name="scommaaccent" unicode="&#x219;" horiz-adv-x="427" 
d="M33 -285l-6 27c87 17 116 52 119 88c-5 -3 -15 -8 -27 -8c-38 0 -58 22 -58 54c0 37 34 62 75 62c48 0 82 -28 82 -78c0 -67 -52 -132 -185 -145zM168 -12c-121 0 -173 51 -173 97c0 36 23 55 60 55c38 0 52 -18 67 -71c6 -23 17 -35 58 -35c53 0 92 27 92 69
c0 37 -27 69 -95 116c-70 50 -109 92 -109 153c0 98 96 156 197 156c109 0 153 -46 153 -91c0 -30 -19 -51 -54 -51c-42 0 -54 27 -64 64c-7 24 -21 33 -48 33c-48 0 -83 -22 -83 -63c0 -35 19 -62 99 -115c73 -47 108 -98 108 -153c0 -98 -90 -164 -208 -164z" />
    <glyph glyph-name="sacute.pl" horiz-adv-x="427" 
d="M168 -12c-121 0 -173 51 -173 97c0 36 23 55 60 55c38 0 52 -18 67 -71c6 -23 17 -35 58 -35c53 0 92 27 92 69c0 37 -27 69 -95 116c-70 50 -109 92 -109 153c0 98 96 156 197 156c109 0 153 -46 153 -91c0 -30 -19 -51 -54 -51c-42 0 -54 27 -64 64
c-7 24 -21 33 -48 33c-48 0 -83 -22 -83 -63c0 -35 19 -62 99 -115c73 -47 108 -98 108 -153c0 -98 -90 -164 -208 -164zM260 574l-21 19l75 148c12 24 27 40 50 40c28 0 57 -24 57 -52c0 -17 -9 -32 -25 -45z" />
    <glyph glyph-name="tbar" unicode="&#x167;" horiz-adv-x="357" 
d="M22 310l9 48h74l22 95h-73l6 32l79 29l19 83l104 49h33l-28 -131h114l-15 -62h-113l-21 -95h120l-8 -48h-122l-35 -164c-5 -19 -9 -36 -9 -51c0 -23 14 -32 91 17l27 17l22 -25c-81 -76 -148 -115 -212 -115c-47 0 -61 29 -61 66c0 21 4 47 10 74l40 181h-73z" />
    <glyph glyph-name="tcaron" unicode="&#x165;" horiz-adv-x="357" 
d="M366 569l-24 10l32 141c6 26 18 44 45 45c24 0 54 -17 53 -47c0 -14 -7 -27 -17 -40zM106 -11c-47 0 -61 29 -61 66c0 21 4 47 10 74l72 324h-73l6 32l79 29l19 83l104 49h33l-28 -131h114l-15 -62h-113l-66 -307c-5 -19 -9 -36 -9 -51c0 -23 14 -32 91 17l27 17l22 -25
c-81 -76 -148 -115 -212 -115z" />
    <glyph glyph-name="tcommaaccent" unicode="&#x163;" horiz-adv-x="357" 
d="M-10 -285l-6 27c87 17 116 52 119 88c-5 -3 -15 -8 -27 -8c-38 0 -58 22 -58 54c0 37 34 62 75 62c48 0 82 -28 82 -78c0 -67 -52 -132 -185 -145zM106 -11c-47 0 -61 29 -61 66c0 21 4 47 10 74l72 324h-73l6 32l79 29l19 83l104 49h33l-28 -131h114l-15 -62h-113
l-66 -307c-5 -19 -9 -36 -9 -51c0 -23 14 -32 91 17l27 17l22 -25c-81 -76 -148 -115 -212 -115z" />
    <glyph glyph-name="ubreve" unicode="&#x16d;" horiz-adv-x="606" 
d="M138 -14c-55 0 -85 38 -85 91c0 22 4 54 13 91l50 213c3 12 6 25 6 34c0 22 -18 20 -57 -5l-13 -9l-19 26c59 59 115 101 170 101c38 0 53 -28 53 -59c0 -27 -5 -50 -12 -83l-47 -206c-20 -82 -15 -104 15 -104c44 0 110 65 157 118l69 321h128l-83 -381
c-3 -14 -5 -24 -5 -37c0 -21 15 -25 55 0l19 11l19 -26c-52 -48 -120 -96 -175 -96c-36 0 -49 29 -49 55c0 23 10 67 18 94h-4c-71 -79 -141 -149 -223 -149zM362 593c-79 0 -125 69 -124 158l34 9c10 -47 30 -83 99 -83c65 0 99 36 122 83l35 -11
c-23 -91 -85 -156 -166 -156z" />
    <glyph glyph-name="uhungarumlaut" unicode="&#x171;" horiz-adv-x="606" 
d="M138 -14c-55 0 -85 38 -85 91c0 22 4 54 13 91l50 213c3 12 6 25 6 34c0 22 -18 20 -57 -5l-13 -9l-19 26c59 59 115 101 170 101c38 0 53 -28 53 -59c0 -27 -5 -50 -12 -83l-47 -206c-20 -82 -15 -104 15 -104c44 0 110 65 157 118l69 321h128l-83 -381
c-3 -14 -5 -24 -5 -37c0 -21 15 -25 55 0l19 11l19 -26c-52 -48 -120 -96 -175 -96c-36 0 -49 29 -49 55c0 23 10 67 18 94h-4c-71 -79 -141 -149 -223 -149zM264 589l-19 21l85 123c13 23 28 31 44 31c20 0 51 -21 51 -47c0 -17 -8 -34 -35 -50zM444 589l-18 21l86 123
c13 22 27 31 43 31c22 0 52 -22 52 -47c0 -17 -7 -32 -32 -48z" />
    <glyph glyph-name="umacron" unicode="&#x16b;" horiz-adv-x="606" 
d="M138 -14c-55 0 -85 38 -85 91c0 22 4 54 13 91l50 213c3 12 6 25 6 34c0 22 -18 20 -57 -5l-13 -9l-19 26c59 59 115 101 170 101c38 0 53 -28 53 -59c0 -27 -5 -50 -12 -83l-47 -206c-20 -82 -15 -104 15 -104c44 0 110 65 157 118l69 321h128l-83 -381
c-3 -14 -5 -24 -5 -37c0 -21 15 -25 55 0l19 11l19 -26c-52 -48 -120 -96 -175 -96c-36 0 -49 29 -49 55c0 23 10 67 18 94h-4c-71 -79 -141 -149 -223 -149zM222 623l13 71h284l-13 -71h-284z" />
    <glyph glyph-name="uogonek" unicode="&#x173;" horiz-adv-x="606" 
d="M354 -233c-60 0 -101 31 -101 81c0 65 61 108 123 141c-21 8 -29 31 -29 52c0 23 10 67 18 94h-4c-71 -79 -141 -149 -223 -149c-55 0 -85 38 -85 91c0 22 4 54 13 91l50 213c3 12 6 25 6 34c0 22 -18 20 -57 -5l-13 -9l-19 26c59 59 115 101 170 101c38 0 53 -28 53 -59
c0 -27 -5 -50 -12 -83l-47 -206c-20 -82 -15 -104 15 -104c44 0 110 65 157 118l69 321h128l-83 -381c-3 -14 -5 -24 -5 -37c0 -21 15 -25 55 0l19 11l19 -26c-38 -35 -79 -64 -119 -88c-50 -31 -95 -73 -95 -129c0 -26 20 -45 51 -45c18 0 35 4 47 9l-5 -34
c-17 -13 -49 -28 -96 -28z" />
    <glyph glyph-name="uring" unicode="&#x16f;" horiz-adv-x="606" 
d="M376 590c-64 0 -110 46 -110 103c0 59 49 105 110 105s109 -45 109 -105c0 -57 -48 -103 -109 -103zM376 632c35 0 57 26 57 61c0 36 -22 62 -57 62s-58 -26 -58 -62c0 -35 22 -61 58 -61zM138 -14c-55 0 -85 38 -85 91c0 22 4 54 13 91l50 213c3 12 6 25 6 34
c0 22 -18 20 -57 -5l-13 -9l-19 26c59 59 115 101 170 101c38 0 53 -28 53 -59c0 -27 -5 -50 -12 -83l-47 -206c-20 -82 -15 -104 15 -104c44 0 110 65 157 118l69 321h128l-83 -381c-3 -14 -5 -24 -5 -37c0 -21 15 -25 55 0l19 11l19 -26c-52 -48 -120 -96 -175 -96
c-36 0 -49 29 -49 55c0 23 10 67 18 94h-4c-71 -79 -141 -149 -223 -149z" />
    <glyph glyph-name="utilde" unicode="&#x169;" horiz-adv-x="606" 
d="M138 -14c-55 0 -85 38 -85 91c0 22 4 54 13 91l50 213c3 12 6 25 6 34c0 22 -18 20 -57 -5l-13 -9l-19 26c59 59 115 101 170 101c38 0 53 -28 53 -59c0 -27 -5 -50 -12 -83l-47 -206c-20 -82 -15 -104 15 -104c44 0 110 65 157 118l69 321h128l-83 -381
c-3 -14 -5 -24 -5 -37c0 -21 15 -25 55 0l19 11l19 -26c-52 -48 -120 -96 -175 -96c-36 0 -49 29 -49 55c0 23 10 67 18 94h-4c-71 -79 -141 -149 -223 -149zM225 584l-35 16c38 86 69 133 114 133c49 0 110 -40 141 -40c24 0 41 24 67 65l34 -16
c-36 -85 -66 -133 -112 -133c-48 0 -109 40 -142 40c-24 0 -40 -24 -67 -65z" />
    <glyph glyph-name="wacute" unicode="&#x1e83;" horiz-adv-x="751" 
d="M376 593l-12 24l155 114c18 13 32 20 47 20c28 0 46 -25 46 -49s-13 -44 -44 -53zM122 0c0 187 -7 301 -17 380c-6 57 -18 60 -62 32l-20 -12l-18 27c55 58 114 101 162 101c35 0 48 -28 55 -102c9 -85 17 -169 15 -303h4c53 67 115 153 152 216l-3 56
c-4 43 -16 47 -54 23l-18 -11l-20 27c41 43 103 94 148 94c36 0 51 -28 56 -101c5 -81 8 -176 1 -308h4c90 102 155 215 155 270c0 40 -31 50 -31 90c0 30 28 50 60 50c39 0 65 -24 65 -67c0 -98 -154 -320 -296 -462h-65c2 110 5 198 3 265h-2c-55 -83 -135 -191 -202 -265
h-72z" />
    <glyph glyph-name="wcircumflex" unicode="&#x175;" horiz-adv-x="751" 
d="M302 581l-15 24l159 156h53l105 -157l-19 -23l-124 86zM122 0c0 187 -7 301 -17 380c-6 57 -18 60 -62 32l-20 -12l-18 27c55 58 114 101 162 101c35 0 48 -28 55 -102c9 -85 17 -169 15 -303h4c53 67 115 153 152 216l-3 56c-4 43 -16 47 -54 23l-18 -11l-20 27
c41 43 103 94 148 94c36 0 51 -28 56 -101c5 -81 8 -176 1 -308h4c90 102 155 215 155 270c0 40 -31 50 -31 90c0 30 28 50 60 50c39 0 65 -24 65 -67c0 -98 -154 -320 -296 -462h-65c2 110 5 198 3 265h-2c-55 -83 -135 -191 -202 -265h-72z" />
    <glyph glyph-name="wdieresis" unicode="&#x1e85;" horiz-adv-x="751" 
d="M353 606c-39 0 -72 29 -72 70c0 42 35 74 76 74c38 0 72 -30 72 -70c0 -41 -36 -74 -76 -74zM564 606c-39 0 -72 29 -72 70c0 42 35 74 76 74c39 0 71 -30 71 -70c0 -41 -35 -74 -75 -74zM122 0c0 187 -7 301 -17 380c-6 57 -18 60 -62 32l-20 -12l-18 27
c55 58 114 101 162 101c35 0 48 -28 55 -102c9 -85 17 -169 15 -303h4c53 67 115 153 152 216l-3 56c-4 43 -16 47 -54 23l-18 -11l-20 27c41 43 103 94 148 94c36 0 51 -28 56 -101c5 -81 8 -176 1 -308h4c90 102 155 215 155 270c0 40 -31 50 -31 90c0 30 28 50 60 50
c39 0 65 -24 65 -67c0 -98 -154 -320 -296 -462h-65c2 110 5 198 3 265h-2c-55 -83 -135 -191 -202 -265h-72z" />
    <glyph glyph-name="wgrave" unicode="&#x1e81;" horiz-adv-x="751" 
d="M122 0c0 187 -7 301 -17 380c-6 57 -18 60 -62 32l-20 -12l-18 27c55 58 114 101 162 101c35 0 48 -28 55 -102c9 -85 17 -169 15 -303h4c53 67 115 153 152 216l-3 56c-4 43 -16 47 -54 23l-18 -11l-20 27c41 43 103 94 148 94c36 0 51 -28 56 -101c5 -81 8 -176 1 -308
h4c90 102 155 215 155 270c0 40 -31 50 -31 90c0 30 28 50 60 50c39 0 65 -24 65 -67c0 -98 -154 -320 -296 -462h-65c2 110 5 198 3 265h-2c-55 -83 -135 -191 -202 -265h-72zM545 591l-195 56c-32 9 -43 31 -43 51c0 25 21 52 49 52c16 0 30 -6 48 -19l154 -113z" />
    <glyph glyph-name="ycircumflex" unicode="&#x177;" horiz-adv-x="516" 
d="M-14 -230c-50 0 -77 26 -77 63c0 36 23 56 52 56c50 0 52 -40 88 -40c30 0 75 30 138 101c-23 199 -44 349 -63 424c-18 65 -31 63 -70 37l-19 -12l-20 28c55 57 115 101 158 101c31 0 50 -15 64 -74c24 -111 41 -246 50 -371h5c73 106 138 228 138 298
c0 42 -32 54 -32 98c0 30 23 50 56 50c38 0 67 -24 67 -69c0 -90 -91 -272 -212 -433c-112 -151 -226 -257 -323 -257zM173 581l-15 24l159 156h53l105 -157l-19 -23l-124 86z" />
    <glyph glyph-name="ygrave" unicode="&#x1ef3;" horiz-adv-x="516" 
d="M-14 -230c-50 0 -77 26 -77 63c0 36 23 56 52 56c50 0 52 -40 88 -40c30 0 75 30 138 101c-23 199 -44 349 -63 424c-18 65 -31 63 -70 37l-19 -12l-20 28c55 57 115 101 158 101c31 0 50 -15 64 -74c24 -111 41 -246 50 -371h5c73 106 138 228 138 298
c0 42 -32 54 -32 98c0 30 23 50 56 50c38 0 67 -24 67 -69c0 -90 -91 -272 -212 -433c-112 -151 -226 -257 -323 -257zM415 591l-195 56c-32 9 -43 31 -43 51c0 25 21 52 49 52c16 0 30 -6 48 -19l154 -113z" />
    <glyph glyph-name="zacute" unicode="&#x17a;" horiz-adv-x="468" 
d="M233 593l-12 24l155 114c18 13 32 20 47 20c28 0 46 -25 46 -49s-13 -44 -44 -53zM274 -17c-78 0 -115 89 -183 89c-23 0 -40 -23 -58 -86h-14l-54 40v14c44 29 74 53 119 97l250 251c-87 6 -132 48 -203 48c-12 0 -18 -7 -18 -13c0 -18 45 -21 45 -57
c0 -25 -18 -47 -50 -47c-36 0 -53 31 -53 61c0 49 76 149 160 149c80 0 127 -87 169 -87c19 0 33 24 48 85h15l58 -38v-14c-37 -24 -62 -42 -114 -94l-244 -249c81 -6 132 -37 177 -37c24 0 45 13 83 66l26 -16c-53 -97 -95 -162 -159 -162z" />
    <glyph glyph-name="zacute.pl" horiz-adv-x="468" 
d="M297 574l-21 19l75 148c12 24 27 40 50 40c28 0 57 -24 57 -52c0 -17 -9 -32 -25 -45zM274 -17c-78 0 -115 89 -183 89c-23 0 -40 -23 -58 -86h-14l-54 40v14c44 29 74 53 119 97l250 251c-87 6 -132 48 -203 48c-12 0 -18 -7 -18 -13c0 -18 45 -21 45 -57
c0 -25 -18 -47 -50 -47c-36 0 -53 31 -53 61c0 49 76 149 160 149c80 0 127 -87 169 -87c19 0 33 24 48 85h15l58 -38v-14c-37 -24 -62 -42 -114 -94l-244 -249c81 -6 132 -37 177 -37c24 0 45 13 83 66l26 -16c-53 -97 -95 -162 -159 -162z" />
    <glyph glyph-name="zdotaccent" unicode="&#x17c;" horiz-adv-x="468" 
d="M274 -17c-78 0 -115 89 -183 89c-23 0 -40 -23 -58 -86h-14l-54 40v14c44 29 74 53 119 97l250 251c-87 6 -132 48 -203 48c-12 0 -18 -7 -18 -13c0 -18 45 -21 45 -57c0 -25 -18 -47 -50 -47c-36 0 -53 31 -53 61c0 49 76 149 160 149c80 0 127 -87 169 -87
c19 0 33 24 48 85h15l58 -38v-14c-37 -24 -62 -42 -114 -94l-244 -249c81 -6 132 -37 177 -37c24 0 45 13 83 66l26 -16c-53 -97 -95 -162 -159 -162zM318 606c-45 0 -80 34 -80 74c0 42 35 75 80 75c44 0 79 -32 79 -74c0 -40 -35 -75 -79 -75z" />
    <glyph glyph-name="oneeighth" unicode="&#x215b;" horiz-adv-x="823" 
d="M89 -50l596 764h65l-594 -764h-67zM26 266l6 31l26 6c25 7 35 11 43 46l42 234l-61 4l5 34c70 11 132 39 172 80l19 -5l-63 -348c-6 -36 -3 -40 21 -46l28 -5l-6 -31h-232zM566 -113c-95 0 -160 42 -160 100c0 57 48 94 114 117v3c-37 25 -56 53 -56 91
c0 82 80 134 165 134c74 0 138 -35 138 -94c0 -50 -45 -84 -101 -104v-2c51 -30 79 -58 79 -103c0 -79 -78 -142 -179 -142zM571 -73c49 0 85 26 85 64c0 35 -34 55 -108 96c-24 -22 -55 -45 -55 -93c0 -42 25 -67 78 -67zM635 151c25 20 53 44 53 82c0 37 -24 59 -64 59
c-43 0 -74 -23 -74 -58c0 -32 26 -52 85 -83z" />
    <glyph glyph-name="onethird" unicode="&#x2153;" horiz-adv-x="840" 
d="M99 -50l596 764h65l-594 -764h-67zM26 266l6 31l26 6c25 7 35 11 43 46l42 234l-61 4l5 34c70 11 132 39 172 80l19 -5l-63 -348c-6 -36 -3 -40 21 -46l28 -5l-6 -31h-232zM569 -113c-83 0 -137 26 -137 75c0 31 18 49 46 49c33 0 47 -13 51 -55c3 -25 5 -33 32 -33
c56 0 87 54 87 117c0 43 -24 57 -69 57h-31l9 45h25c63 0 87 39 87 103c0 33 -18 50 -50 50c-21 0 -30 -5 -33 -27c-4 -42 -17 -51 -48 -51c-30 0 -46 16 -46 40c0 43 57 75 138 75c90 0 142 -38 142 -96c0 -55 -35 -95 -123 -110v-4c67 -7 113 -40 113 -96
c0 -86 -82 -139 -193 -139z" />
    <glyph glyph-name="threeeighths" unicode="&#x215c;" horiz-adv-x="862" 
d="M136 -50l596 764h65l-594 -764h-67zM169 257c-83 0 -136 25 -136 74c0 32 18 50 46 50c32 0 47 -13 50 -55c3 -26 5 -34 32 -34c57 0 88 54 88 118c0 42 -24 57 -69 57h-31l8 43h26c63 0 87 39 87 104c0 34 -18 51 -51 51c-21 0 -29 -6 -32 -27c-5 -42 -18 -52 -48 -52
s-46 17 -46 41c0 42 58 74 137 74c90 0 143 -38 143 -95c0 -55 -36 -97 -123 -112v-2c67 -9 113 -41 113 -96c0 -87 -82 -139 -194 -139zM612 -113c-94 0 -160 42 -160 100c0 57 48 94 114 117v3c-37 25 -55 53 -55 91c0 82 80 134 164 134c75 0 139 -35 139 -94
c0 -50 -45 -84 -102 -104v-2c52 -30 80 -58 80 -103c0 -79 -78 -142 -180 -142zM617 -73c49 0 85 26 85 64c0 35 -34 55 -107 96c-25 -22 -55 -45 -55 -93c0 -42 25 -67 77 -67zM681 151c26 20 53 44 53 82c0 37 -23 59 -63 59c-43 0 -75 -23 -75 -58c0 -32 27 -52 85 -83z
" />
    <glyph glyph-name="fiveeighths" unicode="&#x215d;" horiz-adv-x="851" 
d="M126 -50l596 764h65l-594 -764h-67zM163 257c-74 0 -123 25 -123 71c0 24 16 48 46 48c27 0 42 -8 45 -47c1 -29 7 -36 37 -36c51 0 91 30 91 86c0 54 -40 80 -95 80c-36 0 -57 -7 -70 -12l-10 6l63 240h167c19 0 24 4 42 34h31l-28 -113h-190l-20 -80c13 3 29 6 59 6
c86 0 150 -41 150 -119c0 -100 -92 -164 -195 -164zM608 -113c-95 0 -160 42 -160 100c0 57 48 94 114 117v3c-37 25 -56 53 -56 91c0 82 81 134 165 134c74 0 138 -35 138 -94c0 -50 -44 -84 -101 -104v-2c51 -30 80 -58 80 -103c0 -79 -79 -142 -180 -142zM613 -73
c49 0 85 26 85 64c0 35 -34 55 -108 96c-24 -22 -55 -45 -55 -93c0 -42 25 -67 78 -67zM677 151c25 20 53 44 53 82c0 37 -24 59 -63 59c-43 0 -75 -23 -75 -58c0 -32 26 -52 85 -83z" />
    <glyph glyph-name="twothirds" unicode="&#x2154;" horiz-adv-x="903" 
d="M156 -50l596 764h65l-594 -764h-67zM24 266l9 53c61 43 112 76 149 113c59 53 97 108 97 179c0 40 -24 53 -54 53c-20 0 -28 -7 -32 -29c-5 -47 -21 -56 -53 -56c-34 0 -46 20 -46 43c0 47 60 79 142 79c83 0 149 -39 149 -113c0 -96 -110 -167 -256 -240v-3h137
c30 0 36 9 64 52h29l-30 -131h-305zM633 -113c-83 0 -137 26 -137 75c0 31 17 49 46 49c33 0 47 -13 51 -55c3 -25 5 -33 31 -33c57 0 88 54 88 117c0 43 -24 57 -69 57h-31l9 45h25c63 0 87 39 87 103c0 33 -18 50 -50 50c-21 0 -30 -5 -33 -27c-4 -42 -18 -51 -48 -51
s-46 16 -46 40c0 43 57 75 137 75c90 0 143 -38 143 -96c0 -55 -35 -95 -123 -110v-4c67 -7 113 -40 113 -96c0 -86 -82 -139 -193 -139z" />
    <glyph glyph-name="seveneighths" unicode="&#x215e;" horiz-adv-x="821" 
d="M63 -50l596 764h65l-594 -764h-67zM73 266c50 146 149 256 251 348h-160c-28 0 -36 -7 -61 -51h-29l31 130h295l-9 -50c-116 -117 -165 -231 -194 -377h-124zM559 -113c-95 0 -160 42 -160 100c0 57 48 94 114 117v3c-37 25 -56 53 -56 91c0 82 81 134 165 134
c74 0 139 -35 139 -94c0 -50 -45 -84 -102 -104v-2c52 -30 80 -58 80 -103c0 -79 -78 -142 -180 -142zM564 -73c49 0 85 26 85 64c0 35 -34 55 -107 96c-25 -22 -56 -45 -56 -93c0 -42 25 -67 78 -67zM628 151c25 20 53 44 53 82c0 37 -24 59 -63 59c-43 0 -75 -23 -75 -58
c0 -32 26 -52 85 -83z" />
    <glyph glyph-name="uni24C5" unicode="&#x24c5;" horiz-adv-x="814" 
d="M423 -14c-205 0 -361 161 -361 358s156 356 361 356c204 0 363 -159 363 -356s-159 -358 -363 -358zM423 26c184 0 316 143 316 318s-132 316 -316 316c-185 0 -313 -141 -313 -316s128 -318 313 -318zM397 492v-264c0 -32 4 -35 23 -38l29 -5v-28h-194v28l21 4
c18 3 22 6 22 39v233c0 34 -4 35 -21 39l-22 5v27h191c106 0 159 -39 159 -116c0 -76 -53 -118 -128 -118c-25 0 -46 5 -53 9v24c56 -1 80 20 80 82c0 63 -20 84 -68 84c-18 0 -35 -3 -39 -5z" />
    <glyph glyph-name="dollar.old" horiz-adv-x="506" 
d="M455 199c0 -111 -100 -202 -232 -210l-17 -100h-50l17 100c-128 7 -178 58 -178 112c0 39 23 59 58 59c39 0 58 -15 62 -63c2 -42 10 -60 66 -64l45 254c-103 59 -142 108 -142 182c0 116 102 191 215 198l14 76h49l-14 -76c111 -7 162 -52 162 -104
c0 -40 -22 -61 -56 -61c-33 0 -55 17 -59 69c-4 33 -14 49 -54 53l-42 -234c110 -60 156 -110 156 -191zM351 146c0 50 -28 83 -81 116l-39 -229c76 7 120 54 120 113zM181 517c0 -37 19 -67 74 -102l37 210c-64 -5 -111 -44 -111 -108z" />
    <glyph glyph-name="Euro.old" horiz-adv-x="580" 
d="M45 372l9 51h74c59 155 188 247 319 247c96 0 157 -43 157 -101c0 -40 -23 -62 -59 -62c-39 0 -61 18 -66 70c-4 40 -10 49 -42 49c-82 0 -151 -86 -188 -203h213l-17 -51h-209c-6 -28 -10 -57 -13 -86h195l-17 -51h-180v-3c0 -122 48 -175 150 -175c63 0 109 18 148 39
l-6 -43c-39 -34 -100 -65 -192 -65c-146 0 -225 92 -226 247h-74l9 51h67c2 30 7 59 14 86h-66z" />
    <glyph glyph-name="sterling.old" horiz-adv-x="502" 
d="M47 314l8 51h56c-4 25 -7 51 -7 77c1 130 95 228 252 228c102 0 157 -43 157 -93c0 -44 -25 -63 -60 -63c-38 0 -60 23 -65 70c-4 34 -11 43 -38 43c-53 0 -102 -40 -112 -122c-6 -38 -6 -92 -8 -140h165l-8 -51h-159c0 -10 -1 -20 -2 -28c-9 -73 -52 -136 -127 -182v-5
h242c39 0 52 7 93 74h31l-43 -173h-440l14 76c87 48 127 99 128 180c0 18 -2 37 -5 58h-72z" />
    <glyph glyph-name="yen.old" horiz-adv-x="574" 
d="M58 283l8 51h153l-70 200c-21 59 -31 77 -54 83l-21 7l7 34h268l-8 -34l-24 -6c-28 -7 -42 -18 -43 -38c-1 -13 5 -31 14 -58l52 -165h4l110 166c19 29 29 52 29 66c-1 13 -7 22 -31 28l-24 7l7 34h201l-7 -34l-23 -6c-33 -8 -44 -27 -92 -96l-130 -188h154l-9 -51h-168
l-15 -84h166l-8 -51h-167l-7 -42c-8 -51 -5 -57 24 -64l39 -7l-7 -35h-286l6 35l41 7c32 6 37 13 47 64l7 42h-168l8 51h170l15 84h-168z" />
    <glyph glyph-name="zero.old" horiz-adv-x="605" 
d="M271 -12c-128 0 -227 82 -227 233c0 216 148 370 311 370c124 0 232 -76 232 -237c0 -217 -152 -366 -316 -366zM274 34c119 0 183 209 183 362c0 98 -31 148 -100 148c-114 0 -184 -214 -184 -365c0 -100 34 -145 101 -145z" />
    <glyph glyph-name="one.old" horiz-adv-x="371" 
d="M-1 0l6 35l48 8c33 6 41 10 49 52l63 359l-91 4l5 37c94 19 158 50 211 98l29 -7l-87 -491c-7 -40 -5 -48 25 -52l51 -8l-5 -35h-304z" />
    <glyph glyph-name="two.old" horiz-adv-x="502" 
d="M443 92l-29 -92h-428l12 62c74 49 163 107 236 169c82 70 127 139 127 219c0 68 -39 97 -95 97c-31 0 -47 -14 -50 -41c-6 -51 -30 -77 -70 -77c-42 0 -61 26 -61 60c0 53 64 102 185 102c134 0 220 -59 220 -157c0 -147 -175 -233 -374 -339v-3h327z" />
    <glyph glyph-name="three.old" horiz-adv-x="515" 
d="M184 -123c-123 0 -192 41 -192 109c0 34 24 57 61 57s57 -21 64 -65c6 -47 18 -58 63 -58c92 0 158 71 158 197c0 77 -39 108 -116 108h-54l8 50h46c97 0 142 58 143 170c0 71 -34 101 -98 101c-43 0 -56 -17 -60 -49c-6 -50 -28 -69 -64 -69c-38 0 -60 23 -60 56
c0 55 66 107 193 107c132 0 212 -68 212 -155c0 -89 -56 -158 -174 -180v-3c94 -15 155 -62 155 -155c0 -131 -127 -221 -285 -221z" />
    <glyph glyph-name="four.old" horiz-adv-x="570" 
d="M395 -112h-126l30 177h-295l8 53l422 469h79l-77 -454h106l-15 -68h-102zM97 133h213l50 295h-3l-260 -292v-3z" />
    <glyph glyph-name="five.old" horiz-adv-x="514" 
d="M506 578l-23 -101h-299l-39 -161c24 7 58 14 96 14c125 0 226 -65 226 -196c0 -155 -130 -257 -284 -257c-114 0 -181 42 -181 103c0 36 23 60 60 60c38 0 59 -21 66 -67c6 -43 16 -53 63 -53c90 0 161 60 161 164c0 98 -70 138 -157 138c-52 0 -99 -11 -120 -21l-8 7
l88 370h351z" />
    <glyph glyph-name="six.old" horiz-adv-x="576" 
d="M272 -12c-136 0 -227 92 -227 262c0 268 180 455 380 455c101 0 161 -39 161 -92c0 -37 -24 -61 -60 -61c-38 0 -60 22 -67 70c-4 30 -17 39 -45 39c-82 0 -184 -91 -225 -291c40 27 95 50 158 50c116 0 190 -71 190 -181c0 -152 -117 -251 -265 -251zM274 34
c84 0 134 86 134 205c0 84 -37 125 -104 125c-46 0 -91 -18 -123 -38c-7 -43 -12 -84 -12 -136c0 -82 21 -156 105 -156z" />
    <glyph glyph-name="seven.old" horiz-adv-x="508" 
d="M80 -112c78 263 228 430 378 584h-279c-39 0 -49 -9 -83 -76h-32l41 182h449l-9 -57c-170 -192 -266 -372 -322 -633h-143z" />
    <glyph glyph-name="eight.old" horiz-adv-x="554" 
d="M257 -12c-132 0 -237 62 -237 168c0 91 80 151 180 194v4c-67 46 -97 98 -97 155c0 109 105 196 230 196c118 0 205 -62 205 -152c0 -83 -66 -136 -157 -178v-4c90 -57 131 -104 131 -179c0 -110 -103 -204 -255 -204zM347 398c42 33 94 77 94 152c0 66 -41 108 -112 108
c-77 0 -122 -48 -122 -107c0 -64 61 -107 140 -153zM262 34c85 0 142 49 142 119c0 73 -65 110 -173 175c-43 -33 -107 -82 -107 -166c0 -73 51 -128 138 -128z" />
    <glyph glyph-name="nine.old" horiz-adv-x="579" 
d="M320 591c134 0 233 -91 233 -267c0 -274 -178 -447 -378 -447c-106 0 -160 38 -160 92c0 33 22 58 58 58c37 0 58 -20 65 -63c4 -30 15 -46 48 -46c102 0 187 89 223 292c-42 -28 -100 -51 -160 -51c-113 0 -186 71 -186 183c0 141 107 249 257 249zM318 545
c-80 0 -129 -86 -129 -204c0 -79 33 -124 100 -124c52 0 94 19 128 39c9 45 12 81 12 132c0 93 -30 157 -111 157z" />
    <glyph glyph-name="percent.old" horiz-adv-x="782" 
d="M202 366c55 0 95 95 95 189c0 52 -17 76 -49 76c-54 0 -94 -99 -94 -190c0 -51 15 -75 48 -75zM200 327c-77 0 -139 52 -139 138c0 109 92 204 188 204c75 0 140 -51 140 -138c0 -110 -92 -204 -189 -204zM69 -48l584 726h64l-581 -726h-67zM561 26c54 0 94 94 94 189
c0 52 -16 76 -48 76c-55 0 -95 -99 -95 -190c0 -51 16 -75 49 -75zM559 -13c-78 0 -140 52 -140 139c0 109 92 202 189 202c74 0 140 -50 140 -137c0 -111 -93 -204 -189 -204z" />
    <glyph glyph-name="perthousand.old" horiz-adv-x="1155" 
d="M201 366c55 0 96 95 96 189c0 52 -17 76 -49 76c-55 0 -96 -99 -96 -190c0 -51 16 -75 49 -75zM200 327c-78 0 -140 52 -140 138c0 109 92 204 189 204c75 0 140 -51 140 -138c0 -110 -92 -204 -189 -204zM70 -48l583 726h65l-580 -726h-68zM564 26c54 0 95 94 95 189
c0 52 -16 76 -48 76c-55 0 -96 -99 -96 -190c0 -51 16 -75 49 -75zM562 -13c-77 0 -139 52 -139 139c0 109 91 202 188 202c75 0 141 -50 141 -137c0 -111 -93 -204 -190 -204zM935 26c55 0 95 94 95 189c0 52 -17 76 -49 76c-55 0 -95 -99 -95 -190c0 -51 15 -75 49 -75z
M933 -13c-77 0 -140 52 -140 139c0 109 92 202 189 202c75 0 140 -50 140 -137c0 -111 -92 -204 -189 -204z" />
    <glyph glyph-name="plus.old" horiz-adv-x="487" 
d="M215 91v176h-160v62h160v177h72v-177h160v-62h-160v-176h-72z" />
    <glyph glyph-name="minus.old" horiz-adv-x="487" 
d="M55 267v62h395v-62h-395z" />
    <glyph glyph-name="multiply.old" horiz-adv-x="461" 
d="M99 101l-47 45l141 145l-139 143l49 45l136 -142l139 142l46 -44l-139 -143l141 -145l-48 -46l-141 144z" />
    <glyph glyph-name="divide.old" horiz-adv-x="487" 
d="M252 50c-40 0 -73 32 -73 72c0 39 33 72 73 72c41 0 74 -33 74 -72c0 -40 -33 -72 -74 -72zM252 401c-40 0 -73 33 -73 72s33 72 73 72c41 0 74 -33 74 -72s-33 -72 -74 -72zM55 267v62h395v-62h-395z" />
    <glyph glyph-name="equal.old" horiz-adv-x="529" 
d="M54 175v62h435v-62h-435zM54 343v63h435v-63h-435z" />
    <glyph glyph-name="less.old" horiz-adv-x="487" 
d="M445 78l-393 174v73l393 173v-70l-327 -139l327 -140v-71z" />
    <glyph glyph-name="greater.old" horiz-adv-x="487" 
d="M448 252l-392 -174v71l327 140l-327 139v70l392 -173v-73z" />
    <glyph glyph-name="plusminus.old" horiz-adv-x="487" 
d="M55 0v63h394v-63h-394zM216 157v161h-161v62h161v161h72v-161h161v-62h-161v-161h-72z" />
    <glyph glyph-name="notequal.old" horiz-adv-x="529" 
d="M54 344v61h247l73 133h62l-73 -133h126v-61h-159l-59 -108h218v-60h-251l-71 -130h-62l71 130h-122v60h155l59 108h-214z" />
    <glyph glyph-name="approxequal.old" horiz-adv-x="529" 
d="M447 449l50 -23c-28 -60 -59 -105 -122 -105c-60 0 -152 45 -202 45c-32 0 -54 -32 -66 -65l-50 24c20 55 58 103 120 103c58 0 149 -45 201 -45c33 0 52 30 69 66zM447 288l50 -23c-28 -60 -59 -105 -122 -105c-60 0 -152 45 -202 45c-32 0 -54 -32 -66 -64l-50 24
c20 55 58 102 120 102c58 0 149 -45 201 -45c33 0 52 31 69 66z" />
    <glyph glyph-name="lessequal.old" horiz-adv-x="487" 
d="M442 128l-391 158v73l391 158v-71l-326 -123l326 -124v-71zM51 0v63h391v-63h-391z" />
    <glyph glyph-name="greaterequal.old" horiz-adv-x="487" 
d="M442 286l-392 -159v72l326 124l-326 123v71l392 -158v-73zM442 63v-63h-392v63h392z" />
    <glyph glyph-name="numbersign.old" horiz-adv-x="501" 
d="M62 0l49 181h-81l22 83h86l36 135h-84l21 83h85l50 176h59l-51 -176h104l51 176h58l-51 -176h83l-21 -83h-85l-35 -135h82l-23 -83h-85l-48 -181h-58l49 181h-105l-49 -181h-59zM195 264h105l35 135h-105z" />
    <glyph glyph-name="dollar.tab" 
d="M513 211c0 -119 -106 -213 -248 -221l-17 -100h-51l18 100c-135 7 -188 58 -188 115c0 43 26 63 61 63c43 0 62 -15 65 -67c3 -43 11 -64 70 -68l48 269c-108 61 -150 112 -150 191c0 122 108 201 230 208l12 65h50l-12 -65c120 -7 170 -56 170 -108
c0 -42 -25 -66 -60 -66c-42 0 -57 19 -62 75c-4 36 -14 52 -56 56l-45 -246c116 -65 165 -116 165 -201zM401 154c0 51 -28 86 -84 122l-44 -243c81 7 128 57 128 121zM226 546c0 -39 19 -71 77 -109l40 222c-65 -6 -117 -45 -117 -113z" />
    <glyph glyph-name="Euro.tab" 
d="M54 392l10 52h68c60 163 192 261 318 261c109 0 165 -44 165 -104c0 -43 -22 -69 -64 -69c-43 0 -62 15 -67 74c-4 44 -11 54 -44 54c-81 0 -146 -92 -179 -216h203l-18 -52h-197c-6 -30 -10 -60 -12 -91h180l-18 -52h-164v-5c0 -129 42 -186 145 -186
c58 0 102 17 143 39l-6 -44c-44 -35 -101 -66 -194 -66c-145 0 -224 96 -224 261v1h-72l11 52h63c3 32 8 62 15 91h-62z" />
    <glyph glyph-name="sterling.tab" 
d="M90 332l10 52h56c-4 27 -7 55 -7 83c1 136 99 238 258 238c104 0 168 -37 168 -95c0 -48 -24 -67 -65 -67c-46 0 -65 22 -69 72c-4 37 -8 45 -39 45c-53 0 -100 -41 -111 -126c-6 -41 -8 -99 -10 -150h168l-9 -52h-162c0 -11 -1 -21 -2 -30c-11 -79 -58 -145 -136 -193
v-6h251c40 0 53 7 97 79h32l-46 -182h-456l15 79c91 50 134 106 136 191c0 19 -2 40 -5 62h-74z" />
    <glyph glyph-name="yen.tab" 
d="M61 287l10 52h159l-78 225c-21 61 -32 81 -56 87l-22 7l8 35h281l-8 -35l-28 -6c-31 -7 -43 -22 -43 -43c0 -15 6 -33 13 -59l55 -181h5l119 183c19 30 31 54 31 69s-6 24 -31 31l-22 6l7 35h205l-7 -35l-25 -6c-32 -8 -49 -31 -96 -101l-145 -212h161l-10 -52h-171
l-12 -66h171l-9 -52h-171l-10 -59c-10 -52 -6 -59 25 -66l41 -8l-7 -36h-300l7 36l43 8c33 7 39 12 49 66l11 59h-171l10 52h170l12 66h-171z" />
    <glyph glyph-name="zero.tab" 
d="M260 -10c-113 0 -218 89 -218 274c0 264 186 441 327 441c107 0 214 -91 214 -277c0 -242 -162 -438 -323 -438zM260 39c135 0 192 359 192 486c0 84 -30 131 -85 131c-128 0 -194 -344 -194 -487c0 -86 33 -130 87 -130z" />
    <glyph glyph-name="one.tab" 
d="M70 0l7 36l74 8c35 6 46 11 56 66l76 433l-116 7l6 37c123 17 192 60 248 116l26 -8l-104 -585c-9 -52 -3 -60 29 -65l72 -9l-7 -36h-367z" />
    <glyph glyph-name="two.tab" 
d="M9 0l14 72c95 68 183 132 245 186c99 90 161 171 161 294c0 81 -41 108 -99 108c-34 0 -50 -13 -53 -46c-6 -61 -31 -80 -75 -80c-48 0 -62 28 -62 60c0 65 83 111 204 111c126 0 221 -64 221 -179c0 -164 -198 -286 -419 -417v-4h226c53 0 64 8 109 78h34l-47 -183h-459
z" />
    <glyph glyph-name="three.tab" 
d="M223 -13c-125 0 -201 37 -201 111c0 38 21 67 67 67c48 0 66 -20 70 -72c4 -50 13 -59 55 -59c102 0 154 88 154 198c0 70 -31 105 -109 105h-51l9 51h45c92 0 140 49 140 181c0 64 -27 91 -89 91c-35 0 -56 -11 -59 -48c-7 -54 -24 -72 -66 -72c-41 0 -62 22 -62 57
c0 64 84 108 199 108c137 0 210 -67 210 -154c0 -96 -66 -162 -190 -185v-3c106 -15 168 -70 168 -154c0 -135 -137 -222 -290 -222z" />
    <glyph glyph-name="four.tab" 
d="M205 0l6 36l42 8c30 7 40 11 50 66l14 83h-282l10 54l418 446h69l-79 -431h93l-16 -69h-89l-14 -83c-9 -51 -6 -58 25 -65l41 -9l-7 -36h-281zM125 262h204l50 271h-3l-251 -268v-3z" />
    <glyph glyph-name="five.tab" 
d="M225 -13c-112 0 -186 40 -186 106c0 38 21 66 67 66c43 0 61 -14 66 -73c3 -38 8 -52 63 -52c91 0 161 55 161 158c0 100 -63 142 -151 142c-54 0 -101 -13 -123 -23l-8 7l99 375h269c28 0 35 7 65 53h34l-41 -159h-301l-40 -156c21 8 45 14 103 14
c125 0 219 -66 219 -195c0 -166 -145 -263 -296 -263z" />
    <glyph glyph-name="six.tab" 
d="M280 -13c-135 0 -222 94 -222 257c0 280 213 461 393 461c109 0 154 -36 154 -91c0 -38 -20 -65 -62 -65c-47 0 -63 18 -68 72c-5 32 -13 39 -43 39c-79 0 -169 -96 -217 -290c37 23 83 46 154 46c106 0 171 -63 171 -170c0 -151 -111 -259 -260 -259zM282 37
c86 0 121 109 121 217c0 77 -26 108 -83 108c-49 0 -82 -18 -114 -38c-8 -49 -16 -100 -16 -163c0 -68 15 -124 92 -124z" />
    <glyph glyph-name="seven.tab" 
d="M114 0c86 256 243 439 399 587h-273c-40 0 -50 -10 -87 -75h-34l45 181h451l-11 -60c-177 -189 -279 -375 -340 -633h-150z" />
    <glyph glyph-name="eight.tab" 
d="M273 -13c-131 0 -238 64 -238 166c0 91 82 154 186 196v3c-56 41 -91 87 -91 147c0 124 112 206 233 206c109 0 205 -58 205 -154c0 -83 -81 -135 -164 -174v-5c78 -50 124 -96 124 -169c0 -118 -110 -216 -255 -216zM277 37c88 0 139 50 139 116c0 68 -63 110 -164 171
c-44 -33 -107 -82 -107 -166c0 -68 45 -121 132 -121zM373 402c41 33 95 75 95 150c0 65 -40 105 -110 105c-72 0 -119 -47 -119 -106c0 -62 52 -102 134 -149z" />
    <glyph glyph-name="nine.tab" 
d="M178 -13c-102 0 -158 35 -158 92c0 36 25 64 65 64c43 0 59 -22 68 -71c5 -31 14 -39 42 -39c108 0 175 98 212 287c-37 -23 -81 -44 -152 -44c-106 0 -171 65 -171 169c0 153 126 260 260 260c133 0 222 -87 222 -264c0 -259 -176 -454 -388 -454zM307 332
c44 0 79 18 110 37c12 53 18 103 18 162c0 64 -17 125 -93 125c-83 0 -121 -112 -121 -217c0 -73 27 -107 86 -107z" />
    <glyph glyph-name="cent.tab" 
d="M247 -130l21 118c-9 -1 -19 -1 -28 -1c-96 0 -167 63 -167 161c0 200 153 348 290 375l14 80h52l-14 -75c98 -2 147 -41 147 -85c0 -40 -20 -62 -57 -62c-40 0 -58 14 -62 67c-2 23 -10 34 -35 37l-76 -428c47 13 91 46 128 82l26 -27c-33 -40 -86 -92 -165 -114
l-22 -128h-52zM198 173c0 -78 32 -117 81 -122l76 427c-79 -33 -157 -170 -157 -305z" />
    <glyph glyph-name="percent.tab" horiz-adv-x="800" 
d="M208 385c56 0 96 110 96 202c0 54 -17 78 -50 78c-57 0 -97 -113 -97 -202c0 -53 17 -78 51 -78zM206 346c-75 0 -144 50 -144 144c0 117 96 214 193 214c73 0 144 -50 144 -142c0 -120 -97 -216 -193 -216zM133 -50h-68l610 764h67zM574 26c56 0 97 109 97 202
c0 54 -17 78 -51 78c-57 0 -97 -113 -97 -202c0 -53 17 -78 51 -78zM572 -13c-74 0 -143 50 -143 143c0 118 96 215 192 215c73 0 145 -50 145 -143c0 -119 -97 -215 -194 -215z" />
    <glyph glyph-name="perthousand.tab" horiz-adv-x="1100" 
d="M186 385c55 0 96 110 96 202c0 54 -17 78 -49 78c-56 0 -97 -113 -97 -202c0 -53 17 -78 50 -78zM183 346c-72 0 -139 50 -139 143c0 118 94 215 190 215c71 0 140 -51 140 -143c0 -120 -96 -215 -191 -215zM26 -50l616 764h68l-616 -764h-68zM528 26c56 0 96 109 96 202
c0 54 -16 78 -49 78c-56 0 -96 -113 -96 -202c0 -53 16 -78 49 -78zM526 -13c-72 0 -139 50 -139 143c0 118 94 215 190 215c70 0 140 -51 140 -143c0 -121 -96 -215 -191 -215zM892 26c54 0 95 109 95 202c0 54 -16 78 -49 78c-56 0 -97 -113 -97 -202c0 -53 17 -78 51 -78
zM890 -13c-73 0 -140 50 -140 143c0 118 94 215 189 215c71 0 141 -51 141 -143c0 -121 -96 -215 -190 -215z" />
    <glyph glyph-name="plus.tab" 
d="M270 119v187h-171v62h171v187h72v-187h171v-62h-171v-187h-72z" />
    <glyph glyph-name="minus.tab" 
d="M99 306v62h415v-62h-415z" />
    <glyph glyph-name="multiply.tab" 
d="M162 140l-47 45l148 151l-146 150l50 46l142 -149l145 149l46 -44l-146 -151l148 -151l-48 -46l-147 151z" />
    <glyph glyph-name="divide.tab" 
d="M307 93c-41 0 -73 33 -73 73c0 39 32 71 73 71s74 -32 74 -71c0 -40 -33 -73 -74 -73zM307 448c-41 0 -73 33 -73 72c0 40 32 72 73 72s74 -32 74 -72c0 -39 -33 -72 -74 -72zM105 312v62h405v-62h-405z" />
    <glyph glyph-name="equal.tab" 
d="M84 219v63h449v-63h-449zM84 388v63h449v-63h-449z" />
    <glyph glyph-name="less.tab" 
d="M493 117l-400 174v73l400 174v-70l-336 -140l336 -140v-71z" />
    <glyph glyph-name="greater.tab" 
d="M121 118v70l336 140l-336 140v70l399 -173v-73z" />
    <glyph glyph-name="florin.tab" 
d="M122 350l12 52h102l20 78c40 158 133 223 243 223c77 0 117 -34 117 -79c0 -33 -20 -55 -56 -55c-37 0 -56 15 -60 62c-2 26 -6 31 -21 31c-31 0 -56 -25 -77 -106l-40 -154h138l-13 -52h-138l-80 -312c-42 -161 -117 -235 -220 -235c-77 0 -106 34 -106 71
c0 32 18 50 53 50c31 0 47 -11 51 -50c3 -27 8 -33 19 -33c21 0 35 18 49 74l108 435h-101z" />
    <glyph glyph-name="plusminus.tab" 
d="M99 0v63h413v-63h-413zM270 152v170h-171v63h171v170h72v-170h170v-63h-170v-170h-72z" />
    <glyph glyph-name="notequal.tab" 
d="M84 389v60h255l76 133h62l-76 -133h132v-60h-166l-61 -108h227v-60h-261l-73 -130h-62l73 130h-126v60h160l61 108h-221z" />
    <glyph glyph-name="approxequal.tab" 
d="M491 489l50 -23c-28 -60 -59 -105 -122 -105c-62 0 -170 46 -222 46c-31 0 -53 -33 -66 -65l-50 24c21 55 59 102 120 102s166 -45 221 -45c33 0 52 31 69 66zM491 329l50 -24c-28 -59 -59 -104 -122 -104c-62 0 -170 45 -222 45c-31 0 -53 -32 -66 -65l-50 24
c21 55 59 103 120 103s166 -46 221 -46c33 0 52 31 69 67z" />
    <glyph glyph-name="lessequal.tab" 
d="M501 133l-400 164v73l400 164v-71l-336 -129l336 -130v-71zM101 0v63h400v-63h-400z" />
    <glyph glyph-name="greaterequal.tab" 
d="M507 297l-400 -164v71l337 130l-337 129v71l400 -164v-73zM507 63v-63h-400v63h400z" />
    <glyph glyph-name="period.tab" horiz-adv-x="300" 
d="M119 -7c-47 0 -86 38 -86 84c0 47 39 85 86 85c49 0 88 -38 88 -85c0 -46 -39 -84 -88 -84z" />
    <glyph glyph-name="comma.tab" horiz-adv-x="300" 
d="M-48 -169l-9 33c127 42 181 93 185 156c-7 -5 -21 -12 -36 -12c-45 0 -72 31 -72 75c0 48 41 79 88 79c57 0 106 -44 106 -123c0 -96 -94 -186 -262 -208z" />
    <glyph glyph-name="colon.tab" horiz-adv-x="300" 
d="M121 -7c-48 0 -87 38 -87 84c0 47 39 85 87 85c49 0 87 -38 87 -85c0 -46 -38 -84 -87 -84zM173 281c-48 0 -87 38 -87 83c0 48 39 86 87 86s87 -38 87 -86c0 -45 -39 -83 -87 -83z" />
    <glyph glyph-name="semicolon.tab" horiz-adv-x="300" 
d="M-48 -169l-9 33c127 42 181 93 184 156c-6 -5 -20 -12 -35 -12c-46 0 -72 31 -72 75c0 48 41 79 88 79c56 0 106 -44 106 -123c0 -96 -95 -186 -262 -208zM161 281c-48 0 -87 38 -87 83c0 48 39 86 87 86s87 -38 87 -86c0 -45 -39 -83 -87 -83z" />
    <glyph glyph-name="parenleft.tab" horiz-adv-x="400" 
d="M269 -141c-90 85 -182 218 -182 387c0 234 178 406 330 499l23 -27c-144 -121 -241 -307 -241 -511c1 -144 47 -244 103 -324z" />
    <glyph glyph-name="parenright.tab" horiz-adv-x="400" 
d="M1 -141l-23 27c144 121 241 308 241 511c-1 144 -48 244 -103 324l34 24c88 -85 181 -217 181 -387c0 -234 -178 -406 -330 -499z" />
    <glyph glyph-name="bracketleft.tab" horiz-adv-x="400" 
d="M49 -130l157 864h230l-7 -35l-78 -9c-43 -5 -52 -12 -63 -69l-114 -638c-11 -56 -6 -64 37 -69l76 -9l-7 -35h-231z" />
    <glyph glyph-name="bracketright.tab" horiz-adv-x="400" 
d="M-19 -130l7 35l80 9c44 5 52 12 62 69l114 638c12 56 7 64 -36 69l-78 9l8 35h229l-156 -864h-230z" />
    <glyph glyph-name="braceleft.tab" horiz-adv-x="400" 
d="M283 -131c-157 27 -209 50 -209 114c0 66 91 204 91 253c0 29 -23 48 -104 61l8 44c109 4 126 34 126 75c0 43 -17 136 -17 189c0 90 53 123 250 129l-7 -37c-105 -13 -130 -19 -132 -105c-1 -53 2 -105 0 -157c-1 -58 -26 -97 -155 -119v-4c83 -20 116 -48 116 -95
c0 -56 -66 -183 -66 -248c0 -29 26 -44 106 -63z" />
    <glyph glyph-name="braceright.tab" horiz-adv-x="400" 
d="M-9 -131l7 38c105 12 130 20 131 103c1 53 -1 110 0 162c1 59 26 95 156 117v4c-83 20 -117 50 -117 97c0 56 66 180 66 245c0 29 -25 44 -105 63l7 36c156 -26 208 -49 208 -114s-91 -200 -91 -249c0 -29 24 -48 104 -61l-8 -44c-109 -3 -125 -34 -125 -74
c0 -45 16 -140 16 -193c0 -91 -52 -123 -249 -130z" />
    <glyph glyph-name="parenleft.uctab" horiz-adv-x="400" 
d="M278 -95c-90 85 -182 217 -182 386c0 235 178 406 330 499l23 -27c-144 -120 -241 -307 -241 -511c1 -143 48 -244 103 -324z" />
    <glyph glyph-name="parenright.uctab" horiz-adv-x="400" 
d="M7 -95l-23 26c144 121 241 308 241 512c-1 143 -47 243 -103 324l34 23c89 -85 181 -217 181 -386c0 -234 -178 -406 -330 -499z" />
    <glyph glyph-name="bracketleft.uctab" horiz-adv-x="400" 
d="M70 -86l157 864h230l-7 -35l-78 -9c-43 -5 -53 -12 -63 -69l-114 -638c-11 -56 -6 -64 37 -69l76 -9l-7 -35h-231z" />
    <glyph glyph-name="bracketright.uctab" horiz-adv-x="400" 
d="M-17 -86l6 35l81 9c44 5 51 12 61 69l115 638c11 56 6 64 -36 69l-78 9l7 35h229l-156 -864h-229z" />
    <glyph glyph-name="braceleft.uctab" horiz-adv-x="400" 
d="M294 -86c-157 26 -209 49 -209 114s91 204 91 252c0 29 -23 49 -104 62l8 44c109 3 126 33 126 74c0 44 -17 136 -17 189c0 91 53 123 250 129l-7 -36c-106 -13 -130 -19 -132 -105c-1 -53 2 -106 0 -157c-1 -59 -26 -97 -156 -119v-4c84 -21 117 -49 117 -95
c0 -56 -66 -184 -66 -248c0 -30 26 -45 106 -64z" />
    <glyph glyph-name="braceright.uctab" horiz-adv-x="400" 
d="M-6 -86l7 37c105 13 129 20 130 103c1 53 0 111 1 162c1 59 25 95 156 117v4c-84 21 -118 51 -118 97c0 57 66 180 66 245c0 29 -25 44 -105 64l7 35c157 -26 209 -49 209 -113c0 -66 -91 -200 -91 -249c0 -30 23 -49 103 -62l-7 -44c-110 -3 -126 -34 -126 -74
c0 -44 16 -140 16 -192c0 -92 -52 -123 -248 -130z" />
    <glyph glyph-name="space.tab" horiz-adv-x="300" 
 />
    <glyph glyph-name="dollar.oldtab" 
d="M506 199c0 -111 -100 -202 -232 -210l-17 -100h-50l17 100c-127 7 -178 58 -178 112c0 39 24 59 58 59c40 0 59 -15 62 -63c3 -42 11 -60 66 -64l45 254c-102 59 -142 108 -142 182c0 116 102 191 216 198l13 76h49l-14 -76c111 -7 163 -52 163 -104
c0 -40 -23 -61 -57 -61c-33 0 -55 17 -59 69c-3 34 -13 49 -54 53l-41 -234c110 -60 155 -110 155 -191zM402 146c0 50 -28 83 -81 116l-39 -229c77 7 120 54 120 113zM232 517c0 -37 19 -67 75 -102l36 210c-64 -6 -111 -44 -111 -108z" />
    <glyph glyph-name="Euro.oldtab" 
d="M45 372l8 51h68c59 155 187 247 318 247c95 0 157 -43 157 -101c0 -40 -25 -62 -59 -62c-39 0 -61 18 -66 70c-4 40 -11 49 -43 49c-81 0 -149 -86 -185 -203h211l-18 -51h-206c-6 -28 -11 -57 -13 -86h192l-16 -51h-178v-3c0 -122 48 -175 151 -175c63 0 106 18 145 39
l-6 -43c-39 -34 -100 -65 -189 -65c-148 0 -226 92 -227 247h-68l9 51h61c2 30 7 59 14 86h-60z" />
    <glyph glyph-name="sterling.oldtab" horiz-adv-x="599" 
d="M99 314l8 51h57c-4 25 -7 51 -7 77c0 130 94 228 251 228c103 0 158 -43 158 -93c0 -44 -26 -63 -61 -63c-38 0 -60 23 -65 70c-4 34 -10 43 -38 43c-52 0 -101 -40 -112 -122c-6 -38 -6 -92 -8 -140h165l-8 -51h-159c0 -10 -1 -20 -2 -28c-9 -73 -52 -136 -127 -182v-5
h242c40 0 52 7 93 74h31l-43 -173h-440l14 76c87 48 127 99 129 180c0 18 -2 37 -5 58h-73z" />
    <glyph glyph-name="yen.oldtab" 
d="M81 283l9 51h145l-70 200c-20 59 -30 77 -53 83l-22 7l7 34h269l-9 -34l-24 -6c-28 -7 -42 -18 -43 -38c-1 -13 5 -31 14 -58l52 -163h4l108 164c20 29 30 52 30 66c-1 13 -7 22 -32 28l-23 7l7 34h200l-7 -34l-22 -6c-34 -8 -45 -26 -92 -96l-129 -188h146l-9 -51h-160
l-15 -84h158l-8 -51h-159l-7 -42c-8 -51 -5 -57 24 -64l39 -7l-7 -35h-286l6 35l41 7c31 6 37 13 47 64l7 42h-161l9 51h162l15 84h-161z" />
    <glyph glyph-name="zero.oldtab" 
d="M271 -12c-127 0 -217 80 -217 233c0 217 139 370 301 370c120 0 217 -73 217 -237c0 -217 -135 -366 -301 -366zM272 34c108 0 170 209 170 362c0 98 -28 148 -88 148c-108 0 -171 -214 -171 -365c0 -98 28 -145 89 -145z" />
    <glyph glyph-name="one.oldtab" 
d="M89 0l6 35l66 9c34 4 47 11 55 52l63 359l-110 4l5 36c99 19 174 47 231 98l28 -7l-87 -490c-7 -41 1 -48 30 -52l70 -9l-5 -35h-352z" />
    <glyph glyph-name="two.oldtab" 
d="M488 92l-29 -92h-428l11 62c74 49 163 107 236 169c82 70 128 139 128 219c0 68 -39 97 -96 97c-31 0 -47 -14 -49 -41c-7 -51 -31 -77 -71 -77c-42 0 -61 26 -61 60c0 53 64 102 185 102c134 0 220 -59 220 -157c0 -147 -174 -233 -374 -339v-3h328z" />
    <glyph glyph-name="three.oldtab" 
d="M217 -123c-123 0 -193 41 -193 109c0 34 25 57 61 57c37 0 58 -21 65 -65c6 -47 17 -58 63 -58c91 0 158 71 158 197c0 77 -39 108 -116 108h-54l8 50h46c97 0 142 58 143 170c0 71 -34 101 -98 101c-43 0 -56 -17 -60 -49c-6 -50 -28 -69 -64 -69c-38 0 -60 23 -60 56
c0 55 66 107 193 107c132 0 211 -68 211 -155c0 -89 -55 -158 -173 -180v-3c94 -15 155 -62 155 -155c0 -131 -127 -221 -285 -221z" />
    <glyph glyph-name="four.oldtab" 
d="M383 -112h-124l30 177h-290l9 53l416 469h77l-77 -454h106l-16 -68h-101zM93 133h207l50 295h-3l-254 -292v-3z" />
    <glyph glyph-name="five.oldtab" 
d="M541 578l-23 -101h-300l-38 -161c24 7 58 14 95 14c126 0 227 -65 227 -196c0 -155 -131 -257 -284 -257c-114 0 -181 42 -181 103c0 36 23 60 60 60c38 0 59 -21 66 -67c6 -43 16 -53 63 -53c90 0 161 60 161 164c0 98 -70 138 -158 138c-51 0 -98 -11 -120 -21l-7 7
l88 370h351z" />
    <glyph glyph-name="six.oldtab" 
d="M285 -12c-138 0 -223 89 -223 256c0 267 177 461 382 461c101 0 161 -39 161 -92c0 -37 -25 -61 -61 -61c-37 0 -60 22 -67 70c-4 30 -17 39 -44 39c-83 0 -185 -91 -226 -291c39 27 91 50 155 50c116 0 186 -70 186 -180c0 -157 -120 -252 -263 -252zM287 34
c81 0 132 86 132 205c0 84 -35 125 -100 125c-46 0 -88 -18 -120 -38c-7 -43 -13 -84 -13 -136c0 -82 19 -156 101 -156z" />
    <glyph glyph-name="seven.oldtab" 
d="M107 -112c80 264 240 431 393 584h-279c-39 0 -49 -9 -84 -76h-32l43 182h449l-9 -56c-174 -193 -281 -372 -339 -634h-142z" />
    <glyph glyph-name="eight.oldtab" 
d="M283 -12c-131 0 -235 62 -235 167c0 90 82 153 183 195v4c-59 45 -90 93 -90 153c0 108 93 198 229 198c117 0 200 -66 200 -153c0 -84 -66 -136 -159 -178v-4c77 -49 123 -99 123 -178c0 -108 -100 -204 -251 -204zM378 397c43 34 97 77 97 153c0 66 -41 109 -112 109
c-76 0 -118 -50 -118 -109c0 -63 55 -106 133 -153zM288 34c87 0 138 52 138 120c0 71 -66 114 -164 174c-44 -33 -110 -82 -110 -167c0 -71 50 -127 136 -127z" />
    <glyph glyph-name="nine.oldtab" 
d="M324 591c133 0 230 -87 230 -265c0 -275 -178 -449 -379 -449c-106 0 -160 38 -160 92c0 33 23 58 58 58c37 0 59 -20 65 -63c4 -30 15 -46 48 -46c102 0 188 91 223 292c-42 -28 -94 -51 -153 -51c-115 0 -184 71 -184 183c0 140 103 249 252 249zM322 545
c-76 0 -124 -86 -124 -204c0 -79 32 -124 98 -124c52 0 88 19 121 39c9 45 13 81 13 132c0 93 -29 157 -108 157z" />
    <glyph glyph-name="percent.oldtab" horiz-adv-x="800" 
d="M210 366c55 0 94 95 94 189c0 52 -16 76 -48 76c-54 0 -93 -99 -93 -190c0 -51 14 -75 47 -75zM208 327c-78 0 -138 52 -138 138c0 109 90 204 187 204c75 0 138 -51 138 -138c0 -110 -90 -204 -187 -204zM76 -48l575 726h64l-572 -726h-67zM558 26c54 0 93 94 93 189
c0 52 -15 76 -48 76c-54 0 -93 -99 -93 -190c0 -51 15 -75 48 -75zM556 -13c-78 0 -139 52 -139 139c0 109 91 202 187 202c75 0 140 -50 140 -137c0 -111 -93 -204 -188 -204z" />
    <glyph glyph-name="perthousand.oldtab" horiz-adv-x="1155" 
d="M203 366c55 0 94 95 94 189c0 52 -16 76 -48 76c-54 0 -94 -99 -94 -190c0 -51 15 -75 48 -75zM202 327c-78 0 -139 52 -139 138c0 109 91 204 187 204c75 0 139 -51 139 -138c0 -110 -91 -204 -187 -204zM70 -48l575 726h65l-573 -726h-67zM554 26c55 0 94 94 94 189
c0 52 -15 76 -48 76c-54 0 -94 -99 -94 -190c0 -51 15 -75 48 -75zM552 -13c-77 0 -139 52 -139 139c0 109 92 202 188 202c75 0 140 -50 140 -137c0 -111 -93 -204 -189 -204zM925 26c56 0 94 94 94 189c0 52 -15 76 -47 76c-55 0 -94 -99 -94 -190c0 -51 14 -75 47 -75z
M923 -13c-76 0 -138 52 -138 139c0 109 91 202 188 202c75 0 139 -50 139 -137c0 -111 -92 -204 -189 -204z" />
    <glyph glyph-name="plus.oldtab" 
d="M270 80v187h-171v62h171v187h72v-187h171v-62h-171v-187h-72z" />
    <glyph glyph-name="minus.oldtab" 
d="M102 267v62h408v-62h-408z" />
    <glyph glyph-name="multiply.oldtab" 
d="M162 95l-47 44l148 152l-146 149l50 46l141 -149l146 149l45 -44l-146 -150l148 -152l-48 -45l-147 150z" />
    <glyph glyph-name="divide.oldtab" 
d="M308 50c-40 0 -73 32 -73 72c0 39 33 72 73 72c41 0 74 -33 74 -72c0 -40 -33 -72 -74 -72zM308 401c-40 0 -73 33 -73 72s33 72 73 72c41 0 74 -33 74 -72s-33 -72 -74 -72zM105 267v62h407v-62h-407z" />
    <glyph glyph-name="equal.oldtab" 
d="M81 175v62h449v-62h-449zM81 343v63h449v-63h-449z" />
    <glyph glyph-name="less.oldtab" 
d="M502 78l-400 174v73l400 174v-71l-337 -139l337 -140v-71z" />
    <glyph glyph-name="greater.oldtab" 
d="M116 79v70l337 140l-337 139v71l400 -174v-73z" />
    <glyph glyph-name="plusminus.oldtab" 
d="M99 0v63h413v-63h-413zM270 147v171h-171v62h171v171h72v-171h170v-62h-170v-171h-72z" />
    <glyph glyph-name="notequal.oldtab" 
d="M81 344v61h256l75 133h62l-75 -133h131v-61h-166l-61 -108h227v-60h-261l-73 -130h-61l73 130h-127v60h161l61 108h-222z" />
    <glyph glyph-name="approxequal.oldtab" 
d="M484 449l50 -23c-27 -60 -59 -105 -122 -105c-62 0 -155 45 -207 45c-32 0 -54 -32 -66 -65l-50 24c20 55 58 103 120 103c61 0 152 -45 207 -45c33 0 52 30 68 66zM484 288l50 -23c-27 -60 -59 -105 -122 -105c-62 0 -155 45 -207 45c-32 0 -54 -32 -66 -64l-50 24
c20 55 58 102 120 102c61 0 152 -45 207 -45c33 0 52 31 68 66z" />
    <glyph glyph-name="lessequal.oldtab" 
d="M499 122l-399 164v73l399 164v-70l-336 -130l336 -130v-71zM100 0v63h399v-63h-399z" />
    <glyph glyph-name="greaterequal.oldtab" 
d="M510 286l-400 -164v71l337 130l-337 130v70l400 -164v-73zM510 63v-63h-400v63h400z" />
    <glyph glyph-name="zero.num" horiz-adv-x="453" 
d="M228 256c-96 0 -170 61 -170 173c0 173 132 273 236 273c90 0 167 -60 167 -173c0 -164 -124 -273 -233 -273zM227 297c78 0 123 166 123 273c0 64 -22 92 -58 92c-78 0 -122 -169 -122 -276c0 -63 20 -89 57 -89z" />
    <glyph glyph-name="one.num" horiz-adv-x="280" 
d="M21 266l6 31l26 6c25 7 36 11 43 46l43 234l-61 4l5 34c69 11 131 39 172 80l18 -5l-62 -348c-7 -36 -3 -40 20 -46l29 -5l-6 -31h-233z" />
    <glyph glyph-name="two.num" horiz-adv-x="364" 
d="M18 266l9 53c61 43 112 76 149 113c59 53 97 108 97 179c0 40 -23 53 -54 53c-20 0 -28 -7 -32 -29c-5 -47 -20 -56 -53 -56c-34 0 -46 20 -46 43c0 47 60 79 143 79c82 0 148 -39 148 -113c0 -96 -110 -167 -256 -240v-3h137c30 0 36 9 64 52h29l-30 -131h-305z" />
    <glyph glyph-name="three.num" horiz-adv-x="368" 
d="M163 257c-84 0 -136 25 -136 74c0 32 17 50 46 50c32 0 46 -13 50 -55c3 -26 5 -34 31 -34c57 0 88 54 88 118c0 42 -24 57 -69 57h-30l8 43h25c63 0 87 39 87 104c0 34 -18 51 -50 51c-21 0 -30 -6 -33 -27c-4 -42 -18 -52 -48 -52c-29 0 -46 17 -46 41
c0 42 58 74 137 74c90 0 143 -38 143 -95c0 -55 -35 -97 -123 -112v-2c68 -9 113 -41 113 -96c0 -87 -82 -139 -193 -139z" />
    <glyph glyph-name="four.num" horiz-adv-x="400" 
d="M159 266l6 31l25 6c23 6 28 10 35 47l5 29h-196l9 38l278 276h65l-49 -266h64l-11 -48h-62l-6 -28c-7 -39 -2 -44 21 -49l23 -5l-6 -31h-201zM107 427h132l31 160h-3l-160 -157v-3z" />
    <glyph glyph-name="five.num" horiz-adv-x="362" 
d="M159 257c-75 0 -123 25 -123 71c0 24 16 48 45 48c27 0 43 -8 45 -47c2 -29 8 -36 37 -36c51 0 92 30 92 86c0 54 -41 80 -95 80c-36 0 -58 -7 -71 -12l-9 6l63 240h166c20 0 25 4 43 34h30l-28 -113h-189l-21 -80c14 3 29 6 59 6c86 0 150 -41 150 -119
c0 -100 -91 -164 -194 -164z" />
    <glyph glyph-name="six.num" horiz-adv-x="406" 
d="M214 256c-86 0 -157 57 -157 163c0 175 145 283 262 283c74 0 110 -25 110 -64c0 -27 -16 -48 -46 -48c-32 0 -44 11 -47 49c-2 20 -9 24 -26 24c-46 0 -99 -32 -130 -162c21 13 56 23 103 23c67 0 116 -39 116 -108c0 -89 -76 -160 -185 -160zM215 296
c52 0 76 69 76 126c0 41 -20 59 -54 59c-25 0 -49 -7 -62 -16c-7 -33 -12 -71 -12 -108c0 -33 14 -61 52 -61z" />
    <glyph glyph-name="seven.num" horiz-adv-x="347" 
d="M73 266c50 146 149 256 251 348h-160c-28 0 -36 -7 -61 -51h-29l31 130h295l-9 -50c-116 -117 -165 -231 -194 -377h-124z" />
    <glyph glyph-name="eight.num" horiz-adv-x="386" 
d="M198 256c-95 0 -160 42 -160 101c0 57 47 94 114 117v2c-37 25 -56 54 -56 92c0 81 80 134 165 134c74 0 138 -36 138 -95c0 -50 -44 -83 -101 -104v-2c52 -29 79 -57 79 -103c0 -79 -78 -142 -179 -142zM203 297c49 0 84 25 84 64c0 35 -33 55 -106 95
c-25 -22 -56 -44 -56 -93c0 -42 25 -66 78 -66zM266 520c26 21 54 44 54 83c0 37 -24 59 -64 59c-43 0 -74 -23 -74 -59c0 -31 26 -52 84 -83z" />
    <glyph glyph-name="nine.num" horiz-adv-x="407" 
d="M156 256c-74 0 -113 27 -113 64c0 29 17 47 49 47c31 0 45 -10 49 -49c1 -19 7 -24 24 -24c58 0 104 45 126 162c-21 -12 -56 -21 -102 -21c-68 0 -116 38 -116 106c0 89 80 161 185 161c86 0 156 -56 156 -164c0 -167 -123 -282 -258 -282zM235 477c25 0 47 8 62 17
c8 38 11 71 11 103c0 38 -13 66 -52 66c-52 0 -76 -72 -76 -127c0 -41 19 -59 55 -59z" />
    <glyph glyph-name="zero.den" horiz-adv-x="453" 
d="M153 -113c-95 0 -170 61 -170 172c0 174 133 273 237 273c90 0 167 -59 167 -173c0 -164 -124 -272 -234 -272zM153 -73c78 0 123 166 123 274c0 64 -22 91 -58 91c-77 0 -122 -168 -122 -276c0 -63 21 -89 57 -89z" />
    <glyph glyph-name="one.den" horiz-adv-x="280" 
d="M-54 -104l6 31l27 7c25 6 37 10 43 45l43 235l-63 4l6 33c69 11 133 40 173 80l18 -4l-62 -349c-6 -35 -3 -40 20 -45l30 -6l-6 -31h-235z" />
    </font>
</defs>
</svg>
