<?xml version="1.0" standalone="no"?>
<!DOCTYPE svg PUBLIC "-//W3C//DTD SVG 1.1//EN" "http://www.w3.org/Graphics/SVG/1.1/DTD/svg11.dtd" >
<svg xmlns="http://www.w3.org/2000/svg" xmlns:xlink="http://www.w3.org/1999/xlink" version="1.1">
<metadata>
Created by FontForge 20170910 at Mon Jan 11 11:58:04 2016
 By Jimmy Wärting
\\\\uFFFD 2010 Paul Barnes and Christian Schwartz, under exclusive license to Schwartzco Inc./Commercial Type. All rights reserved.
</metadata>
<defs>
<font id="ChubbPublicoText-Semibold" horiz-adv-x="600" >
  <font-face 
    font-family="Chubb Publico Text Semibold"
    font-weight="600"
    font-stretch="normal"
    units-per-em="1000"
    panose-1="2 4 7 2 6 5 4 6 2 3"
    ascent="781"
    descent="-219"
    x-height="515"
    cap-height="693"
    bbox="-127 -284 1234 1117"
    underline-thickness="50"
    underline-position="-115"
    stemh="52"
    stemv="133"
    unicode-range="U+0020-FB04"
  />
<missing-glyph horiz-adv-x="513" 
 />
    <glyph glyph-name="f_b" unicode="fb" horiz-adv-x="941" 
d="M611 -12c-90 0 -153 14 -212 47v605c-26 7 -39 28 -43 62c-2 20 -9 25 -26 25c-63 0 -109 -24 -109 -119v-93h113l-17 -63h-96v-350c0 -47 4 -53 30 -58l47 -9v-35h-276v35l35 9c27 7 32 13 32 55v353h-72v33l72 30v30c0 139 105 224 249 224c68 0 111 -13 132 -34l51 31
l17 -10s-7 -42 -7 -115v-85c0 -50 -5 -90 -5 -90h5c42 32 104 62 175 62c97 0 201 -58 201 -245c0 -199 -125 -295 -296 -295zM622 37c99 0 148 49 148 219c0 136 -52 195 -128 195c-61 0 -90 -17 -111 -28v-353c24 -21 52 -33 91 -33z" />
    <glyph glyph-name="f_f" unicode="ff" horiz-adv-x="659" 
d="M22 0v35l35 9c27 6 32 13 32 55v353h-72v33l72 30v17c0 142 110 221 253 221c61 0 99 -15 127 -39c43 35 103 55 171 55c73 0 112 -26 112 -74c0 -28 -19 -54 -56 -54c-42 0 -66 19 -70 59c-2 23 -6 27 -20 27c-35 0 -75 -24 -75 -104v-108h119l-16 -63h-103v-350
c0 -47 4 -53 31 -58l46 -9v-35h-274v35l34 8c26 6 31 13 31 56v353h-178v-350c0 -47 3 -52 29 -59l34 -8v-35h-262zM399 561c0 25 4 48 11 70c-19 54 -47 77 -90 77c-53 0 -99 -29 -99 -117v-76h178v46z" />
    <glyph glyph-name="f_f_b" unicode="ffb" horiz-adv-x="1251" 
d="M334 0v35l34 8c26 6 31 14 31 56v353h-178v-350c0 -47 3 -52 29 -59l34 -8v-35h-262v35l35 9c27 7 32 13 32 55v353h-72v33l72 30v17c0 142 110 221 253 221c64 0 102 -16 131 -42c44 37 105 58 175 58c68 0 111 -13 132 -34l51 31l17 -10s-7 -42 -7 -115v-85
c0 -50 -5 -90 -5 -90h5c42 32 104 62 175 62c97 0 201 -58 201 -245c0 -199 -125 -295 -296 -295c-90 0 -153 14 -212 47v605c-26 7 -39 28 -43 62c-2 20 -9 25 -26 25c-63 0 -109 -24 -109 -119v-93h113l-17 -63h-96v-350c0 -47 4 -53 31 -58l46 -9v-35h-274zM932 37
c99 0 148 49 148 219c0 136 -51 195 -128 195c-61 0 -90 -17 -111 -28v-353c24 -21 52 -33 91 -33zM221 591v-76h178v30c0 29 4 56 13 80c-19 58 -48 83 -92 83c-53 0 -99 -29 -99 -117z" />
    <glyph glyph-name="f_f_h" unicode="ffh" horiz-adv-x="1251" 
d="M334 0v35l34 8c27 6 31 14 31 56v353h-178v-350c0 -47 3 -52 29 -59l34 -8v-35h-262v35l35 9c27 7 32 13 32 55v353h-72v33l72 30v17c0 142 110 221 253 221c64 0 102 -16 131 -42c44 37 105 58 175 58c68 0 111 -13 132 -34l51 31l17 -10s-7 -48 -7 -115v-85
c0 -50 -5 -93 -5 -93h4c52 34 124 65 193 65c95 0 136 -43 136 -133v-296c0 -42 6 -49 33 -55l32 -9v-35h-260v35l33 8c25 7 30 11 30 56v259c0 66 -23 89 -80 89c-43 0 -91 -16 -116 -24v-324c0 -46 5 -49 30 -56l33 -8v-35h-257v35l32 8c25 7 30 14 30 56v541
c-26 7 -39 28 -43 62c-2 20 -9 25 -26 25c-63 0 -109 -24 -109 -119v-93h113l-17 -63h-96v-350c0 -47 3 -52 29 -59l34 -8v-35h-260zM221 591v-76h178v30c0 29 4 56 13 80c-19 58 -48 83 -92 83c-53 0 -99 -29 -99 -117z" />
    <glyph glyph-name="f_f_i" unicode="ffi" horiz-adv-x="926" 
d="M22 0v35l35 9c27 6 32 13 32 55v353h-72v33l72 30v17c0 142 110 221 253 221c63 0 101 -16 130 -41c45 37 109 57 187 57c91 0 138 -31 138 -79c0 -36 -23 -57 -62 -57c-48 0 -70 18 -76 69c-2 19 -10 25 -31 25c-52 0 -97 -25 -97 -118v-94h188l114 13l15 -8
c-1 -16 -6 -53 -6 -102v-319c0 -44 5 -49 31 -55l34 -9v-35h-259v35l31 8c24 6 31 13 31 56v296c0 46 -12 57 -44 57h-135v-350c0 -47 3 -52 29 -59l34 -8v-35h-260v35l34 8c26 6 31 13 31 56v353h-178v-350c0 -47 3 -52 29 -59l34 -8v-35h-262zM399 547c0 29 4 56 13 80
c-19 57 -48 81 -92 81c-53 0 -99 -29 -99 -117v-76h178v32z" />
    <glyph glyph-name="f_f_j" unicode="ffj" horiz-adv-x="917" 
d="M638 -239c-76 0 -115 40 -115 83c0 34 23 55 61 55c42 0 58 -20 63 -64c2 -27 9 -31 18 -31c28 0 44 25 44 58v533c0 46 -11 57 -43 57h-135v-350c0 -47 4 -52 31 -58l37 -9v-35h-265v35l34 8c27 6 31 14 31 56v353h-178v-350c0 -47 3 -52 29 -59l34 -8v-35h-262v35l35 9
c27 7 32 13 32 55v353h-72v33l72 30v17c0 142 110 221 253 221c62 0 101 -15 129 -40c45 36 108 56 188 56c91 0 138 -31 138 -79c0 -39 -23 -61 -62 -61c-48 0 -70 18 -76 69c-2 19 -10 29 -31 29c-52 0 -97 -25 -97 -118v-94h188l114 13l13 -8c0 -16 -5 -53 -5 -102v-444
c0 -147 -88 -213 -203 -213zM221 591v-76h178v32c0 29 4 56 13 80c-19 57 -48 81 -92 81c-53 0 -99 -29 -99 -117z" />
    <glyph glyph-name="f_f_k" unicode="ffk" horiz-adv-x="1206" 
d="M334 0v35l34 8c28 6 31 14 31 56v353h-178v-350c0 -47 3 -52 29 -59l34 -8v-35h-262v35l35 9c27 7 32 13 32 55v353h-72v33l72 30v17c0 142 110 221 253 221c64 0 102 -16 131 -42c44 37 105 58 175 58c68 0 111 -13 132 -34l51 31l17 -10s-7 -48 -7 -115v-542
c0 -45 5 -49 29 -56l33 -8v-35h-256v35l32 8c25 6 30 14 30 56v541c-26 7 -39 28 -43 62c-2 20 -9 25 -26 25c-63 0 -109 -24 -109 -119v-93h113l-17 -63h-96v-350c0 -47 3 -52 29 -59l34 -8v-35h-260zM1035 0c-71 83 -124 164 -178 249v20l102 106c39 43 52 60 52 75
c0 12 -9 22 -29 27l-15 4v34h209v-35l-26 -8c-28 -8 -51 -19 -94 -62l-94 -97c56 -91 114 -177 175 -246c10 -12 19 -19 32 -23l30 -9v-35h-164zM221 591v-76h178v30c0 29 4 56 13 80c-19 58 -48 83 -92 83c-53 0 -99 -29 -99 -117z" />
    <glyph glyph-name="f_f_l" unicode="ffl" horiz-adv-x="928" 
d="M334 0v35l34 8c26 6 31 13 31 56v353h-178v-350c0 -47 3 -52 29 -59l34 -8v-35h-262v35l35 9c27 7 32 13 32 55v353h-72v33l72 30v17c0 142 110 221 253 221c63 0 101 -16 130 -42c44 37 105 58 175 58c69 0 112 -13 133 -34l51 31l17 -10s-7 -48 -7 -115v-542
c0 -44 5 -48 33 -55l34 -9v-35h-261v35l32 8c24 7 30 13 30 56v541c-26 7 -39 28 -43 62c-2 20 -8 25 -26 25c-63 0 -109 -24 -109 -119v-93h113l-17 -63h-96v-350c0 -47 4 -52 29 -59l34 -8v-35h-260zM221 591v-76h178v30c0 29 4 56 13 80c-19 58 -48 83 -92 83
c-53 0 -99 -29 -99 -117z" />
    <glyph glyph-name="f_h" unicode="fh" horiz-adv-x="941" 
d="M337 0v35l31 8c26 7 31 14 31 56v541c-26 7 -39 28 -43 62c-2 20 -9 25 -26 25c-63 0 -109 -24 -109 -119v-93h113l-17 -63h-96v-350c0 -47 3 -52 29 -59l34 -8v-35h-262v35l35 9c27 7 32 13 32 55v353h-72v33l72 30v30c0 139 105 224 249 224c68 0 111 -13 132 -34
l51 31l17 -10s-7 -48 -7 -115v-85c0 -50 -5 -93 -5 -93h4c52 34 124 65 193 65c94 0 136 -43 136 -133v-296c0 -42 6 -49 33 -55l32 -9v-35h-260v35l33 8c25 7 30 11 30 56v259c0 66 -23 89 -80 89c-43 0 -91 -16 -116 -24v-324c0 -46 5 -49 29 -56l34 -8v-35h-257z" />
    <glyph glyph-name="f_i" unicode="fi" horiz-adv-x="616" 
d="M221 609v-94h188l114 13l13 -8c0 -16 -5 -53 -5 -102v-319c0 -44 5 -49 32 -55l34 -9v-35h-260v35l31 8c25 7 31 13 31 56v296c0 46 -12 57 -44 57h-134v-350c0 -47 3 -52 29 -59l34 -8v-35h-262v35l35 9c27 7 32 13 32 55v353h-72v33l72 30v32c0 139 96 222 259 222
c92 0 139 -31 139 -79c0 -41 -24 -61 -62 -61c-48 0 -70 18 -76 69c-2 19 -11 29 -31 29c-52 0 -97 -25 -97 -118z" />
    <glyph glyph-name="f_j" unicode="fj" horiz-adv-x="607" 
d="M328 -239c-77 0 -115 40 -115 83c0 34 23 55 60 55c43 0 59 -20 63 -64c3 -27 9 -31 19 -31c28 0 44 25 44 58v533c0 46 -12 57 -44 57h-134v-350c0 -47 4 -52 30 -58l38 -9v-35h-267v35l35 9c27 6 32 13 32 55v353h-72v33l72 30v32c0 139 96 222 259 222
c92 0 139 -31 139 -79c0 -39 -24 -61 -62 -61c-48 0 -70 18 -76 69c-2 19 -11 29 -31 29c-52 0 -97 -25 -97 -118v-94h188l114 13l13 -8c0 -16 -5 -53 -5 -102v-444c0 -147 -88 -213 -203 -213z" />
    <glyph glyph-name="f_k" unicode="fk" horiz-adv-x="896" 
d="M337 0v35l31 8c25 6 31 14 31 56v541c-26 7 -39 28 -43 62c-2 20 -9 25 -26 25c-63 0 -109 -24 -109 -119v-93h113l-17 -63h-96v-350c0 -47 3 -52 29 -59l34 -8v-35h-262v35l35 9c27 7 32 13 32 55v353h-72v33l72 30v30c0 139 105 224 249 224c68 0 111 -13 132 -34
l51 31l17 -10s-7 -48 -7 -115v-542c0 -45 5 -49 29 -56l33 -8v-35h-256zM725 0c-71 83 -124 164 -178 249v20l102 106c39 43 52 60 52 75c0 12 -10 22 -29 27l-15 4v34h209v-35l-26 -8c-28 -8 -51 -19 -94 -62l-94 -97c56 -91 114 -177 175 -246c10 -12 19 -19 32 -23l29 -9
v-35h-163z" />
    <glyph glyph-name="f_l" unicode="fl" horiz-adv-x="618" 
d="M337 0v35l31 8c25 7 31 13 31 56v541c-26 7 -39 28 -43 62c-2 20 -9 25 -26 25c-63 0 -109 -24 -109 -119v-93h113l-17 -63h-96v-350c0 -47 3 -52 29 -59l34 -8v-35h-262v35l35 9c27 7 32 13 32 55v353h-72v33l72 30v30c0 139 105 224 249 224c68 0 111 -13 132 -34
l51 31l16 -10s-6 -48 -6 -115v-542c0 -44 5 -48 33 -55l34 -9v-35h-261z" />
    <glyph glyph-name=".notdef" horiz-adv-x="513" 
 />
    <glyph glyph-name="Eth" unicode="&#xd0;" horiz-adv-x="737" 
d="M35 325v49h70v209c0 56 -9 61 -37 67l-39 8v35h323c203 0 349 -92 349 -337c0 -231 -141 -356 -355 -356h-317v36l39 8c28 6 37 11 37 66v215h-70zM338 48c157 0 209 103 209 287c0 228 -63 310 -211 310c-41 0 -69 -4 -84 -9v-262h161v-49h-161v-182
c0 -79 10 -95 86 -95z" />
    <glyph glyph-name="eth" unicode="&#xf0;" horiz-adv-x="596" 
d="M171 576l-18 41l103 46c-38 29 -82 56 -130 78l17 35c75 -21 138 -47 192 -78l113 51l20 -40l-89 -40c129 -91 185 -217 185 -372c0 -234 -134 -309 -267 -309c-146 0 -266 87 -266 267c0 184 136 270 256 270c45 0 86 -17 118 -50c-20 54 -59 107 -111 156zM300 35
c77 0 126 47 126 213c0 185 -48 230 -133 230c-77 0 -120 -52 -120 -208c0 -183 43 -235 127 -235z" />
    <glyph glyph-name="Lslash" unicode="&#x141;" horiz-adv-x="602" 
d="M16 234v52l89 33v264c0 56 -9 61 -37 67l-39 8v35h307v-35l-47 -9c-30 -6 -37 -10 -37 -66v-210l200 74v-52l-200 -74v-177c0 -89 4 -95 101 -95c86 0 107 12 136 55c18 27 42 62 66 131h41l-15 -235h-552v36l39 8c28 6 37 11 37 66v157z" />
    <glyph glyph-name="lslash" unicode="&#x142;" horiz-adv-x="308" 
d="M13 282v53l77 40v263c0 45 -5 48 -32 61l-41 19v32l200 19l13 -11s-8 -48 -8 -115v-200l77 40v-53l-77 -40v-291c0 -44 5 -48 32 -55l35 -9v-35h-267v35l35 9c28 7 33 13 33 55v223z" />
    <glyph glyph-name="Scaron" unicode="&#x160;" horiz-adv-x="544" 
d="M250 757l-133 127l18 28l145 -61l145 61l19 -28l-133 -127h-61zM250 -12c-89 0 -159 16 -204 30l-12 190h41c24 -50 40 -83 67 -119c26 -34 54 -50 116 -50c81 0 132 50 132 107c0 60 -37 96 -161 147c-135 55 -185 113 -185 214c0 114 95 198 238 198
c82 0 135 -7 173 -19l12 -171h-40c-25 53 -35 73 -60 103c-20 22 -43 37 -94 37c-71 0 -123 -43 -123 -102c0 -52 25 -79 141 -127c155 -63 215 -120 215 -213c0 -125 -89 -225 -256 -225z" />
    <glyph glyph-name="scaron" unicode="&#x161;" horiz-adv-x="444" 
d="M200 594l-132 147l20 28l142 -82l142 82l20 -28l-131 -147h-61zM197 -12c-59 0 -117 8 -158 20l-7 152h36c19 -39 28 -59 54 -89c19 -21 43 -36 90 -36c57 0 94 26 94 74c0 50 -36 69 -122 102c-89 34 -148 78 -148 159c0 94 80 159 203 159c57 0 104 -6 137 -18l4 -135
h-34c-19 34 -35 57 -54 81c-15 15 -29 25 -68 25c-57 0 -88 -25 -88 -72c0 -36 30 -59 114 -90c108 -39 164 -82 164 -159c0 -100 -80 -173 -217 -173z" />
    <glyph glyph-name="Yacute" unicode="&#xdd;" horiz-adv-x="660" 
d="M182 0v36l43 8c30 7 37 11 37 66v172l-154 282c-36 64 -51 79 -79 87l-22 7v35h306v-35l-27 -6c-30 -7 -40 -19 -40 -39c0 -13 9 -30 22 -55l105 -209h4l105 205c12 27 18 46 18 60c0 20 -13 31 -37 37l-31 7v35h223v-35l-21 -7c-33 -10 -53 -29 -88 -100l-137 -262v-179
c0 -55 5 -59 38 -66l44 -8v-36h-309zM280 746l-12 27l150 112c17 13 31 20 47 20c27 0 47 -26 47 -52c0 -20 -10 -42 -41 -51z" />
    <glyph glyph-name="yacute" unicode="&#xfd;" horiz-adv-x="563" 
d="M119 -224c-65 0 -96 34 -96 73c0 35 20 60 55 60c38 0 53 -16 62 -45c6 -15 9 -21 17 -21c23 0 51 27 83 100l19 47l-180 410c-26 59 -30 65 -55 73l-21 7v35h265v-35l-27 -7c-22 -5 -31 -14 -31 -34c0 -14 5 -32 15 -55l100 -239h4l90 239c9 25 11 45 11 59
c0 18 -10 25 -29 30l-29 7v35h194v-35l-25 -7c-26 -8 -31 -22 -56 -83l-188 -451c-43 -104 -93 -163 -178 -163zM226 591l-12 27l150 112c17 13 31 20 47 20c27 0 47 -26 47 -52c0 -20 -10 -42 -41 -51z" />
    <glyph glyph-name="Thorn" unicode="&#xde;" horiz-adv-x="638" 
d="M29 0v36l40 8c27 6 36 11 36 66v473c0 56 -9 61 -36 67l-40 8v35h298v-35l-42 -8c-29 -7 -35 -11 -35 -67v-28h82c172 0 265 -67 265 -194c0 -121 -86 -202 -221 -202c-37 0 -61 7 -69 11v36c93 -1 142 26 142 147c0 118 -40 155 -125 155c-34 0 -62 -4 -74 -7v-391
c0 -54 6 -59 36 -65l49 -9v-36h-306z" />
    <glyph glyph-name="thorn" unicode="&#xfe;" horiz-adv-x="610" 
d="M73 -131v771c0 45 -6 48 -30 60l-41 19v32l198 18l12 -9s-7 -42 -7 -116v-89c0 -50 -5 -89 -5 -89h4c43 33 105 62 174 62c97 0 203 -58 203 -245c0 -199 -121 -295 -295 -295c-24 0 -60 4 -85 11c0 0 4 -27 4 -62v-68c0 -44 4 -49 30 -55l46 -9v-34h-275v34l34 9
c28 7 33 13 33 55zM295 37c98 0 148 49 148 219c0 136 -51 195 -140 195c-48 0 -79 -20 -98 -28v-350c22 -22 50 -36 90 -36z" />
    <glyph glyph-name="Zcaron" unicode="&#x17d;" horiz-adv-x="593" 
d="M263 757l-133 127l18 28l145 -61l145 61l19 -28l-133 -127h-61zM22 0v51l372 592v4h-55c-149 0 -171 -4 -199 -45c-24 -33 -38 -59 -65 -120h-36l11 211h497v-50l-368 -592v-4h43c158 0 188 6 219 47c25 34 41 67 69 136h37l-14 -230h-511z" />
    <glyph glyph-name="zcaron" unicode="&#x17e;" horiz-adv-x="499" 
d="M234 594l-132 147l20 28l142 -82l142 82l20 -28l-131 -147h-61zM23 0v43l304 422v4h-62c-79 0 -98 -6 -118 -31c-22 -30 -36 -56 -61 -103h-35l9 180h416v-41l-305 -424v-4h58c103 0 122 11 146 42c24 32 41 63 58 100h37l-14 -188h-433z" />
    <glyph glyph-name="onehalf" unicode="&#xbd;" horiz-adv-x="835" 
d="M471 -104v52c59 44 99 79 138 120c44 45 74 89 74 151c0 64 -26 76 -67 76c-27 0 -31 -10 -35 -32c-5 -42 -17 -59 -55 -59c-30 0 -49 23 -49 46c0 42 58 82 150 82c100 0 164 -42 164 -124c0 -78 -88 -154 -226 -230v-3h140c32 0 38 9 56 54h30l-9 -133h-311zM25 266v30
l28 5c27 6 31 8 31 46v240l-60 3v34c67 12 117 41 152 80l22 -7v-350c0 -38 6 -42 31 -46l27 -5v-30h-231zM129 -50l504 764h68l-505 -764h-67z" />
    <glyph glyph-name="onequarter" unicode="&#xbc;" horiz-adv-x="831" 
d="M593 -104v31l24 5c25 6 30 8 30 46v17h-205v42l249 287h52v-277h67l-7 -52h-60v-17c0 -38 5 -41 29 -46l23 -5v-31h-202zM505 47h142v168h-4l-138 -165v-3zM25 266v30l28 5c27 6 31 8 31 46v240l-60 3v34c67 12 117 41 152 80l22 -7v-350c0 -38 6 -42 31 -46l27 -5v-30
h-231zM155 -50l505 764h68l-505 -764h-68z" />
    <glyph glyph-name="onesuperior" unicode="&#xb9;" horiz-adv-x="281" 
d="M25 266v30l28 5c27 6 31 8 31 46v240l-60 3v34c67 12 117 41 152 80l22 -7v-350c0 -38 6 -42 31 -46l27 -5v-30h-231z" />
    <glyph glyph-name="threequarters" unicode="&#xbe;" horiz-adv-x="841" 
d="M163 258c-92 0 -144 31 -144 78c0 25 19 47 45 47c32 0 50 -16 57 -55c6 -27 10 -33 43 -33c50 0 73 28 73 89c0 70 -31 82 -86 82h-32v43h28c55 0 79 17 79 81c0 59 -23 74 -59 74c-25 0 -32 -6 -35 -27c-5 -34 -15 -52 -51 -52c-27 0 -45 17 -45 42c0 46 61 74 144 74
c95 0 149 -37 149 -102c0 -47 -35 -91 -113 -105v-2c74 -6 130 -38 130 -109s-52 -125 -183 -125zM603 -104v31l24 5c25 6 30 8 30 46v17h-206v42l250 287h52v-277h67l-7 -52h-60v-17c0 -38 5 -41 29 -46l23 -5v-31h-202zM515 47h142v168h-4l-138 -165v-3zM185 -50l504 764
h68l-505 -764h-67z" />
    <glyph glyph-name="threesuperior" unicode="&#xb3;" horiz-adv-x="378" 
d="M163 258c-92 0 -144 31 -144 78c0 25 19 47 45 47c32 0 50 -16 57 -55c6 -27 10 -33 43 -33c50 0 73 28 73 89c0 70 -31 82 -86 82h-32v43h28c55 0 79 17 79 81c0 59 -23 74 -59 74c-25 0 -32 -6 -35 -27c-5 -34 -15 -52 -51 -52c-27 0 -45 17 -45 42c0 46 61 74 144 74
c95 0 149 -37 149 -102c0 -47 -35 -91 -113 -105v-2c74 -6 130 -38 130 -109s-52 -125 -183 -125z" />
    <glyph glyph-name="twosuperior" unicode="&#xb2;" horiz-adv-x="374" 
d="M23 266v52c59 44 98 78 137 119c44 45 74 89 74 152s-26 75 -67 75c-27 0 -31 -9 -35 -32c-5 -41 -17 -59 -55 -59c-29 0 -49 23 -49 47c0 42 58 81 150 81c100 0 164 -41 164 -124c0 -78 -88 -154 -226 -229v-3h140c32 0 38 8 57 53h29l-9 -132h-310z" />
    <glyph glyph-name="brokenbar" unicode="&#xa6;" horiz-adv-x="257" 
d="M96 326v408h64v-408h-64zM96 -130v385h64v-385h-64z" />
    <glyph glyph-name="minus" unicode="&#x2212;" horiz-adv-x="488" 
d="M44 306v63h400v-63h-400z" />
    <glyph glyph-name="multiply" unicode="&#xd7;" horiz-adv-x="461" 
d="M91 140l-47 44l142 145l-139 143l49 45l135 -142l139 142l45 -44l-139 -143l141 -145l-47 -45l-141 144z" />
    <glyph glyph-name="space" unicode=" " horiz-adv-x="263" 
 />
    <glyph glyph-name="exclam" unicode="!" horiz-adv-x="301" 
d="M130 227l-59 369c-16 73 27 107 79 107s95 -34 79 -107l-59 -369h-40zM150 -7c-47 0 -84 36 -84 82s37 84 84 84c48 0 86 -38 86 -84s-38 -82 -86 -82z" />
    <glyph glyph-name="quotedbl" unicode="&#x22;" horiz-adv-x="395" 
d="M271 408l-44 209c-14 64 23 89 62 89c38 0 77 -25 62 -89l-46 -209h-34zM91 408l-46 209c-16 64 22 89 62 89c37 0 75 -26 62 -89l-44 -209h-34z" />
    <glyph glyph-name="numbersign" unicode="#" horiz-adv-x="550" 
d="M89 0l39 188h-88l15 90h91l27 140h-86l16 90h91l37 185h60l-38 -185h113l37 185h61l-38 -185h88l-15 -90h-92l-29 -140h89l-16 -90h-91l-38 -188h-61l39 188h-114l-37 -188h-60zM206 278h112l29 140h-113z" />
    <glyph glyph-name="dollar" unicode="$" horiz-adv-x="535" 
d="M233 -150v139c-150 5 -216 59 -216 129c0 39 28 57 61 57c43 0 64 -8 71 -84c4 -39 16 -54 84 -57v261c-145 58 -195 119 -195 214c0 100 82 178 200 191v92h52v-91c140 -4 198 -63 198 -117c0 -35 -28 -60 -64 -60c-52 0 -63 23 -69 85c-4 34 -19 45 -65 47v-239
c154 -65 209 -123 209 -224c0 -110 -88 -193 -214 -204v-139h-52zM383 147c0 53 -23 90 -98 126v-238c69 8 98 51 98 112zM144 558c0 -54 22 -84 94 -119v216c-61 -9 -94 -44 -94 -97z" />
    <glyph glyph-name="percent" unicode="%" horiz-adv-x="833" 
d="M205 346c-83 0 -172 54 -172 174c0 129 103 184 175 184c79 0 174 -57 174 -176c0 -126 -101 -182 -177 -182zM115 -50l518 764h67l-518 -764h-67zM624 -13c-83 0 -172 54 -172 173c0 129 103 184 175 184c79 0 173 -56 173 -176c0 -126 -100 -181 -176 -181zM207 385
c48 0 72 39 72 134c0 107 -25 145 -72 145c-45 0 -71 -35 -71 -135c0 -104 24 -144 71 -144zM626 26c49 0 71 38 71 134c0 107 -24 145 -71 145c-44 0 -71 -36 -71 -136c0 -103 24 -143 71 -143z" />
    <glyph glyph-name="ampersand" unicode="&#x26;" horiz-adv-x="729" 
d="M275 -12c-188 0 -251 96 -251 190c0 100 81 161 174 203c-35 48 -52 93 -52 143c0 108 92 181 192 181c97 0 177 -49 177 -135c0 -81 -74 -134 -169 -175c50 -70 105 -144 165 -216c30 49 42 91 42 118s-10 36 -33 42l-31 6v35h217v-35l-28 -7c-31 -8 -46 -30 -73 -76
c-15 -31 -31 -73 -61 -119c23 -28 39 -45 59 -65c13 -14 29 -27 51 -32l43 -10v-36h-197c-14 13 -29 31 -42 46c-45 -34 -103 -58 -183 -58zM323 427c58 35 91 72 91 138c0 73 -33 92 -75 92c-50 0 -78 -29 -78 -84c0 -54 27 -99 62 -146zM310 43c51 0 90 17 114 39
c-74 85 -144 174 -204 264c-37 -35 -59 -78 -59 -141c0 -101 56 -162 149 -162z" />
    <glyph glyph-name="quotesingle" unicode="'" horiz-adv-x="209" 
d="M88 408l-46 209c-15 64 24 89 63 89c38 0 77 -25 63 -89l-46 -209h-34z" />
    <glyph glyph-name="parenleft" unicode="(" horiz-adv-x="338" 
d="M300 -141c-113 81 -256 226 -256 446c0 201 143 359 256 440l27 -29c-94 -91 -161 -231 -161 -394c0 -214 67 -336 161 -434z" />
    <glyph glyph-name="parenright" unicode=")" horiz-adv-x="338" 
d="M38 745c113 -81 256 -232 256 -445c0 -208 -143 -360 -256 -441l-27 29c94 98 161 227 161 407c0 197 -67 330 -161 421z" />
    <glyph glyph-name="asterisk" unicode="*" horiz-adv-x="440" 
d="M104 359c-24 17 -35 53 7 83l90 66l-112 7c-50 3 -63 34 -52 63c8 25 38 43 80 13l88 -56l-28 102c-15 49 14 69 44 69c29 0 56 -20 40 -69l-28 -102l90 56c42 29 71 12 81 -16c9 -28 -4 -58 -53 -60l-113 -7l90 -66c43 -29 31 -67 6 -83c-24 -16 -58 -15 -74 32l-38 101
l-43 -100c-17 -47 -52 -51 -75 -33z" />
    <glyph glyph-name="plus" unicode="+" horiz-adv-x="487" 
d="M208 130v176h-164v63h164v176h72v-176h163v-63h-163v-176h-72z" />
    <glyph glyph-name="comma" unicode="," horiz-adv-x="317" 
d="M41 -167l-11 32c114 48 142 100 142 155c-7 -7 -21 -13 -38 -13c-44 0 -70 31 -70 76s38 79 88 79c60 0 105 -42 105 -120c0 -82 -60 -175 -216 -209z" />
    <glyph glyph-name="hyphen" unicode="-" horiz-adv-x="292" 
d="M32 246l11 88h218l-10 -88h-219z" />
    <glyph glyph-name="period" unicode="." horiz-adv-x="303" 
d="M151 -7c-48 0 -87 38 -87 84c0 47 39 85 87 85s87 -38 87 -85c0 -46 -39 -84 -87 -84z" />
    <glyph glyph-name="slash" unicode="/" horiz-adv-x="400" 
d="M5 -130l307 864h65l-308 -864h-64z" />
    <glyph glyph-name="zero" unicode="0" horiz-adv-x="677" 
d="M335 -12c-144 0 -297 102 -297 348c0 265 174 369 303 369c140 0 298 -105 298 -353c0 -258 -166 -364 -304 -364zM338 37c101 0 147 87 147 299c0 233 -48 320 -147 320c-95 0 -147 -79 -147 -303c0 -225 48 -316 147 -316z" />
    <glyph glyph-name="one" unicode="1" horiz-adv-x="392" 
d="M35 0v36l51 8c30 6 39 11 39 66v435l-91 3v37c97 20 157 59 208 116l32 -5v-586c0 -55 6 -60 37 -66l47 -8v-36h-323z" />
    <glyph glyph-name="two" unicode="2" horiz-adv-x="541" 
d="M22 0v67c88 69 162 137 216 197c75 82 118 142 118 256c0 101 -49 141 -109 141c-49 0 -61 -14 -65 -48c-4 -62 -27 -87 -76 -87c-43 0 -66 23 -66 64c0 59 71 115 220 115c141 0 245 -66 245 -200c0 -144 -165 -271 -360 -392v-5h234c53 0 61 9 95 79h33l-15 -187h-470z
" />
    <glyph glyph-name="three" unicode="3" horiz-adv-x="554" 
d="M226 -12c-133 0 -208 41 -208 110c0 34 22 63 64 63c40 0 64 -14 74 -66c12 -51 12 -63 72 -63c92 0 126 68 126 163c0 99 -39 140 -138 140h-52v51h43c93 0 130 41 130 141c0 91 -40 134 -106 134c-36 0 -49 -6 -53 -44c-6 -59 -24 -79 -71 -79c-43 0 -63 28 -63 60
c0 69 95 107 205 107c146 0 230 -68 230 -166c0 -76 -52 -144 -179 -170v-4c125 -11 205 -68 205 -174c0 -108 -90 -203 -279 -203z" />
    <glyph glyph-name="four" unicode="4" horiz-adv-x="595" 
d="M241 0v36l41 8c29 6 38 11 38 66v84h-298v52l355 447h83v-431h108l-11 -68h-97v-84c0 -55 6 -60 39 -66l43 -8v-36h-301zM98 262h222v276h-3l-219 -273v-3z" />
    <glyph glyph-name="five" unicode="5" horiz-adv-x="545" 
d="M228 -12c-118 0 -195 43 -195 109c0 31 22 62 65 62c44 0 67 -14 75 -76c6 -41 14 -51 61 -51c98 0 147 55 147 151c0 109 -75 150 -176 150c-52 0 -93 -8 -117 -17l-9 7l41 370h275c29 0 35 7 59 53h34l-18 -160h-305l-19 -151c23 6 47 13 103 13
c142 0 256 -71 256 -221c0 -141 -119 -239 -277 -239z" />
    <glyph glyph-name="six" unicode="6" horiz-adv-x="604" 
d="M312 -12c-150 0 -275 104 -275 315c0 288 186 402 351 402c99 0 167 -31 167 -91c0 -35 -22 -59 -65 -59c-46 0 -65 19 -73 70c-4 22 -12 36 -52 36c-77 0 -167 -77 -175 -293c36 27 89 53 160 53c128 0 217 -75 217 -208c0 -136 -107 -225 -255 -225zM314 37
c85 0 106 47 106 164c0 116 -39 160 -119 160c-44 0 -81 -14 -112 -35c-1 -15 -1 -4 -1 -21c0 -165 15 -268 126 -268z" />
    <glyph glyph-name="seven" unicode="7" horiz-adv-x="522" 
d="M116 0c58 253 177 434 306 586h-289c-41 0 -46 -10 -72 -75h-35l18 182h459v-66c-137 -190 -201 -373 -233 -627h-154z" />
    <glyph glyph-name="eight" unicode="8" horiz-adv-x="577" 
d="M285 -12c-133 0 -253 57 -253 174c0 76 67 138 154 179v3c-80 43 -124 95 -124 169c0 113 107 192 232 192c112 0 221 -52 221 -160c0 -66 -61 -122 -134 -160v-3c103 -54 161 -102 161 -190c0 -110 -108 -204 -257 -204zM342 406c31 31 67 76 67 136
c0 78 -44 113 -121 113c-72 0 -119 -40 -119 -96c0 -66 74 -107 173 -153zM293 38c83 0 136 42 136 108c0 76 -81 113 -209 175c-33 -31 -77 -75 -77 -148c0 -91 54 -135 150 -135z" />
    <glyph glyph-name="nine" unicode="9" horiz-adv-x="604" 
d="M292 703c153 0 275 -103 275 -315c0 -282 -158 -402 -342 -402c-100 0 -170 32 -170 92c0 36 22 60 67 60c43 0 63 -20 73 -71c4 -22 11 -37 52 -37c96 0 157 80 167 293c-37 -27 -90 -54 -164 -54c-128 0 -213 77 -213 214c0 133 108 220 255 220zM290 654
c-84 0 -106 -45 -106 -160c0 -118 39 -164 117 -164c45 0 83 15 114 35c1 15 1 5 1 22c0 165 -15 267 -126 267z" />
    <glyph glyph-name="colon" unicode=":" horiz-adv-x="313" 
d="M157 314c-48 0 -87 37 -87 83c0 48 39 85 87 85s86 -37 86 -85c0 -46 -38 -83 -86 -83zM157 -7c-48 0 -87 38 -87 84c0 47 39 85 87 85s86 -38 86 -85c0 -46 -38 -84 -86 -84z" />
    <glyph glyph-name="semicolon" unicode=";" horiz-adv-x="317" 
d="M157 314c-48 0 -87 37 -87 83c0 48 39 85 87 85s86 -37 86 -85c0 -46 -38 -83 -86 -83zM45 -167l-11 32c113 48 141 100 141 155c-6 -7 -20 -13 -37 -13c-44 0 -70 31 -70 76s38 79 88 79c59 0 105 -42 105 -120c0 -82 -60 -175 -216 -209z" />
    <glyph glyph-name="less" unicode="&#x3c;" horiz-adv-x="488" 
d="M439 111l-391 173v74l391 173v-69l-328 -141l328 -140v-70z" />
    <glyph glyph-name="equal" unicode="=" horiz-adv-x="529" 
d="M44 381v63h441v-63h-441zM44 212v63h441v-63h-441z" />
    <glyph glyph-name="greater" unicode="&#x3e;" horiz-adv-x="488" 
d="M439 284l-391 -173v69l328 141l-328 140v70l391 -173v-74z" />
    <glyph glyph-name="question" unicode="?" horiz-adv-x="478" 
d="M153 222v163c76 22 160 66 160 166c0 70 -49 109 -100 109c-33 0 -41 -7 -46 -41c-7 -50 -27 -72 -71 -72c-43 0 -61 28 -61 58c0 65 75 100 174 100c140 0 225 -65 225 -185c0 -119 -101 -193 -223 -220v-78h-58zM185 -7c-47 0 -85 36 -85 82s38 84 85 84
c48 0 85 -38 85 -84s-37 -82 -85 -82z" />
    <glyph glyph-name="at" unicode="@" horiz-adv-x="956" 
d="M454 -178c-247 0 -415 152 -415 384c0 271 231 484 494 484c235 0 385 -125 385 -322c0 -244 -169 -332 -284 -332c-94 0 -111 44 -110 100h-4c-41 -68 -93 -98 -152 -98c-61 0 -105 44 -105 128c0 191 148 326 266 326c51 0 85 -15 110 -33h4l44 30l20 -10
s-15 -30 -31 -106l-36 -190c-12 -67 -6 -91 37 -91c84 0 162 90 162 244c0 190 -96 307 -306 307c-229 0 -401 -184 -401 -411c0 -219 105 -359 346 -359c96 0 181 21 258 56v-42c-57 -31 -147 -65 -282 -65zM424 110c36 0 68 40 100 88l43 219c-7 8 -15 31 -45 31
c-68 0 -142 -129 -142 -270c0 -53 15 -68 44 -68z" />
    <glyph glyph-name="A" unicode="A" horiz-adv-x="699" 
d="M3 0v36l29 7c29 8 40 15 68 89l205 561h83l214 -568c26 -68 39 -75 66 -83l26 -6v-36h-293v36l28 7c27 7 36 14 36 32c0 16 -8 34 -17 62l-30 83h-225l-28 -83c-9 -28 -14 -42 -14 -58c0 -22 12 -29 40 -36l31 -7v-36h-219zM301 533l-91 -263h190l-94 263h-5z" />
    <glyph glyph-name="B" unicode="B" horiz-adv-x="660" 
d="M29 0v36l39 8c28 6 37 11 37 66v473c0 56 -9 61 -37 67l-39 8v35h302c168 0 261 -48 261 -164c0 -91 -64 -140 -180 -158v-5c140 -14 215 -65 215 -171c0 -127 -100 -195 -269 -195h-329zM251 386h71c86 0 125 39 125 125c0 110 -40 133 -126 133c-28 0 -55 -3 -70 -6
v-252zM342 49c82 0 130 31 130 139c0 110 -39 148 -140 148h-81v-216c0 -62 11 -71 91 -71z" />
    <glyph glyph-name="C" unicode="C" horiz-adv-x="645" 
d="M382 -12c-202 0 -345 109 -345 353c0 263 168 364 363 364c78 0 148 -11 192 -23l10 -203h-39c-25 56 -48 106 -73 140c-25 33 -43 37 -102 37c-133 0 -194 -73 -194 -295c0 -253 61 -324 187 -324c76 0 98 21 125 58c28 41 42 68 64 126h37l-10 -191
c-48 -21 -127 -42 -215 -42z" />
    <glyph glyph-name="D" unicode="D" horiz-adv-x="737" 
d="M29 0v36l39 8c28 6 37 11 37 66v473c0 56 -9 61 -37 67l-39 8v35h323c203 0 349 -92 349 -337c0 -231 -141 -356 -355 -356h-317zM338 48c157 0 209 103 209 287c0 228 -63 310 -211 310c-41 0 -69 -4 -84 -9v-493c0 -79 10 -95 86 -95z" />
    <glyph glyph-name="E" unicode="E" horiz-adv-x="642" 
d="M29 0v36l39 8c28 6 37 11 37 66v473c0 56 -9 61 -37 67l-39 8v35h547l12 -190h-40c-23 53 -39 81 -53 101c-31 40 -52 40 -132 40c-64 0 -92 -5 -111 -9v-250h30c76 0 98 5 113 30c12 23 19 37 27 69h40v-250h-40c-8 31 -15 43 -27 70c-14 28 -30 30 -113 30h-30v-186
c0 -99 3 -98 120 -98c89 0 104 3 135 43c18 24 40 71 64 131h41l-15 -224h-568z" />
    <glyph glyph-name="F" unicode="F" horiz-adv-x="613" 
d="M29 0v36l39 8c28 6 37 11 37 66v473c0 56 -9 61 -37 67l-39 8v35h541l10 -197h-41c-23 57 -36 84 -55 108c-30 39 -47 40 -130 40c-52 0 -82 -4 -102 -8v-262h15c87 0 104 7 117 29c15 22 23 40 32 75h38v-265h-38c-10 35 -17 55 -33 82c-14 25 -26 28 -116 28h-15v-213
c0 -55 5 -59 38 -65l52 -9v-36h-313z" />
    <glyph glyph-name="G" unicode="G" horiz-adv-x="709" 
d="M393 -12c-225 0 -356 118 -356 354c0 264 173 363 371 363c89 0 150 -9 198 -21l13 -205h-41c-25 64 -50 102 -69 129c-24 36 -36 46 -113 46c-138 0 -204 -79 -204 -291c0 -238 52 -323 197 -323c46 0 78 9 102 21v138c0 56 -8 60 -37 66l-42 9v36h284v-36l-30 -7
c-26 -7 -32 -12 -32 -68v-173c-57 -18 -150 -38 -241 -38z" />
    <glyph glyph-name="H" unicode="H" horiz-adv-x="776" 
d="M29 0v36l39 8c28 6 37 11 37 66v473c0 56 -9 61 -37 67l-39 8v35h301v-35l-41 -8c-30 -8 -37 -11 -37 -67v-203h270v203c0 56 -6 59 -35 67l-41 8v35h301v-35l-41 -8c-28 -6 -37 -11 -37 -67v-473c0 -55 8 -59 37 -66l41 -8v-36h-301v36l41 8c29 7 35 11 35 66v218h-270
v-218c0 -55 6 -59 37 -66l41 -8v-36h-301z" />
    <glyph glyph-name="I" unicode="I" horiz-adv-x="364" 
d="M29 0v36l43 8c29 6 36 11 36 66v473c0 56 -7 61 -36 67l-43 8v35h308v-35l-44 -8c-31 -6 -37 -11 -37 -67v-473c0 -55 6 -60 37 -66l44 -8v-36h-308z" />
    <glyph glyph-name="J" unicode="J" horiz-adv-x="348" 
d="M27 -181c-91 0 -137 40 -137 90c0 35 23 60 65 60c48 0 65 -22 76 -80c6 -20 9 -25 25 -25c32 0 49 19 49 85v634c0 56 -7 60 -37 67l-42 8v35h304v-35l-41 -8c-29 -7 -37 -11 -37 -67v-528c0 -138 -78 -236 -225 -236z" />
    <glyph glyph-name="K" unicode="K" horiz-adv-x="708" 
d="M504 0c-81 98 -162 220 -222 336v16l168 191c34 37 45 62 45 75c0 15 -18 27 -37 32l-32 8v35h245v-35l-13 -4c-38 -9 -55 -27 -107 -82l-154 -167c59 -109 153 -247 226 -337c15 -16 20 -19 34 -23l45 -9v-36h-198zM29 0v36l39 8c28 6 37 11 37 66v473
c0 56 -9 61 -37 67l-39 8v35h301v-35l-41 -8c-31 -8 -37 -11 -37 -67v-473c0 -55 6 -59 37 -66l41 -8v-36h-301z" />
    <glyph glyph-name="L" unicode="L" horiz-adv-x="615" 
d="M29 0v36l39 8c28 6 37 11 37 66v473c0 56 -9 61 -37 67l-39 8v35h307v-35l-47 -9c-30 -6 -37 -10 -37 -66v-439c0 -89 4 -95 101 -95c86 0 107 12 136 55c18 27 42 62 66 131h41l-15 -235h-552z" />
    <glyph glyph-name="M" unicode="M" horiz-adv-x="887" 
d="M29 0v36l33 7c31 7 43 12 43 77v463c0 56 -9 61 -37 67l-39 8v35h258l162 -478h3l159 478h247v-35l-40 -8c-27 -7 -36 -11 -36 -67v-473c0 -55 8 -59 36 -66l40 -8v-36h-292v36l39 8c29 7 35 11 35 66v511h-4l-194 -606h-64l-209 606h-4v-498c0 -67 7 -73 45 -80l33 -7
v-36h-214z" />
    <glyph glyph-name="N" unicode="N" horiz-adv-x="724" 
d="M554 -3l-385 591h-4v-465c0 -67 7 -73 46 -80l38 -7v-36h-220v36l33 7c31 7 43 12 43 77v463c0 56 -9 61 -37 67l-39 8v35h242l290 -451h4v329c0 67 -7 72 -46 80l-43 7v35h225v-35l-33 -7c-31 -7 -43 -12 -43 -78v-576h-71z" />
    <glyph glyph-name="O" unicode="O" horiz-adv-x="741" 
d="M366 -12c-177 0 -329 115 -329 350c0 261 172 367 338 367c176 0 329 -114 329 -353c0 -262 -172 -364 -338 -364zM373 40c121 0 176 68 176 293c0 198 -43 321 -182 321c-119 0 -175 -72 -175 -297c0 -197 42 -317 181 -317z" />
    <glyph glyph-name="P" unicode="P" horiz-adv-x="637" 
d="M29 0v36l39 8c28 6 37 11 37 66v473c0 56 -7 60 -29 65l-47 10v35h311c176 0 269 -72 269 -206c0 -120 -90 -221 -219 -221c-44 0 -69 10 -78 15v34c99 -2 146 31 146 164c0 120 -35 165 -127 165c-34 0 -67 -3 -79 -7v-527c0 -54 4 -59 38 -65l52 -9v-36h-313z" />
    <glyph glyph-name="Q" unicode="Q" horiz-adv-x="741" 
d="M613 -170c-76 0 -125 18 -188 58c-47 30 -89 65 -144 112c-143 32 -244 146 -244 338c0 261 172 367 338 367c176 0 329 -114 329 -353c0 -206 -104 -308 -238 -344v-3c27 -23 63 -49 93 -68c53 -30 96 -41 137 -41c31 0 61 12 80 19v-30c-27 -25 -78 -55 -163 -55z
M373 39c121 0 176 69 176 294c0 198 -43 322 -182 322c-119 0 -175 -73 -175 -298c0 -197 42 -318 181 -318z" />
    <glyph glyph-name="R" unicode="R" horiz-adv-x="698" 
d="M29 0v36l39 8c28 6 37 11 37 66v473c0 56 -9 61 -37 67l-39 8v35h314c182 0 261 -61 261 -180c0 -79 -50 -143 -148 -171v-4c48 -90 113 -197 168 -270c11 -15 20 -17 51 -27l20 -5v-36h-188c-67 86 -133 203 -180 303c-4 0 -75 1 -77 1v-194c0 -55 8 -60 38 -66l41 -8
v-36h-300zM305 353c104 0 148 41 148 149c0 118 -34 142 -120 142c-39 0 -68 -3 -83 -7v-280c2 -1 29 -4 55 -4z" />
    <glyph glyph-name="S" unicode="S" horiz-adv-x="544" 
d="M250 -12c-89 0 -159 16 -204 30l-12 190h41c24 -50 40 -83 67 -119c26 -34 54 -50 116 -50c81 0 132 50 132 107c0 60 -37 96 -161 147c-135 55 -185 113 -185 214c0 114 95 198 238 198c82 0 135 -7 173 -19l12 -171h-40c-25 53 -35 73 -60 103c-20 22 -43 37 -94 37
c-71 0 -123 -43 -123 -102c0 -52 25 -79 141 -127c155 -63 215 -120 215 -213c0 -125 -89 -225 -256 -225z" />
    <glyph glyph-name="T" unicode="T" horiz-adv-x="646" 
d="M168 0v36l43 8c32 7 39 11 39 66v535h-3c-83 0 -98 -2 -127 -48c-23 -34 -34 -68 -58 -130h-41l10 226h584l10 -226h-41c-23 62 -35 96 -57 130c-30 47 -44 48 -128 48h-2v-535c0 -55 4 -59 38 -66l43 -8v-36h-310z" />
    <glyph glyph-name="U" unicode="U" horiz-adv-x="722" 
d="M375 -12c-167 0 -280 66 -280 236v359c0 56 -9 61 -37 67l-41 8v35h300v-35l-38 -8c-31 -7 -37 -11 -37 -67v-375c0 -107 44 -153 168 -153c111 0 159 59 159 165v351c0 67 -8 72 -46 80l-46 7v35h226v-35l-32 -7c-31 -7 -43 -12 -43 -78v-360c0 -123 -75 -225 -253 -225
z" />
    <glyph glyph-name="V" unicode="V" horiz-adv-x="691" 
d="M310 0l-209 556c-26 67 -34 87 -68 96l-24 6v35h295v-35l-30 -7c-24 -6 -34 -18 -34 -37c0 -16 8 -42 18 -71l135 -382h5l127 382c8 26 14 51 14 67c0 24 -11 35 -37 41l-34 7v35h215v-35l-27 -7c-30 -9 -36 -26 -64 -102l-194 -549h-88z" />
    <glyph glyph-name="W" unicode="W" horiz-adv-x="1015" 
d="M280 0l-179 561c-25 68 -33 84 -62 91l-27 6v35h292v-35l-30 -7c-22 -5 -33 -16 -33 -37c0 -19 8 -44 16 -71l112 -374h5l115 328l-23 71c-20 60 -31 76 -62 83l-24 7v35h288v-35l-34 -7c-20 -4 -34 -18 -34 -39c0 -17 6 -43 14 -69l122 -374h5l104 375c7 24 13 50 13 69
c0 21 -10 33 -34 38l-33 7v35h213v-35l-28 -6c-33 -8 -44 -37 -67 -112l-165 -540h-93l-129 412h-5l-143 -412h-94z" />
    <glyph glyph-name="X" unicode="X" horiz-adv-x="719" 
d="M26 0v36l24 5c31 8 46 22 90 85l141 210l-155 243c-30 47 -41 62 -72 72l-25 7v35h316v-35l-37 -7c-17 -4 -29 -15 -29 -30c0 -14 9 -31 28 -61l92 -149h3l89 156c16 25 22 43 22 56c0 16 -12 25 -30 28l-33 7v35h218v-35l-27 -7c-27 -7 -41 -23 -82 -85l-124 -197
l161 -250c36 -55 46 -71 74 -78l22 -5v-36h-310v36l35 6c22 3 32 13 32 28c0 13 -13 34 -30 62l-102 163h-3l-103 -164c-16 -26 -26 -46 -26 -59c0 -17 11 -27 28 -30l30 -6v-36h-217z" />
    <glyph glyph-name="Y" unicode="Y" horiz-adv-x="660" 
d="M182 0v36l43 8c30 7 37 11 37 66v172l-154 282c-36 64 -51 79 -79 87l-22 7v35h306v-35l-27 -6c-30 -7 -40 -19 -40 -39c0 -13 9 -30 22 -55l105 -209h4l105 205c12 27 18 46 18 60c0 20 -13 31 -37 37l-31 7v35h223v-35l-21 -7c-33 -10 -53 -29 -88 -100l-137 -262v-179
c0 -55 5 -59 38 -66l44 -8v-36h-309z" />
    <glyph glyph-name="Z" unicode="Z" horiz-adv-x="593" 
d="M22 0v51l372 592v4h-55c-149 0 -171 -4 -199 -45c-24 -33 -38 -59 -65 -120h-36l11 211h497v-50l-368 -592v-4h43c158 0 188 6 219 47c25 34 41 67 69 136h37l-14 -230h-511z" />
    <glyph glyph-name="bracketleft" unicode="[" horiz-adv-x="373" 
d="M103 -130v864h236v-35l-80 -9c-41 -5 -49 -12 -49 -69v-638c0 -57 8 -64 49 -69l80 -9v-35h-236z" />
    <glyph glyph-name="backslash" unicode="\" horiz-adv-x="400" 
d="M330 -130l-307 864h65l308 -864h-66z" />
    <glyph glyph-name="bracketright" unicode="]" horiz-adv-x="373" 
d="M271 734v-864h-237v35l79 9c43 5 50 12 50 69v638c0 57 -7 64 -50 69l-79 9v35h237z" />
    <glyph glyph-name="asciicircum" unicode="^" horiz-adv-x="431" 
d="M69 455l-22 21l146 224h44l147 -224l-22 -21l-147 128z" />
    <glyph glyph-name="underscore" unicode="_" horiz-adv-x="353" 
d="M-3 -178v63h359v-63h-359z" />
    <glyph glyph-name="grave" unicode="`" horiz-adv-x="511" 
d="M364 591l-192 56c-30 9 -42 31 -42 51c0 26 21 52 48 52c16 0 31 -7 47 -20l151 -112z" />
    <glyph glyph-name="a" unicode="a" horiz-adv-x="538" 
d="M180 -12c-95 0 -154 48 -154 133s55 129 195 162l97 22v83c0 75 -13 97 -85 97c-38 0 -43 -8 -47 -38c-5 -52 -23 -79 -73 -79c-43 0 -61 23 -61 57c0 67 95 104 209 104c124 0 189 -41 189 -133v-280c0 -32 5 -47 26 -57c11 -7 29 -9 48 -10v-32
c-18 -13 -57 -29 -104 -29c-55 0 -87 24 -96 60h-5c-24 -33 -75 -60 -139 -60zM238 56c40 0 68 17 80 37v156l-62 -6c-66 -6 -99 -32 -99 -106c0 -61 32 -81 81 -81z" />
    <glyph glyph-name="b" unicode="b" horiz-adv-x="611" 
d="M281 -12c-90 0 -153 14 -212 47v601c0 44 -5 48 -30 61l-40 19v32l198 18l12 -10s-8 -42 -8 -115v-85c0 -50 -5 -90 -5 -90h5c42 32 104 62 175 62c97 0 201 -58 201 -245c0 -199 -125 -295 -296 -295zM293 37c98 0 148 49 148 219c0 136 -52 195 -128 195
c-62 0 -91 -17 -112 -28v-353c24 -21 52 -33 92 -33z" />
    <glyph glyph-name="c" unicode="c" horiz-adv-x="507" 
d="M278 -12c-160 0 -247 106 -247 264c0 212 166 277 299 277c99 0 153 -33 153 -89c0 -35 -27 -73 -66 -73c-46 0 -60 29 -65 66c-6 42 -15 48 -49 48c-70 0 -137 -43 -137 -188c0 -146 57 -227 171 -227c65 0 112 22 148 41v-43c-31 -32 -104 -76 -207 -76z" />
    <glyph glyph-name="d" unicode="d" horiz-adv-x="626" 
d="M237 -12c-99 0 -202 67 -202 253c0 201 138 287 291 287c35 0 68 -4 88 -10c0 0 -4 37 -4 73v45c0 44 -6 46 -31 59l-42 21v32l200 18l12 -10s-7 -42 -7 -115v-517c0 -47 5 -53 32 -64l33 -15v-32l-186 -25l-9 7l5 55h-4c-44 -34 -107 -62 -176 -62zM308 68
c51 0 83 18 102 28v343c-19 20 -48 41 -90 41c-90 0 -148 -53 -148 -213c0 -146 48 -199 136 -199z" />
    <glyph glyph-name="e" unicode="e" horiz-adv-x="539" 
d="M289 -12c-173 0 -258 107 -258 273c0 167 124 268 258 268c135 0 217 -70 219 -258h-343c5 -150 72 -205 174 -205c71 0 117 21 156 40v-43c-31 -30 -106 -75 -206 -75zM283 483c-62 0 -111 -47 -117 -165l204 10c0 117 -17 155 -87 155z" />
    <glyph glyph-name="f" unicode="f" horiz-adv-x="349" 
d="M22 0v35l35 9c27 7 32 13 32 55v353h-72v33l72 30v46c0 129 96 208 241 208c73 0 112 -26 112 -74c0 -28 -20 -54 -56 -54c-42 0 -66 19 -70 59c-2 23 -6 27 -20 27c-36 0 -75 -24 -75 -104v-108h119l-16 -63h-103v-350c0 -47 4 -53 30 -58l47 -9v-35h-276z" />
    <glyph glyph-name="g" unicode="g" horiz-adv-x="538" 
d="M220 -227c-142 0 -226 45 -226 117c0 51 45 91 118 116v4c-39 11 -75 39 -75 88c0 59 47 95 80 118v4c-44 20 -85 71 -85 132c0 116 103 176 212 176c46 0 78 -5 117 -19c37 34 83 62 132 62c34 0 59 -17 59 -51c0 -29 -15 -56 -47 -56c-29 0 -40 13 -50 32
c-7 14 -39 3 -66 -13v-3c40 -22 69 -62 69 -117c0 -116 -104 -173 -214 -173c-36 0 -60 4 -87 16c-14 -10 -30 -30 -30 -51c0 -23 17 -43 58 -43h167c92 0 158 -31 158 -132c0 -93 -79 -207 -290 -207zM244 235c57 0 86 30 86 118c0 96 -29 131 -86 131
c-56 0 -85 -33 -85 -121c0 -96 30 -128 85 -128zM240 -179c111 0 179 50 179 108c0 45 -20 72 -89 72h-160c-26 -9 -68 -45 -68 -94c0 -55 41 -86 138 -86z" />
    <glyph glyph-name="h" unicode="h" horiz-adv-x="630" 
d="M22 0v35l35 9c27 7 32 13 32 55v537c0 44 -5 48 -31 61l-41 19v32l199 18l13 -10s-8 -48 -8 -115v-85c0 -50 -5 -93 -5 -93h4c52 34 123 65 193 65c94 0 136 -43 136 -133v-296c0 -42 6 -49 32 -55l33 -9v-35h-260v35l33 8c25 7 29 11 29 56v259c0 66 -22 89 -79 89
c-43 0 -91 -16 -116 -24v-324c0 -46 4 -49 29 -56l34 -8v-35h-262z" />
    <glyph glyph-name="i" unicode="i" horiz-adv-x="305" 
d="M151 603c-47 0 -83 35 -83 77c0 44 36 77 83 77c45 0 81 -33 81 -77c0 -42 -36 -77 -81 -77zM22 0v35l35 9c27 7 32 13 32 55v297c0 42 -5 44 -32 60l-36 21v29l195 22l13 -8c-1 -16 -8 -53 -8 -129v-292c0 -44 5 -49 32 -55l34 -9v-35h-265z" />
    <glyph glyph-name="j" unicode="j" horiz-adv-x="295" 
d="M150 603c-47 0 -83 35 -83 77c0 44 36 77 83 77c45 0 81 -33 81 -77c0 -42 -36 -77 -81 -77zM18 -227c-77 0 -117 40 -117 83c0 34 25 55 62 55c43 0 58 -20 63 -65c3 -27 9 -30 19 -30c28 0 44 25 44 58v522c0 42 -5 44 -32 60l-36 21v29l195 22l13 -8
c-1 -16 -8 -53 -8 -135v-399c0 -147 -89 -213 -203 -213z" />
    <glyph glyph-name="k" unicode="k" horiz-adv-x="585" 
d="M22 0v35l35 9c27 7 32 13 32 55v537c0 44 -5 48 -31 61l-41 19v32l199 18l13 -10s-8 -48 -8 -115v-542c0 -45 5 -49 29 -56l33 -8v-35h-261zM415 0c-71 83 -125 164 -178 249v20l102 106c39 43 52 60 52 75c0 12 -10 22 -29 27l-15 4v34h209v-35l-26 -8
c-28 -8 -51 -19 -94 -62l-94 -97c56 -91 113 -177 175 -246c10 -12 19 -19 32 -23l29 -9v-35h-163z" />
    <glyph glyph-name="l" unicode="l" horiz-adv-x="308" 
d="M22 0v35l35 9c28 7 33 13 33 55v537c0 44 -5 48 -32 61l-41 19v32l200 18l13 -10s-8 -48 -8 -115v-542c0 -44 5 -48 32 -55l35 -9v-35h-267z" />
    <glyph glyph-name="m" unicode="m" horiz-adv-x="933" 
d="M22 0v35l35 9c27 7 32 13 32 55v297c0 42 -5 44 -32 60l-36 21v29l187 22l12 -9l-6 -57h4c53 34 120 66 186 66c70 0 103 -24 123 -68h4c55 35 117 68 192 68c84 0 125 -44 125 -134v-295c0 -42 6 -49 32 -55l34 -9v-35h-260v35l32 8c26 7 30 11 30 56v259
c0 63 -17 89 -71 89c-43 0 -84 -15 -110 -26v-322c0 -43 6 -49 28 -56l33 -8v-35h-256v35l33 8c25 7 30 11 30 56v259c0 62 -18 89 -72 89c-42 0 -85 -15 -110 -24v-324c0 -46 5 -49 28 -56l33 -8v-35h-260z" />
    <glyph glyph-name="n" unicode="n" horiz-adv-x="634" 
d="M22 0v35l35 9c27 7 32 13 32 55v297c0 42 -5 44 -32 60l-36 21v29l187 22l12 -8l-6 -58h4c53 34 125 66 195 66c94 0 136 -43 136 -133v-296c0 -42 6 -49 32 -55l33 -9v-35h-260v35l33 8c25 7 29 11 29 56v259c0 66 -22 89 -79 89c-43 0 -91 -16 -116 -24v-324
c0 -46 4 -49 29 -56l34 -8v-35h-262z" />
    <glyph glyph-name="o" unicode="o" horiz-adv-x="594" 
d="M298 -12c-147 0 -267 89 -267 269c0 183 131 272 267 272c145 0 265 -87 265 -267c0 -183 -129 -274 -265 -274zM301 35c76 0 121 51 121 219c0 178 -44 228 -129 228c-77 0 -120 -52 -120 -213c0 -180 41 -234 128 -234z" />
    <glyph glyph-name="p" unicode="p" horiz-adv-x="631" 
d="M22 -219v34l35 9c27 7 32 13 32 55v517c0 42 -5 44 -32 60l-36 21v29l187 22l12 -8l-5 -56h4c44 35 106 64 175 64c98 0 202 -58 202 -245c0 -199 -120 -295 -294 -295c-24 0 -60 4 -85 11c0 0 4 -27 4 -62v-58c0 -44 4 -49 30 -55l46 -9v-34h-275zM311 37
c98 0 148 49 148 219c0 136 -51 195 -140 195c-48 0 -80 -20 -98 -28v-350c23 -22 51 -36 90 -36z" />
    <glyph glyph-name="q" unicode="q" horiz-adv-x="617" 
d="M333 -219v26l45 9c28 6 32 11 32 55v105c0 41 6 73 6 73h-4c-43 -33 -106 -61 -175 -61c-99 0 -202 67 -202 253c0 201 138 287 291 287c71 0 110 -16 149 -38h5l38 40l24 -6v-653c0 -42 5 -48 31 -55l35 -9v-26h-275zM308 63c51 0 83 21 102 30v348
c-19 19 -48 39 -90 39c-90 0 -148 -53 -148 -213c0 -146 48 -204 136 -204z" />
    <glyph glyph-name="r" unicode="r" horiz-adv-x="457" 
d="M22 0v35l35 9c27 7 32 13 32 55v297c0 42 -5 44 -32 60l-36 21v29l187 22l12 -9l-6 -63h4c33 35 96 73 151 73c45 0 72 -24 72 -68c0 -42 -25 -67 -62 -67c-42 0 -54 10 -69 37c-7 12 -15 15 -25 15c-19 0 -48 -20 -64 -36v-311c0 -45 5 -51 30 -55l43 -9v-35h-272z" />
    <glyph glyph-name="s" unicode="s" horiz-adv-x="444" 
d="M197 -12c-59 0 -117 8 -158 20l-7 152h36c19 -39 28 -59 54 -89c19 -21 43 -36 90 -36c57 0 94 26 94 74c0 50 -36 69 -122 102c-89 34 -148 78 -148 159c0 94 80 159 203 159c57 0 104 -6 137 -18l4 -135h-34c-19 34 -35 57 -54 81c-15 15 -29 25 -68 25
c-57 0 -88 -25 -88 -72c0 -36 30 -59 114 -90c108 -39 164 -82 164 -159c0 -100 -80 -173 -217 -173z" />
    <glyph glyph-name="t" unicode="t" horiz-adv-x="366" 
d="M206 -12c-77 0 -130 35 -130 122v342h-67v32c75 24 116 77 144 161h56v-130h141l-15 -63h-126v-327c0 -47 19 -66 68 -66c26 0 57 7 76 12v-36c-21 -22 -70 -47 -147 -47z" />
    <glyph glyph-name="u" unicode="u" horiz-adv-x="630" 
d="M221 -12c-83 0 -135 45 -135 132v284c0 39 -3 42 -29 55l-39 19v30l184 20l16 -11v-365c0 -58 25 -84 78 -84c43 0 87 18 118 30v306c0 39 -3 42 -30 55l-37 19v30l184 20l15 -11v-393c0 -47 4 -53 32 -64l33 -15v-32l-183 -25l-13 9l6 63h-4c-54 -37 -121 -72 -196 -72z
" />
    <glyph glyph-name="v" unicode="v" horiz-adv-x="554" 
d="M245 0l-164 400c-21 50 -29 64 -58 73l-22 7v35h267v-35l-27 -7c-24 -6 -30 -16 -30 -36c0 -13 6 -30 14 -53l92 -248h4l87 248c9 25 12 42 12 55c0 18 -7 29 -28 34l-28 7v35h191v-35l-24 -7c-27 -7 -35 -26 -57 -83l-152 -390h-77z" />
    <glyph glyph-name="w" unicode="w" horiz-adv-x="838" 
d="M228 0l-146 400c-19 52 -29 64 -57 73l-23 7v35h257v-35l-24 -6c-20 -5 -28 -15 -28 -32c0 -13 7 -32 16 -58l80 -245h6l85 241l-6 20c-15 47 -29 67 -52 73l-22 7v35h249v-35l-28 -7c-19 -5 -26 -17 -26 -35c0 -13 5 -31 13 -54l84 -245h5l78 245c9 26 12 43 12 55
c0 18 -7 29 -28 34l-29 7v35h191v-35l-23 -7c-28 -7 -37 -25 -58 -83l-142 -390h-81l-107 311h-3l-113 -311h-80z" />
    <glyph glyph-name="x" unicode="x" horiz-adv-x="590" 
d="M24 0v35l27 6c34 9 55 25 88 74l93 138l-114 150c-42 58 -55 66 -82 73l-16 4v35h273v-35l-24 -4c-17 -4 -26 -13 -26 -27c0 -12 11 -29 26 -49l63 -86h3l45 72c17 32 27 49 27 63c0 13 -9 21 -26 25l-27 6v35h207v-35l-26 -6c-34 -10 -54 -29 -88 -78l-85 -118l124 -166
c38 -52 50 -65 83 -74l14 -3v-35h-273v35l24 4c20 4 27 13 27 26s-15 30 -30 53l-69 98h-3l-49 -87c-20 -32 -31 -50 -31 -64c0 -13 7 -21 35 -26l19 -4v-35h-209z" />
    <glyph glyph-name="y" unicode="y" horiz-adv-x="563" 
d="M119 -224c-65 0 -96 34 -96 73c0 35 20 60 55 60c38 0 53 -16 62 -45c6 -15 9 -21 17 -21c23 0 51 27 83 100l19 47l-180 410c-26 59 -30 65 -55 73l-21 7v35h265v-35l-27 -7c-22 -5 -31 -14 -31 -34c0 -14 5 -32 15 -55l100 -239h4l90 239c9 25 11 45 11 59
c0 18 -10 25 -29 30l-29 7v35h194v-35l-25 -7c-26 -8 -31 -22 -56 -83l-188 -451c-43 -104 -93 -163 -178 -163z" />
    <glyph glyph-name="z" unicode="z" horiz-adv-x="499" 
d="M23 0v43l304 422v4h-62c-79 0 -98 -6 -118 -31c-22 -30 -36 -56 -61 -103h-35l9 180h416v-41l-305 -424v-4h58c103 0 122 11 146 42c24 32 41 63 58 100h37l-14 -188h-433z" />
    <glyph glyph-name="braceleft" unicode="{" horiz-adv-x="374" 
d="M336 -129c-180 8 -231 45 -231 115c0 53 52 198 52 237c0 31 -20 55 -117 59v44c94 4 117 30 117 61c0 39 -52 180 -52 233c0 69 51 106 231 115v-36c-96 -14 -114 -26 -114 -75c0 -75 25 -154 25 -211c0 -56 -40 -90 -132 -107v-4c94 -14 132 -49 132 -106
s-25 -139 -25 -215c0 -49 18 -60 114 -74v-36z" />
    <glyph glyph-name="bar" unicode="|" horiz-adv-x="257" 
d="M96 -130v864h64v-864h-64z" />
    <glyph glyph-name="braceright" unicode="}" horiz-adv-x="374" 
d="M42 735c179 -9 231 -46 231 -115c0 -53 -52 -193 -52 -233c0 -30 24 -57 117 -61v-44c-98 -4 -117 -27 -117 -58c0 -39 52 -185 52 -238c0 -70 -52 -107 -231 -115v36c96 14 113 25 113 74c0 76 -24 160 -24 217c0 56 30 91 132 104v4c-83 18 -132 52 -132 109
s24 134 24 209c0 49 -17 61 -113 75v36z" />
    <glyph glyph-name="asciitilde" unicode="~" horiz-adv-x="400" 
d="M67 226l-30 14c29 68 52 114 96 114c47 0 108 -34 145 -34c21 0 38 17 57 48l31 -15c-30 -68 -50 -113 -97 -113c-48 0 -107 33 -145 33c-20 0 -38 -16 -57 -47z" />
    <glyph glyph-name="Adieresis" unicode="&#xc4;" horiz-adv-x="699" 
d="M3 0v36l29 7c29 8 40 15 68 89l205 561h83l214 -568c26 -68 39 -75 66 -83l26 -6v-36h-293v36l28 7c27 7 36 14 36 32c0 16 -8 34 -17 62l-30 83h-225l-28 -83c-9 -28 -14 -42 -14 -58c0 -22 12 -29 40 -36l31 -7v-36h-219zM301 533l-91 -263h190l-94 263h-5zM232 749
c-42 0 -77 34 -77 73c0 41 35 73 77 73s77 -32 77 -73c0 -39 -35 -73 -77 -73zM460 750c-43 0 -77 33 -77 73s34 73 77 73c42 0 76 -33 76 -73s-34 -73 -76 -73z" />
    <glyph glyph-name="Aring" unicode="&#xc5;" horiz-adv-x="699" 
d="M3 0v36l29 7c29 8 40 15 68 89l205 561h83l214 -568c26 -68 39 -75 66 -83l26 -6v-36h-293v36l28 7c27 7 36 14 36 32c0 16 -8 34 -17 62l-30 83h-225l-28 -83c-9 -28 -14 -42 -14 -58c0 -22 12 -29 40 -36l31 -7v-36h-219zM301 533l-91 -263h190l-94 263h-5zM346 737
c-64 0 -109 45 -109 103c0 59 47 104 109 104s109 -44 109 -104c0 -58 -47 -103 -109 -103zM346 779c35 0 57 25 57 61c0 35 -22 62 -57 62s-58 -27 -58 -62c0 -36 23 -61 58 -61z" />
    <glyph glyph-name="Ccedilla" unicode="&#xc7;" horiz-adv-x="645" 
d="M234 -251v31c81 18 114 44 114 71c0 21 -23 35 -73 39l-9 9l48 94c-166 22 -277 132 -277 348c0 263 168 364 363 364c78 0 148 -11 192 -23l10 -203h-39c-25 56 -48 106 -73 140c-25 33 -43 37 -102 37c-133 0 -194 -73 -194 -295c0 -253 61 -324 187 -324
c76 0 98 21 125 58c28 41 42 68 64 126h37l-10 -191c-48 -21 -127 -42 -215 -42c-7 0 -14 0 -21 1l-33 -45c74 -5 107 -36 107 -75c0 -52 -65 -106 -201 -120z" />
    <glyph glyph-name="Eacute" unicode="&#xc9;" horiz-adv-x="642" 
d="M241 746l-12 27l150 112c17 13 31 20 47 20c27 0 47 -26 47 -52c0 -20 -10 -42 -41 -51zM29 0v36l39 8c28 6 37 11 37 66v473c0 56 -9 61 -37 67l-39 8v35h547l12 -190h-40c-23 53 -39 81 -53 101c-31 40 -52 40 -132 40c-64 0 -92 -5 -111 -9v-250h30c76 0 98 5 113 30
c12 23 19 37 27 69h40v-250h-40c-8 31 -15 43 -27 70c-14 28 -30 30 -113 30h-30v-186c0 -99 3 -98 120 -98c89 0 104 3 135 43c18 24 40 71 64 131h41l-15 -224h-568z" />
    <glyph glyph-name="Ntilde" unicode="&#xd1;" horiz-adv-x="724" 
d="M255 761l-37 16c29 84 58 129 104 129c48 0 119 -46 150 -46c25 0 39 20 61 60l35 -15c-29 -84 -55 -129 -102 -129c-48 0 -119 46 -151 46c-25 0 -38 -21 -60 -61zM554 -3l-385 591h-4v-465c0 -67 7 -73 46 -80l38 -7v-36h-220v36l33 7c31 7 43 12 43 77v463
c0 56 -9 61 -37 67l-39 8v35h242l290 -451h4v329c0 67 -7 72 -46 80l-43 7v35h225v-35l-33 -7c-31 -7 -43 -12 -43 -78v-576h-71z" />
    <glyph glyph-name="Odieresis" unicode="&#xd6;" horiz-adv-x="741" 
d="M257 749c-42 0 -77 34 -77 73c0 41 35 73 77 73s77 -32 77 -73c0 -39 -35 -73 -77 -73zM485 750c-43 0 -77 33 -77 73s34 73 77 73c42 0 76 -33 76 -73s-34 -73 -76 -73zM366 -12c-177 0 -329 115 -329 350c0 261 172 367 338 367c176 0 329 -114 329 -353
c0 -262 -172 -364 -338 -364zM373 40c121 0 176 68 176 293c0 198 -43 321 -182 321c-119 0 -175 -72 -175 -297c0 -197 42 -317 181 -317z" />
    <glyph glyph-name="Udieresis" unicode="&#xdc;" horiz-adv-x="722" 
d="M375 -12c-167 0 -280 66 -280 236v359c0 56 -9 61 -37 67l-41 8v35h300v-35l-38 -8c-31 -7 -37 -11 -37 -67v-375c0 -107 44 -153 168 -153c111 0 159 59 159 165v351c0 67 -8 72 -46 80l-46 7v35h226v-35l-32 -7c-31 -7 -43 -12 -43 -78v-360c0 -123 -75 -225 -253 -225
zM282 749c-42 0 -77 34 -77 73c0 41 35 73 77 73s77 -32 77 -73c0 -39 -35 -73 -77 -73zM510 750c-43 0 -77 33 -77 73s34 73 77 73c42 0 76 -33 76 -73s-34 -73 -76 -73z" />
    <glyph glyph-name="aacute" unicode="&#xe1;" horiz-adv-x="538" 
d="M180 -12c-95 0 -154 48 -154 133s55 129 195 162l97 22v83c0 75 -13 97 -85 97c-38 0 -43 -8 -47 -38c-5 -52 -23 -79 -73 -79c-43 0 -61 23 -61 57c0 67 95 104 209 104c124 0 189 -41 189 -133v-280c0 -32 5 -47 26 -57c11 -7 29 -9 48 -10v-32
c-18 -13 -57 -29 -104 -29c-55 0 -87 24 -96 60h-5c-24 -33 -75 -60 -139 -60zM238 56c40 0 68 17 80 37v156l-62 -6c-66 -6 -99 -32 -99 -106c0 -61 32 -81 81 -81zM169 591l-12 27l150 112c17 13 31 20 47 20c27 0 47 -26 47 -52c0 -20 -10 -42 -41 -51z" />
    <glyph glyph-name="agrave" unicode="&#xe0;" horiz-adv-x="538" 
d="M180 -12c-95 0 -154 48 -154 133s55 129 195 162l97 22v83c0 75 -13 97 -85 97c-38 0 -43 -8 -47 -38c-5 -52 -23 -79 -73 -79c-43 0 -61 23 -61 57c0 67 95 104 209 104c124 0 189 -41 189 -133v-280c0 -32 5 -47 26 -57c11 -7 29 -9 48 -10v-32
c-18 -13 -57 -29 -104 -29c-55 0 -87 24 -96 60h-5c-24 -33 -75 -60 -139 -60zM238 56c40 0 68 17 80 37v156l-62 -6c-66 -6 -99 -32 -99 -106c0 -61 32 -81 81 -81zM349 591l-192 56c-30 9 -42 31 -42 51c0 26 21 52 48 52c16 0 31 -7 47 -20l151 -112z" />
    <glyph glyph-name="acircumflex" unicode="&#xe2;" horiz-adv-x="538" 
d="M180 -12c-95 0 -154 48 -154 133s55 129 195 162l97 22v83c0 75 -13 97 -85 97c-38 0 -43 -8 -47 -38c-5 -52 -23 -79 -73 -79c-43 0 -61 23 -61 57c0 67 95 104 209 104c124 0 189 -41 189 -133v-280c0 -32 5 -47 26 -57c11 -7 29 -9 48 -10v-32
c-18 -13 -57 -29 -104 -29c-55 0 -87 24 -96 60h-5c-24 -33 -75 -60 -139 -60zM238 56c40 0 68 17 80 37v156l-62 -6c-66 -6 -99 -32 -99 -106c0 -61 32 -81 81 -81zM291 759l132 -147l-20 -28l-142 82l-142 -82l-20 28l131 147h61z" />
    <glyph glyph-name="adieresis" unicode="&#xe4;" horiz-adv-x="538" 
d="M180 -12c-95 0 -154 48 -154 133s55 129 195 162l97 22v83c0 75 -13 97 -85 97c-38 0 -43 -8 -47 -38c-5 -52 -23 -79 -73 -79c-43 0 -61 23 -61 57c0 67 95 104 209 104c124 0 189 -41 189 -133v-280c0 -32 5 -47 26 -57c11 -7 29 -9 48 -10v-32
c-18 -13 -57 -29 -104 -29c-55 0 -87 24 -96 60h-5c-24 -33 -75 -60 -139 -60zM238 56c40 0 68 17 80 37v156l-62 -6c-66 -6 -99 -32 -99 -106c0 -61 32 -81 81 -81zM153 606c-42 0 -77 33 -77 73c0 41 35 73 77 73s77 -32 77 -73c0 -40 -35 -73 -77 -73zM369 606
c-43 0 -77 33 -77 73c0 41 34 73 77 73c42 0 76 -32 76 -73c0 -40 -34 -73 -76 -73z" />
    <glyph glyph-name="atilde" unicode="&#xe3;" horiz-adv-x="538" 
d="M180 -12c-95 0 -154 48 -154 133s55 129 195 162l97 22v83c0 75 -13 97 -85 97c-38 0 -43 -8 -47 -38c-5 -52 -23 -79 -73 -79c-43 0 -61 23 -61 57c0 67 95 104 209 104c124 0 189 -41 189 -133v-280c0 -32 5 -47 26 -57c11 -7 29 -9 48 -10v-32
c-18 -13 -57 -29 -104 -29c-55 0 -87 24 -96 60h-5c-24 -33 -75 -60 -139 -60zM238 56c40 0 68 17 80 37v156l-62 -6c-66 -6 -99 -32 -99 -106c0 -61 32 -81 81 -81zM126 584l-36 16c29 86 58 133 103 133c48 0 111 -40 143 -40c24 0 38 24 60 65l36 -16
c-29 -85 -56 -133 -102 -133c-48 0 -111 40 -144 40c-24 0 -37 -24 -60 -65z" />
    <glyph glyph-name="aring" unicode="&#xe5;" horiz-adv-x="538" 
d="M180 -12c-95 0 -154 48 -154 133s55 129 195 162l97 22v83c0 75 -13 97 -85 97c-38 0 -43 -8 -47 -38c-5 -52 -23 -79 -73 -79c-43 0 -61 23 -61 57c0 67 95 104 209 104c124 0 189 -41 189 -133v-280c0 -32 5 -47 26 -57c11 -7 29 -9 48 -10v-32
c-18 -13 -57 -29 -104 -29c-55 0 -87 24 -96 60h-5c-24 -33 -75 -60 -139 -60zM238 56c40 0 68 17 80 37v156l-62 -6c-66 -6 -99 -32 -99 -106c0 -61 32 -81 81 -81zM261 586c-64 0 -109 46 -109 103c0 59 47 105 109 105s109 -45 109 -105c0 -57 -47 -103 -109 -103z
M261 628c35 0 57 26 57 61c0 36 -22 62 -57 62s-58 -26 -58 -62c0 -35 23 -61 58 -61z" />
    <glyph glyph-name="ccedilla" unicode="&#xe7;" horiz-adv-x="507" 
d="M150 -251v31c81 18 114 44 114 71c0 21 -23 35 -73 39l-9 9l47 93c-129 19 -198 118 -198 260c0 212 166 277 299 277c99 0 153 -33 153 -89c0 -35 -27 -73 -66 -73c-46 0 -60 29 -65 66c-6 42 -15 48 -49 48c-70 0 -137 -43 -137 -188c0 -146 57 -227 171 -227
c65 0 112 22 148 41v-43c-31 -32 -104 -76 -207 -76h-1l-33 -44c74 -5 107 -36 107 -75c0 -52 -65 -106 -201 -120z" />
    <glyph glyph-name="eacute" unicode="&#xe9;" horiz-adv-x="539" 
d="M194 591l-12 27l150 112c17 13 31 20 47 20c27 0 47 -26 47 -52c0 -20 -10 -42 -41 -51zM289 -12c-173 0 -258 107 -258 273c0 167 124 268 258 268c135 0 217 -70 219 -258h-343c5 -150 72 -205 174 -205c71 0 117 21 156 40v-43c-31 -30 -106 -75 -206 -75zM283 483
c-62 0 -111 -47 -117 -165l204 10c0 117 -17 155 -87 155z" />
    <glyph glyph-name="egrave" unicode="&#xe8;" horiz-adv-x="539" 
d="M289 -12c-173 0 -258 107 -258 273c0 167 124 268 258 268c135 0 217 -70 219 -258h-343c5 -150 72 -205 174 -205c71 0 117 21 156 40v-43c-31 -30 -106 -75 -206 -75zM283 483c-62 0 -111 -47 -117 -165l204 10c0 117 -17 155 -87 155zM373 591l-192 56
c-30 9 -42 31 -42 51c0 26 21 52 48 52c16 0 31 -7 47 -20l151 -112z" />
    <glyph glyph-name="ecircumflex" unicode="&#xea;" horiz-adv-x="539" 
d="M315 759l132 -147l-20 -28l-142 82l-142 -82l-20 28l131 147h61zM289 -12c-173 0 -258 107 -258 273c0 167 124 268 258 268c135 0 217 -70 219 -258h-343c5 -150 72 -205 174 -205c71 0 117 21 156 40v-43c-31 -30 -106 -75 -206 -75zM283 483c-62 0 -111 -47 -117 -165
l204 10c0 117 -17 155 -87 155z" />
    <glyph glyph-name="edieresis" unicode="&#xeb;" horiz-adv-x="539" 
d="M177 606c-42 0 -77 33 -77 73c0 41 35 73 77 73s77 -32 77 -73c0 -40 -35 -73 -77 -73zM393 606c-43 0 -77 33 -77 73c0 41 34 73 77 73c42 0 76 -32 76 -73c0 -40 -34 -73 -76 -73zM289 -12c-173 0 -258 107 -258 273c0 167 124 268 258 268c135 0 217 -70 219 -258
h-343c5 -150 72 -205 174 -205c71 0 117 21 156 40v-43c-31 -30 -106 -75 -206 -75zM283 483c-62 0 -111 -47 -117 -165l204 10c0 117 -17 155 -87 155z" />
    <glyph glyph-name="iacute" unicode="&#xed;" horiz-adv-x="305" 
d="M62 591l-12 27l150 112c17 13 31 20 47 20c27 0 47 -26 47 -52c0 -20 -10 -42 -41 -51zM22 0v31l35 11c30 7 32 15 32 71v272c0 53 -4 53 -32 69l-36 23v29l195 22l12 -7c-1 -6 -7 -49 -7 -128v-280c0 -58 3 -65 32 -71l34 -11v-31h-265zM229 521c0 0 -1 1 -1 0h1z" />
    <glyph glyph-name="igrave" unicode="&#xec;" horiz-adv-x="305" 
d="M22 0v31l35 11c30 7 32 15 32 71v272c0 53 -4 53 -32 69l-36 23v29l195 22l12 -7c-1 -6 -7 -49 -7 -128v-280c0 -58 3 -65 32 -71l34 -11v-31h-265zM229 521c0 0 -1 1 -1 0h1zM242 591l-192 56c-30 9 -42 31 -42 51c0 26 21 52 48 52c16 0 31 -7 47 -20l151 -112z" />
    <glyph glyph-name="icircumflex" unicode="&#xee;" horiz-adv-x="305" 
d="M184 759l132 -147l-20 -28l-142 82l-142 -82l-20 28l131 147h61zM22 0v31l35 11c30 7 32 15 32 71v272c0 53 -4 53 -32 69l-36 23v29l195 22l12 -7c-1 -6 -7 -49 -7 -128v-280c0 -58 3 -65 32 -71l34 -11v-31h-265zM229 521c0 0 -1 1 -1 0h1z" />
    <glyph glyph-name="idieresis" unicode="&#xef;" horiz-adv-x="305" 
d="M46 606c-42 0 -77 33 -77 73c0 41 35 73 77 73s77 -32 77 -73c0 -40 -35 -73 -77 -73zM262 606c-43 0 -77 33 -77 73c0 41 34 73 77 73c42 0 76 -32 76 -73c0 -40 -34 -73 -76 -73zM22 0v31l35 11c30 7 32 15 32 71v272c0 53 -4 53 -32 69l-36 23v29l195 22l12 -7
c-1 -6 -7 -49 -7 -128v-280c0 -58 3 -65 32 -71l34 -11v-31h-265zM229 521c0 0 -1 1 -1 0h1z" />
    <glyph glyph-name="ntilde" unicode="&#xf1;" horiz-adv-x="634" 
d="M22 0v35l35 9c27 7 32 13 32 55v297c0 42 -5 44 -32 60l-36 21v29l187 22l12 -8l-6 -58h4c53 34 125 66 195 66c94 0 136 -43 136 -133v-296c0 -42 6 -49 32 -55l33 -9v-35h-260v35l33 8c25 7 29 11 29 56v259c0 66 -22 89 -79 89c-43 0 -91 -16 -116 -24v-324
c0 -46 4 -49 29 -56l34 -8v-35h-262zM187 584l-36 16c29 86 58 133 103 133c48 0 111 -40 143 -40c24 0 38 24 60 65l36 -16c-29 -85 -56 -133 -102 -133c-48 0 -111 40 -144 40c-24 0 -37 -24 -60 -65z" />
    <glyph glyph-name="oacute" unicode="&#xf3;" horiz-adv-x="594" 
d="M206 591l-12 27l150 112c17 13 31 20 47 20c27 0 47 -26 47 -52c0 -20 -10 -42 -41 -51zM298 -12c-147 0 -267 89 -267 269c0 183 131 272 267 272c145 0 265 -87 265 -267c0 -183 -129 -274 -265 -274zM301 35c76 0 121 51 121 219c0 178 -44 228 -129 228
c-77 0 -120 -52 -120 -213c0 -180 41 -234 128 -234z" />
    <glyph glyph-name="ograve" unicode="&#xf2;" horiz-adv-x="594" 
d="M298 -12c-147 0 -267 89 -267 269c0 183 131 272 267 272c145 0 265 -87 265 -267c0 -183 -129 -274 -265 -274zM301 35c76 0 121 51 121 219c0 178 -44 228 -129 228c-77 0 -120 -52 -120 -213c0 -180 41 -234 128 -234zM385 591l-192 56c-30 9 -42 31 -42 51
c0 26 21 52 48 52c16 0 31 -7 47 -20l151 -112z" />
    <glyph glyph-name="ocircumflex" unicode="&#xf4;" horiz-adv-x="594" 
d="M327 759l132 -147l-20 -28l-142 82l-142 -82l-20 28l131 147h61zM298 -12c-147 0 -267 89 -267 269c0 183 131 272 267 272c145 0 265 -87 265 -267c0 -183 -129 -274 -265 -274zM301 35c76 0 121 51 121 219c0 178 -44 228 -129 228c-77 0 -120 -52 -120 -213
c0 -180 41 -234 128 -234z" />
    <glyph glyph-name="odieresis" unicode="&#xf6;" horiz-adv-x="594" 
d="M189 606c-42 0 -77 33 -77 73c0 41 35 73 77 73s77 -32 77 -73c0 -40 -35 -73 -77 -73zM405 606c-43 0 -77 33 -77 73c0 41 34 73 77 73c42 0 76 -32 76 -73c0 -40 -34 -73 -76 -73zM298 -12c-147 0 -267 89 -267 269c0 183 131 272 267 272c145 0 265 -87 265 -267
c0 -183 -129 -274 -265 -274zM301 35c76 0 121 51 121 219c0 178 -44 228 -129 228c-77 0 -120 -52 -120 -213c0 -180 41 -234 128 -234z" />
    <glyph glyph-name="otilde" unicode="&#xf5;" horiz-adv-x="594" 
d="M298 -12c-147 0 -267 89 -267 269c0 183 131 272 267 272c145 0 265 -87 265 -267c0 -183 -129 -274 -265 -274zM301 35c76 0 121 51 121 219c0 178 -44 228 -129 228c-77 0 -120 -52 -120 -213c0 -180 41 -234 128 -234zM163 584l-36 16c29 86 58 133 103 133
c48 0 111 -40 143 -40c24 0 38 24 60 65l36 -16c-29 -85 -56 -133 -102 -133c-48 0 -111 40 -144 40c-24 0 -37 -24 -60 -65z" />
    <glyph glyph-name="uacute" unicode="&#xfa;" horiz-adv-x="630" 
d="M228 591l-12 27l150 112c17 13 31 20 47 20c27 0 47 -26 47 -52c0 -20 -10 -42 -41 -51zM221 -12c-83 0 -135 45 -135 132v284c0 39 -3 42 -29 55l-39 19v30l184 20l16 -11v-365c0 -58 25 -84 78 -84c43 0 87 18 118 30v306c0 39 -3 42 -30 55l-37 19v30l184 20l15 -11
v-393c0 -47 4 -53 32 -64l33 -15v-32l-183 -25l-13 9l6 63h-4c-54 -37 -121 -72 -196 -72z" />
    <glyph glyph-name="ugrave" unicode="&#xf9;" horiz-adv-x="630" 
d="M221 -12c-83 0 -135 45 -135 132v284c0 39 -3 42 -29 55l-39 19v30l184 20l16 -11v-365c0 -58 25 -84 78 -84c43 0 87 18 118 30v306c0 39 -3 42 -30 55l-37 19v30l184 20l15 -11v-393c0 -47 4 -53 32 -64l33 -15v-32l-183 -25l-13 9l6 63h-4c-54 -37 -121 -72 -196 -72z
M408 591l-192 56c-30 9 -42 31 -42 51c0 26 21 52 48 52c16 0 31 -7 47 -20l151 -112z" />
    <glyph glyph-name="ucircumflex" unicode="&#xfb;" horiz-adv-x="630" 
d="M350 759l132 -147l-20 -28l-142 82l-142 -82l-20 28l131 147h61zM221 -12c-83 0 -135 45 -135 132v284c0 39 -3 42 -29 55l-39 19v30l184 20l16 -11v-365c0 -58 25 -84 78 -84c43 0 87 18 118 30v306c0 39 -3 42 -30 55l-37 19v30l184 20l15 -11v-393c0 -47 4 -53 32 -64
l33 -15v-32l-183 -25l-13 9l6 63h-4c-54 -37 -121 -72 -196 -72z" />
    <glyph glyph-name="udieresis" unicode="&#xfc;" horiz-adv-x="630" 
d="M212 606c-42 0 -77 33 -77 73c0 41 35 73 77 73s77 -32 77 -73c0 -40 -35 -73 -77 -73zM428 606c-43 0 -77 33 -77 73c0 41 34 73 77 73c42 0 76 -32 76 -73c0 -40 -34 -73 -76 -73zM221 -12c-83 0 -135 45 -135 132v284c0 39 -3 42 -29 55l-39 19v30l184 20l16 -11v-365
c0 -58 25 -84 78 -84c43 0 87 18 118 30v306c0 39 -3 42 -30 55l-37 19v30l184 20l15 -11v-393c0 -47 4 -53 32 -64l33 -15v-32l-183 -25l-13 9l6 63h-4c-54 -37 -121 -72 -196 -72z" />
    <glyph glyph-name="dagger" unicode="&#x2020;" horiz-adv-x="439" 
d="M200 479c-54 -5 -88 -35 -121 -35c-34 0 -54 24 -54 53s20 53 54 53c33 0 67 -30 121 -36c-6 55 -44 103 -44 131c0 32 30 57 62 57c33 0 62 -25 62 -57c0 -28 -37 -76 -42 -131c55 6 88 36 121 36c35 0 54 -24 54 -53s-19 -53 -54 -53c-33 0 -66 30 -121 35
c3 -39 23 -85 43 -114l-44 -432h-37l-44 432c23 29 42 75 44 114z" />
    <glyph glyph-name="degree" unicode="&#xb0;" horiz-adv-x="373" 
d="M187 419c-82 0 -144 67 -144 144c0 74 62 141 144 141c81 0 143 -67 143 -141c0 -77 -62 -144 -143 -144zM187 466c53 0 88 45 88 97c0 51 -35 95 -88 95c-54 0 -89 -44 -89 -95c0 -52 35 -97 89 -97z" />
    <glyph glyph-name="cent" unicode="&#xa2;" horiz-adv-x="508" 
d="M275 -150v138c-152 2 -244 102 -244 257c0 181 121 259 244 279v79h53v-74h12c104 0 163 -34 163 -90c0 -35 -21 -74 -63 -74c-44 0 -53 22 -58 63c-6 37 -18 50 -54 52v-415h2c70 0 123 23 159 42v-43c-26 -26 -84 -61 -161 -72v-142h-53zM165 286
c0 -128 38 -194 110 -214v405c-62 -14 -110 -65 -110 -191z" />
    <glyph glyph-name="sterling" unicode="&#xa3;" horiz-adv-x="553" 
d="M48 332v52h64c-10 40 -18 80 -18 115c0 122 97 206 251 206c110 0 175 -37 175 -98c0 -43 -28 -66 -62 -66c-46 0 -62 26 -75 75c-10 42 -14 45 -48 45c-57 0 -95 -30 -95 -131c0 -38 4 -95 7 -146h164v-52h-161c1 -12 1 -24 1 -33c0 -84 -46 -139 -124 -188v-5h274
c41 0 54 7 85 78h34l-24 -184h-471v82c77 46 115 85 115 160c0 24 -7 56 -15 90h-77z" />
    <glyph glyph-name="section" unicode="&#xa7;" horiz-adv-x="583" 
d="M262 -204c-105 0 -161 41 -161 95c0 37 19 58 57 58c39 0 58 -19 63 -66c5 -36 13 -46 58 -46c48 0 80 28 80 76c0 56 -30 81 -157 175c-114 85 -173 134 -173 217c0 72 49 121 116 159c-15 25 -20 42 -20 71c0 96 75 167 198 167c100 0 157 -36 157 -89
c0 -33 -24 -57 -60 -57c-42 0 -56 19 -62 69c-3 25 -12 36 -51 36c-50 0 -81 -29 -81 -76c0 -57 27 -81 154 -175c124 -92 173 -138 173 -220c0 -67 -46 -122 -108 -159c9 -21 14 -39 14 -66c0 -101 -78 -169 -197 -169zM422 63c26 18 39 42 39 77c0 49 -32 77 -150 164
c-64 48 -115 87 -146 129c-30 -16 -42 -41 -42 -77c0 -50 37 -78 149 -162c65 -50 117 -89 150 -131z" />
    <glyph glyph-name="bullet" unicode="&#x2022;" horiz-adv-x="435" 
d="M217 180c-89 0 -160 72 -160 158c0 89 71 158 160 158c86 0 161 -69 161 -158c0 -86 -75 -158 -161 -158z" />
    <glyph glyph-name="paragraph" unicode="&#xb6;" horiz-adv-x="589" 
d="M262 -100v439c-9 -1 -24 -2 -40 -2c-131 0 -194 75 -194 182c0 103 70 174 203 174h330v-35l-40 -8c-27 -6 -37 -11 -37 -67v-683h-61v745h-100v-745h-61z" />
    <glyph glyph-name="germandbls" unicode="&#xdf;" horiz-adv-x="657" 
d="M465 34c47 0 80 28 80 65c0 46 -30 67 -110 117c-86 53 -120 86 -120 135c0 85 114 162 114 275c0 61 -25 102 -95 102c-63 0 -113 -39 -113 -134v-499c0 -43 1 -50 23 -56l20 -4v-35h-242v35l35 9c27 7 32 13 32 55v353h-72v33l72 30v27c0 164 139 227 255 227
c146 0 217 -57 217 -127c0 -114 -160 -174 -160 -225c0 -23 23 -42 117 -99c93 -55 127 -97 127 -166c0 -101 -88 -160 -190 -160c-104 0 -162 39 -162 95c0 31 21 55 57 55c41 0 54 -18 59 -58c6 -39 18 -50 56 -50z" />
    <glyph glyph-name="registered" unicode="&#xae;" horiz-adv-x="586" 
d="M291 187c-145 0 -255 115 -255 256c0 144 110 258 255 258c146 0 259 -114 259 -258c0 -141 -113 -256 -259 -256zM291 227c123 0 209 98 209 216c0 121 -86 218 -209 218c-124 0 -205 -97 -205 -218c0 -118 81 -216 205 -216zM170 321v26l18 5c8 3 9 4 9 23v147
c0 17 -1 18 -9 23l-17 4v26h121c77 0 107 -24 107 -68c0 -32 -17 -54 -47 -64v-4c16 -32 26 -51 40 -71c8 -10 12 -13 24 -17l12 -4v-26h-78c-25 34 -44 68 -58 102h-29v-48c0 -19 1 -20 12 -23l17 -5v-26h-122zM263 454h22c31 0 47 14 47 49c0 33 -14 40 -45 40
c-3 0 -22 0 -24 -1v-88z" />
    <glyph glyph-name="copyright" unicode="&#xa9;" horiz-adv-x="823" 
d="M410 -15c-207 0 -364 161 -364 359s157 357 364 357c206 0 367 -159 367 -357s-161 -359 -367 -359zM410 29c183 0 315 142 315 315s-132 313 -315 313c-184 0 -311 -140 -311 -313s127 -315 311 -315zM413 147c-114 0 -196 63 -196 195c0 147 93 206 206 206
c53 0 91 -7 117 -14l7 -115h-30c-15 31 -28 51 -41 69c-14 19 -28 23 -60 23c-65 0 -94 -50 -94 -154c0 -128 36 -173 101 -173c28 0 44 5 61 27c12 16 25 41 38 75h30l-8 -117c-28 -11 -73 -22 -131 -22z" />
    <glyph glyph-name="trademark" unicode="&#x2122;" horiz-adv-x="915" 
d="M405 346v33l24 5c18 4 23 15 23 49v191c0 23 -4 26 -21 31l-22 6v32h162l74 -205h2l68 205h165v-31l-24 -6c-17 -5 -21 -8 -21 -31v-205c0 -28 3 -33 20 -36l25 -5v-33h-180v33l27 7c15 3 17 6 17 34v231h-4l-97 -296h-38l-106 296h-3v-217c0 -37 4 -46 26 -50l25 -5v-33
h-142zM110 347v32l30 7c16 4 18 7 18 34v239h-5c-32 0 -38 -5 -50 -24c-13 -22 -19 -37 -34 -76h-31l7 134h320l7 -134h-30c-15 38 -21 54 -33 76c-13 19 -20 24 -52 24h-5v-239c0 -27 3 -31 19 -34l31 -7v-32h-192z" />
    <glyph glyph-name="acute" unicode="&#xb4;" horiz-adv-x="513" 
d="M149 591l-12 27l150 112c17 13 31 20 47 20c27 0 47 -26 47 -52c0 -20 -10 -42 -41 -51z" />
    <glyph glyph-name="dieresis" unicode="&#xa8;" horiz-adv-x="513" 
d="M149 606c-42 0 -77 33 -77 73c0 41 35 73 77 73s77 -32 77 -73c0 -40 -35 -73 -77 -73zM365 606c-43 0 -77 33 -77 73c0 41 34 73 77 73c42 0 76 -32 76 -73c0 -40 -34 -73 -76 -73z" />
    <glyph glyph-name="notequal" unicode="&#x2260;" horiz-adv-x="529" 
d="M44 381v62h250l72 132h63l-73 -132h129v-62h-163l-58 -107h221v-61h-255l-70 -129h-62l70 129h-124v61h158l58 107h-216z" />
    <glyph glyph-name="AE" unicode="&#xc6;" horiz-adv-x="967" 
d="M367 0v36l39 8c27 6 38 11 38 66v98h-222l-33 -58c-18 -31 -32 -57 -32 -76c0 -16 9 -25 31 -31l33 -7v-36h-218v36l20 7c31 8 47 17 97 102l293 501l-9 2l-52 10v35h549l12 -190h-40c-22 53 -38 81 -52 101c-30 40 -52 40 -129 40c-59 0 -86 -4 -105 -9v-250h18
c75 0 97 5 112 30c13 23 20 37 28 69h39v-250h-39c-9 32 -15 43 -28 70c-14 28 -30 30 -112 30h-18v-186c0 -99 12 -98 113 -98c87 0 103 3 133 43c18 24 39 71 64 131h40l-15 -224h-555zM441 595l-191 -337h194v319c0 6 0 12 -1 18h-2z" />
    <glyph glyph-name="Oslash" unicode="&#xd8;" horiz-adv-x="741" 
d="M55 -60l89 127c-65 59 -107 149 -107 271c0 261 172 367 338 367c65 0 128 -16 181 -49l49 70h63l-71 -101c65 -58 107 -149 107 -273c0 -262 -172 -364 -338 -364c-66 0 -129 16 -181 49l-68 -97h-62zM191 357c0 -81 5 -146 19 -195l296 423c-28 46 -72 69 -139 69
c-119 0 -176 -72 -176 -297zM373 40c121 0 177 68 177 293c0 81 -6 146 -20 196l-296 -422c28 -45 72 -67 139 -67z" />
    <glyph glyph-name="plusminus" unicode="&#xb1;" horiz-adv-x="487" 
d="M44 0v63h399v-63h-399zM208 165v162h-164v62h164v162h72v-162h163v-62h-163v-162h-72z" />
    <glyph glyph-name="lessequal" unicode="&#x2264;" horiz-adv-x="488" 
d="M439 131l-391 163v74l391 163v-69l-328 -131l328 -130v-70zM48 0v63h391v-63h-391z" />
    <glyph glyph-name="greaterequal" unicode="&#x2265;" horiz-adv-x="488" 
d="M440 63v-63h-392v63h392zM440 294l-392 -163v70l329 130l-329 131v69l392 -163v-74z" />
    <glyph glyph-name="yen" unicode="&#xa5;" horiz-adv-x="632" 
d="M66 300v51h162l-121 213c-35 60 -48 80 -76 87l-22 7v35h305v-35l-28 -6c-32 -7 -38 -19 -38 -39c0 -13 7 -31 19 -55l94 -185h5l84 181c14 30 20 45 20 60c0 21 -12 29 -41 37l-23 7v35h209v-35l-20 -7c-32 -9 -45 -30 -80 -100l-102 -200h163v-51h-183v-92h183v-51
h-183v-47c0 -55 4 -59 35 -66l45 -8v-36h-302v36l44 8c31 7 38 11 38 66v47h-187v51h187v92h-187z" />
    <glyph glyph-name="ordfeminine" unicode="&#xaa;" horiz-adv-x="476" 
d="M164 238c-82 0 -130 41 -130 114c0 72 56 109 140 131l109 27v57c0 61 -15 94 -75 94c-27 0 -37 -16 -41 -35c-7 -41 -17 -65 -60 -65c-37 0 -57 17 -57 51c0 55 82 89 180 89c107 0 168 -43 168 -127v-222c0 -29 3 -41 20 -49c12 -5 30 -8 45 -8v-30
c-18 -11 -52 -25 -95 -25c-53 0 -71 22 -77 52h-6c-21 -26 -68 -54 -121 -54zM215 301c32 0 57 15 68 31v124l-58 -6c-51 -5 -78 -27 -78 -86c0 -45 28 -63 68 -63z" />
    <glyph glyph-name="ordmasculine" unicode="&#xba;" horiz-adv-x="529" 
d="M263 241c-123 0 -226 75 -226 228c0 157 113 232 227 232c124 0 229 -71 229 -226c0 -154 -113 -234 -230 -234zM266 286c68 0 105 48 105 178c0 145 -35 192 -108 192c-70 0 -105 -50 -105 -175c0 -145 31 -195 108 -195z" />
    <glyph glyph-name="ae" unicode="&#xe6;" horiz-adv-x="807" 
d="M559 -12c-94 0 -159 31 -198 89c-43 -62 -98 -89 -179 -89c-97 0 -156 47 -156 135c0 86 73 130 166 151l124 28v86c0 72 -13 97 -82 97c-38 0 -46 -8 -49 -38c-5 -52 -23 -79 -73 -79c-43 0 -61 23 -61 58c0 66 99 103 206 103c81 0 129 -22 152 -64c39 41 92 64 154 64
c132 0 214 -79 214 -264h-334c6 -145 69 -199 165 -199c70 0 118 21 156 40v-43c-31 -30 -106 -75 -205 -75zM556 483c-59 0 -107 -49 -113 -171l199 10c0 114 -17 161 -86 161zM240 56c44 0 76 24 99 63c-14 35 -22 77 -23 126l-60 -6c-61 -5 -98 -24 -98 -100
c0 -65 32 -83 82 -83z" />
    <glyph glyph-name="oslash" unicode="&#xf8;" horiz-adv-x="594" 
d="M43 -60l76 106c-54 45 -88 115 -88 211c0 183 131 272 267 272c52 0 100 -11 141 -34l54 76h57l-73 -102c53 -44 86 -113 86 -207c0 -183 -129 -274 -265 -274c-52 0 -100 11 -141 33l-57 -81h-57zM170 258c0 -54 2 -96 9 -127l219 307c-20 35 -54 44 -105 44
c-77 0 -124 -57 -123 -224zM301 35c77 0 124 57 124 229c-1 50 -3 89 -9 120l-218 -307c20 -33 53 -42 103 -42z" />
    <glyph glyph-name="questiondown" unicode="&#xbf;" horiz-adv-x="478" 
d="M321 394v-163c-76 -21 -160 -66 -160 -166c0 -70 49 -109 99 -109c33 0 42 7 47 42c7 50 27 72 71 72c42 0 61 -29 61 -59c0 -65 -76 -100 -174 -100c-140 0 -225 65 -225 185c0 118 101 193 223 220v78h58zM289 624c47 0 85 -37 85 -83s-38 -84 -85 -84
c-48 0 -85 38 -85 84s37 83 85 83z" />
    <glyph glyph-name="exclamdown" unicode="&#xa1;" horiz-adv-x="301" 
d="M171 387l59 -369c16 -74 -27 -107 -80 -107c-51 0 -94 33 -78 107l59 369h40zM151 620c47 0 84 -36 84 -82c0 -45 -37 -83 -84 -83c-48 0 -86 38 -86 83c0 46 38 82 86 82z" />
    <glyph glyph-name="florin" unicode="&#x192;" horiz-adv-x="481" 
d="M50 349v52h91l13 87c21 149 109 215 230 215c82 0 125 -38 125 -82c0 -36 -24 -56 -58 -56c-37 0 -54 15 -62 68c-2 22 -7 29 -27 29c-29 0 -53 -21 -65 -99l-25 -162h114v-52h-122l-47 -311c-25 -171 -102 -235 -207 -235c-80 0 -114 36 -114 74c0 29 18 50 54 50
c31 0 46 -13 55 -57c3 -21 7 -27 19 -27c23 0 36 10 44 72l65 434h-83z" />
    <glyph glyph-name="approxequal" unicode="&#x2248;" horiz-adv-x="533" 
d="M441 489l50 -23c-28 -60 -59 -105 -122 -105c-60 0 -152 46 -202 46c-32 0 -54 -33 -66 -65l-50 24c20 55 58 102 120 102c58 0 149 -45 201 -45c33 0 52 31 69 66zM441 329l50 -24c-28 -59 -59 -104 -122 -104c-60 0 -152 45 -202 45c-32 0 -54 -32 -66 -65l-50 24
c20 55 58 103 120 103c58 0 149 -46 201 -46c33 0 52 31 69 67z" />
    <glyph glyph-name="guillemotleft" unicode="&#xab;" horiz-adv-x="484" 
d="M399 45l-160 193v29l160 193h45l-93 -206l93 -209h-45zM197 45l-158 193v29l158 193h46l-93 -206l93 -209h-46z" />
    <glyph glyph-name="guillemotright" unicode="&#xbb;" horiz-adv-x="492" 
d="M85 461l159 -193v-29l-159 -193h-45l93 208l-93 207h45zM294 461l159 -193v-29l-159 -193h-45l92 208l-92 207h45z" />
    <glyph glyph-name="ellipsis" unicode="&#x2026;" horiz-adv-x="885" 
d="M733 -7c-47 0 -86 38 -86 84c0 47 39 85 86 85c49 0 88 -38 88 -85c0 -46 -39 -84 -88 -84zM442 -7c-48 0 -86 38 -86 84c0 47 38 85 86 85c49 0 87 -38 87 -85c0 -46 -38 -84 -87 -84zM151 -7c-48 0 -87 38 -87 84c0 47 39 85 87 85s87 -38 87 -85
c0 -46 -39 -84 -87 -84z" />
    <glyph glyph-name="uni00A0" unicode="&#xa0;" horiz-adv-x="263" 
 />
    <glyph glyph-name="Agrave" unicode="&#xc0;" horiz-adv-x="699" 
d="M3 0v36l29 7c29 8 40 15 68 89l205 561h83l214 -568c26 -68 39 -75 66 -83l26 -6v-36h-293v36l28 7c27 7 36 14 36 32c0 16 -8 34 -17 62l-30 83h-225l-28 -83c-9 -28 -14 -42 -14 -58c0 -22 12 -29 40 -36l31 -7v-36h-219zM301 533l-91 -263h190l-94 263h-5zM443 746
l-192 56c-30 9 -42 31 -42 51c0 26 21 52 48 52c16 0 31 -7 47 -20l151 -112z" />
    <glyph glyph-name="Atilde" unicode="&#xc3;" horiz-adv-x="699" 
d="M3 0v36l29 7c29 8 40 15 68 89l205 561h83l214 -568c26 -68 39 -75 66 -83l26 -6v-36h-293v36l28 7c27 7 36 14 36 32c0 16 -8 34 -17 62l-30 83h-225l-28 -83c-9 -28 -14 -42 -14 -58c0 -22 12 -29 40 -36l31 -7v-36h-219zM301 533l-91 -263h190l-94 263h-5zM208 761
l-37 16c29 84 58 129 104 129c48 0 119 -46 150 -46c25 0 39 20 61 60l35 -15c-29 -84 -55 -129 -102 -129c-48 0 -119 46 -151 46c-25 0 -38 -21 -60 -61z" />
    <glyph glyph-name="Otilde" unicode="&#xd5;" horiz-adv-x="741" 
d="M232 761l-37 16c29 84 58 129 104 129c48 0 119 -46 150 -46c25 0 39 20 61 60l35 -15c-29 -84 -55 -129 -102 -129c-48 0 -119 46 -151 46c-25 0 -38 -21 -60 -61zM366 -12c-177 0 -329 115 -329 350c0 261 172 367 338 367c176 0 329 -114 329 -353
c0 -262 -172 -364 -338 -364zM373 40c121 0 176 68 176 293c0 198 -43 321 -182 321c-119 0 -175 -72 -175 -297c0 -197 42 -317 181 -317z" />
    <glyph glyph-name="OE" unicode="&#x152;" horiz-adv-x="1005" 
d="M384 647c-144 0 -192 -92 -192 -287c0 -233 54 -314 197 -314c59 0 91 9 91 96v411c0 73 -11 94 -96 94zM378 0c-180 0 -341 86 -341 339c0 241 159 354 348 354h553l12 -190h-40c-23 53 -39 81 -53 101c-31 40 -51 40 -132 40c-63 0 -79 -5 -97 -9v-250h17
c75 0 98 5 112 30c12 23 20 37 28 69h39v-250h-39c-9 32 -16 43 -28 70c-14 28 -29 30 -113 30h-16v-186c0 -99 6 -98 106 -98c89 0 105 3 135 43c18 24 40 71 64 131h41l-14 -224h-582z" />
    <glyph glyph-name="oe" unicode="&#x153;" horiz-adv-x="919" 
d="M669 -12c-95 0 -155 35 -191 92c-43 -60 -110 -92 -187 -92c-144 0 -260 89 -260 269c0 183 127 272 263 272c85 0 152 -34 192 -96c42 60 107 96 186 96c132 0 214 -70 216 -258h-343c5 -150 71 -205 173 -205c71 0 118 21 157 40v-43c-31 -30 -106 -75 -206 -75z
M297 35c76 0 116 49 116 215c0 182 -39 232 -123 232c-78 0 -117 -53 -117 -210c0 -183 37 -237 124 -237zM663 483c-63 0 -111 -47 -117 -165l204 10c0 118 -18 155 -87 155z" />
    <glyph glyph-name="endash" unicode="&#x2013;" horiz-adv-x="433" 
d="M49 260v57h335v-57h-335z" />
    <glyph glyph-name="emdash" unicode="&#x2014;" horiz-adv-x="689" 
d="M49 260v57h592v-57h-592z" />
    <glyph glyph-name="quotedblleft" unicode="&#x201c;" horiz-adv-x="540" 
d="M243 709l11 -32c-72 -33 -110 -82 -109 -131c5 4 16 8 31 8c38 0 64 -29 64 -70c0 -42 -34 -70 -79 -70c-50 0 -95 39 -95 102c0 89 66 167 177 193zM474 709l11 -32c-71 -33 -110 -82 -110 -131c5 4 17 8 32 8c38 0 64 -29 64 -70c0 -42 -34 -70 -79 -70
c-49 0 -95 39 -95 102c0 89 66 167 177 193z" />
    <glyph glyph-name="quotedblright" unicode="&#x201d;" horiz-adv-x="540" 
d="M297 411l-11 32c72 34 110 82 110 131c-6 -4 -17 -8 -31 -8c-39 0 -65 29 -65 70c0 42 34 69 79 69c50 0 95 -38 95 -101c0 -89 -66 -167 -177 -193zM67 411l-12 32c72 34 111 82 110 131c-5 -4 -17 -8 -31 -8c-38 0 -65 29 -65 70c0 42 35 69 79 69c50 0 95 -38 95 -101
c0 -89 -67 -167 -176 -193z" />
    <glyph glyph-name="quoteleft" unicode="&#x2018;" horiz-adv-x="309" 
d="M243 709l11 -32c-72 -33 -110 -82 -109 -131c5 4 16 8 31 8c38 0 64 -29 64 -70c0 -42 -34 -70 -79 -70c-50 0 -95 39 -95 102c0 89 66 167 177 193z" />
    <glyph glyph-name="quoteright" unicode="&#x2019;" horiz-adv-x="308" 
d="M67 411l-12 32c72 34 111 82 110 131c-5 -4 -17 -8 -31 -8c-38 0 -65 29 -65 70c0 42 35 69 79 69c50 0 95 -38 95 -101c0 -89 -67 -167 -176 -193z" />
    <glyph glyph-name="divide" unicode="&#xf7;" horiz-adv-x="488" 
d="M243 443c-40 0 -72 32 -72 71c0 40 32 72 72 72c41 0 74 -32 74 -72c0 -39 -33 -71 -74 -71zM44 306v63h400v-63h-400zM243 88c-40 0 -72 33 -72 72s32 72 72 72c41 0 74 -33 74 -72s-33 -72 -74 -72z" />
    <glyph glyph-name="ydieresis" unicode="&#xff;" horiz-adv-x="563" 
d="M119 -224c-65 0 -96 34 -96 73c0 35 20 60 55 60c38 0 53 -16 62 -45c6 -15 9 -21 17 -21c23 0 51 27 83 100l19 47l-180 410c-26 59 -30 65 -55 73l-21 7v35h265v-35l-27 -7c-22 -5 -31 -14 -31 -34c0 -14 5 -32 15 -55l100 -239h4l90 239c9 25 11 45 11 59
c0 18 -10 25 -29 30l-29 7v35h194v-35l-25 -7c-26 -8 -31 -22 -56 -83l-188 -451c-43 -104 -93 -163 -178 -163zM209 606c-42 0 -77 33 -77 73c0 41 35 73 77 73s77 -32 77 -73c0 -40 -35 -73 -77 -73zM425 606c-43 0 -77 33 -77 73c0 41 34 73 77 73c42 0 76 -32 76 -73
c0 -40 -34 -73 -76 -73z" />
    <glyph glyph-name="Ydieresis" unicode="&#x178;" horiz-adv-x="660" 
d="M182 0v36l43 8c30 7 37 11 37 66v172l-154 282c-36 64 -51 79 -79 87l-22 7v35h306v-35l-27 -6c-30 -7 -40 -19 -40 -39c0 -13 9 -30 22 -55l105 -209h4l105 205c12 27 18 46 18 60c0 20 -13 31 -37 37l-31 7v35h223v-35l-21 -7c-33 -10 -53 -29 -88 -100l-137 -262v-179
c0 -55 5 -59 38 -66l44 -8v-36h-309zM254 749c-42 0 -77 34 -77 73c0 41 35 73 77 73s77 -32 77 -73c0 -39 -35 -73 -77 -73zM482 750c-43 0 -77 33 -77 73s34 73 77 73c42 0 76 -33 76 -73s-34 -73 -76 -73z" />
    <glyph glyph-name="fraction" unicode="&#x2044;" horiz-adv-x="317" 
d="M-127 -50l504 764h68l-505 -764h-67z" />
    <glyph glyph-name="Euro" unicode="&#x20ac;" horiz-adv-x="631" 
d="M10 392v52h104c35 183 165 261 301 261c106 0 189 -39 189 -113c0 -34 -18 -63 -64 -63c-47 0 -68 24 -77 85c-5 40 -21 46 -65 46c-80 0 -135 -64 -148 -216h224l-10 -52h-217v-28c0 -23 0 -44 1 -63h200l-8 -52h-187c19 -138 77 -188 188 -188c69 0 114 22 154 46v-44
c-35 -35 -103 -75 -208 -75c-147 0 -251 84 -276 261h-101v52h96c-1 12 -1 25 -1 39c0 18 0 35 2 52h-97z" />
    <glyph glyph-name="guilsinglleft" unicode="&#x2039;" horiz-adv-x="288" 
d="M206 45l-164 193v29l164 193h45l-98 -206l98 -209h-45z" />
    <glyph glyph-name="guilsinglright" unicode="&#x203a;" horiz-adv-x="288" 
d="M32 46l98 208l-98 207h45l164 -193v-29l-164 -193h-45z" />
    <glyph glyph-name="daggerdbl" unicode="&#x2021;" horiz-adv-x="439" 
d="M202 314l-44 96c25 19 38 46 42 77c-54 -5 -88 -35 -121 -35c-34 0 -54 24 -54 53s20 53 54 53c33 0 67 -30 121 -36c-6 48 -43 94 -43 127c0 32 29 53 61 53c33 0 62 -21 62 -53c0 -33 -37 -78 -42 -127c55 6 88 36 121 36c35 0 54 -24 54 -53s-19 -53 -54 -53
c-33 0 -66 30 -121 35c3 -31 17 -58 41 -77l-44 -96h-33zM202 284h33l44 -96c-24 -20 -38 -46 -41 -77c55 4 88 35 121 35c35 0 54 -25 54 -53c0 -29 -19 -54 -54 -54c-33 0 -66 31 -121 36c5 -49 42 -92 42 -125c0 -32 -29 -55 -62 -55c-32 0 -61 23 -61 55
c0 33 37 78 43 125c-54 -6 -88 -36 -121 -36c-34 0 -54 25 -54 54c0 28 20 53 54 53c33 0 67 -31 121 -35c-4 31 -17 57 -42 77z" />
    <glyph glyph-name="periodcentered" unicode="&#xb7;" horiz-adv-x="336" 
d="M166 257c-48 0 -86 38 -86 85c0 46 38 84 86 84c49 0 87 -38 87 -84c0 -47 -38 -85 -87 -85z" />
    <glyph glyph-name="quotesinglbase" unicode="&#x201a;" horiz-adv-x="308" 
d="M67 -136l-12 32c72 34 111 83 110 132c-5 -4 -17 -8 -31 -8c-38 0 -65 29 -65 69c0 43 35 70 79 70c50 0 95 -38 95 -101c0 -89 -67 -168 -176 -194z" />
    <glyph glyph-name="quotedblbase" unicode="&#x201e;" horiz-adv-x="540" 
d="M297 -136l-11 32c72 34 110 83 110 132c-6 -4 -17 -8 -31 -8c-39 0 -65 29 -65 69c0 43 34 70 79 70c50 0 95 -38 95 -101c0 -89 -66 -168 -177 -194zM67 -136l-12 32c72 34 111 83 110 132c-5 -4 -17 -8 -31 -8c-38 0 -65 29 -65 69c0 43 35 70 79 70
c50 0 95 -38 95 -101c0 -89 -67 -168 -176 -194z" />
    <glyph glyph-name="perthousand" unicode="&#x2030;" horiz-adv-x="1232" 
d="M205 346c-83 0 -172 54 -172 174c0 129 103 184 175 184c79 0 174 -57 174 -176c0 -126 -101 -182 -177 -182zM115 -50l518 764h67l-518 -764h-67zM624 -13c-83 0 -172 54 -172 173c0 129 103 184 175 184c79 0 173 -56 173 -176c0 -126 -100 -181 -176 -181zM207 385
c48 0 72 39 72 134c0 107 -25 145 -72 145c-45 0 -71 -35 -71 -135c0 -104 24 -144 71 -144zM626 26c49 0 71 38 71 134c0 107 -24 145 -71 145c-44 0 -71 -36 -71 -136c0 -103 24 -143 71 -143zM1023 -13c-83 0 -172 54 -172 173c0 129 103 184 175 184
c79 0 173 -56 173 -176c0 -126 -101 -181 -176 -181zM1024 26c50 0 72 38 72 134c0 107 -24 145 -72 145c-44 0 -70 -36 -70 -136c0 -103 23 -143 70 -143z" />
    <glyph glyph-name="Acircumflex" unicode="&#xc2;" horiz-adv-x="699" 
d="M3 0v36l29 7c29 8 40 15 68 89l205 561h83l214 -568c26 -68 39 -75 66 -83l26 -6v-36h-293v36l28 7c27 7 36 14 36 32c0 16 -8 34 -17 62l-30 83h-225l-28 -83c-9 -28 -14 -42 -14 -58c0 -22 12 -29 40 -36l31 -7v-36h-219zM301 533l-91 -263h190l-94 263h-5zM376 899
l134 -127l-19 -28l-145 62l-145 -62l-18 28l132 127h61z" />
    <glyph glyph-name="Ecircumflex" unicode="&#xca;" horiz-adv-x="642" 
d="M359 899l134 -127l-19 -28l-145 62l-145 -62l-18 28l132 127h61zM29 0v36l39 8c28 6 37 11 37 66v473c0 56 -9 61 -37 67l-39 8v35h547l12 -190h-40c-23 53 -39 81 -53 101c-31 40 -52 40 -132 40c-64 0 -92 -5 -111 -9v-250h30c76 0 98 5 113 30c12 23 19 37 27 69h40
v-250h-40c-8 31 -15 43 -27 70c-14 28 -30 30 -113 30h-30v-186c0 -99 3 -98 120 -98c89 0 104 3 135 43c18 24 40 71 64 131h41l-15 -224h-568z" />
    <glyph glyph-name="Aacute" unicode="&#xc1;" horiz-adv-x="699" 
d="M3 0v36l29 7c29 8 40 15 68 89l205 561h83l214 -568c26 -68 39 -75 66 -83l26 -6v-36h-293v36l28 7c27 7 36 14 36 32c0 16 -8 34 -17 62l-30 83h-225l-28 -83c-9 -28 -14 -42 -14 -58c0 -22 12 -29 40 -36l31 -7v-36h-219zM301 533l-91 -263h190l-94 263h-5zM258 746
l-12 27l150 112c17 13 31 20 47 20c27 0 47 -26 47 -52c0 -20 -10 -42 -41 -51z" />
    <glyph glyph-name="Edieresis" unicode="&#xcb;" horiz-adv-x="642" 
d="M29 0v36l39 8c28 6 37 11 37 66v473c0 56 -9 61 -37 67l-39 8v35h547l12 -190h-40c-23 53 -39 81 -53 101c-31 40 -52 40 -132 40c-64 0 -92 -5 -111 -9v-250h30c76 0 98 5 113 30c12 23 19 37 27 69h40v-250h-40c-8 31 -15 43 -27 70c-14 28 -30 30 -113 30h-30v-186
c0 -99 3 -98 120 -98c89 0 104 3 135 43c18 24 40 71 64 131h41l-15 -224h-568zM215 749c-42 0 -77 34 -77 73c0 41 35 73 77 73s77 -32 77 -73c0 -39 -35 -73 -77 -73zM443 750c-43 0 -77 33 -77 73s34 73 77 73c42 0 76 -33 76 -73s-34 -73 -76 -73z" />
    <glyph glyph-name="Egrave" unicode="&#xc8;" horiz-adv-x="642" 
d="M426 746l-192 56c-30 9 -42 31 -42 51c0 26 21 52 48 52c16 0 31 -7 47 -20l151 -112zM29 0v36l39 8c28 6 37 11 37 66v473c0 56 -9 61 -37 67l-39 8v35h547l12 -190h-40c-23 53 -39 81 -53 101c-31 40 -52 40 -132 40c-64 0 -92 -5 -111 -9v-250h30c76 0 98 5 113 30
c12 23 19 37 27 69h40v-250h-40c-8 31 -15 43 -27 70c-14 28 -30 30 -113 30h-30v-186c0 -99 3 -98 120 -98c89 0 104 3 135 43c18 24 40 71 64 131h41l-15 -224h-568z" />
    <glyph glyph-name="Iacute" unicode="&#xcd;" horiz-adv-x="364" 
d="M29 0v36l43 8c29 6 36 11 36 66v473c0 56 -7 61 -36 67l-43 8v35h308v-35l-44 -8c-31 -6 -37 -11 -37 -67v-473c0 -55 6 -60 37 -66l44 -8v-36h-308zM95 746l-12 27l150 112c17 13 31 20 47 20c27 0 47 -26 47 -52c0 -20 -10 -42 -41 -51z" />
    <glyph glyph-name="Icircumflex" unicode="&#xce;" horiz-adv-x="364" 
d="M29 0v36l43 8c29 6 36 11 36 66v473c0 56 -7 61 -36 67l-43 8v35h308v-35l-44 -8c-31 -6 -37 -11 -37 -67v-473c0 -55 6 -60 37 -66l44 -8v-36h-308zM213 899l134 -127l-19 -28l-145 62l-145 -62l-18 28l132 127h61z" />
    <glyph glyph-name="Idieresis" unicode="&#xcf;" horiz-adv-x="364" 
d="M29 0v36l43 8c29 6 36 11 36 66v473c0 56 -7 61 -36 67l-43 8v35h308v-35l-44 -8c-31 -6 -37 -11 -37 -67v-473c0 -55 6 -60 37 -66l44 -8v-36h-308zM69 749c-42 0 -77 34 -77 73c0 41 35 73 77 73s77 -32 77 -73c0 -39 -35 -73 -77 -73zM297 750c-43 0 -77 33 -77 73
s34 73 77 73c42 0 76 -33 76 -73s-34 -73 -76 -73z" />
    <glyph glyph-name="Igrave" unicode="&#xcc;" horiz-adv-x="364" 
d="M29 0v36l43 8c29 6 36 11 36 66v473c0 56 -7 61 -36 67l-43 8v35h308v-35l-44 -8c-31 -6 -37 -11 -37 -67v-473c0 -55 6 -60 37 -66l44 -8v-36h-308zM280 746l-192 56c-30 9 -42 31 -42 51c0 26 21 52 48 52c16 0 31 -7 47 -20l151 -112z" />
    <glyph glyph-name="Oacute" unicode="&#xd3;" horiz-adv-x="741" 
d="M283 746l-12 27l150 112c17 13 31 20 47 20c27 0 47 -26 47 -52c0 -20 -10 -42 -41 -51zM366 -12c-177 0 -329 115 -329 350c0 261 172 367 338 367c176 0 329 -114 329 -353c0 -262 -172 -364 -338 -364zM373 40c121 0 176 68 176 293c0 198 -43 321 -182 321
c-119 0 -175 -72 -175 -297c0 -197 42 -317 181 -317z" />
    <glyph glyph-name="Ocircumflex" unicode="&#xd4;" horiz-adv-x="741" 
d="M400 899l134 -127l-19 -28l-145 62l-145 -62l-18 28l132 127h61zM366 -12c-177 0 -329 115 -329 350c0 261 172 367 338 367c176 0 329 -114 329 -353c0 -262 -172 -364 -338 -364zM373 40c121 0 176 68 176 293c0 198 -43 321 -182 321c-119 0 -175 -72 -175 -297
c0 -197 42 -317 181 -317z" />
    <glyph glyph-name="Ograve" unicode="&#xd2;" horiz-adv-x="741" 
d="M476 746l-192 56c-30 9 -42 31 -42 51c0 26 21 52 48 52c16 0 31 -7 47 -20l151 -112zM366 -12c-177 0 -329 115 -329 350c0 261 172 367 338 367c176 0 329 -114 329 -353c0 -262 -172 -364 -338 -364zM373 40c121 0 176 68 176 293c0 198 -43 321 -182 321
c-119 0 -175 -72 -175 -297c0 -197 42 -317 181 -317z" />
    <glyph glyph-name="Uacute" unicode="&#xda;" horiz-adv-x="722" 
d="M268 746l-12 27l150 112c17 13 31 20 47 20c27 0 47 -26 47 -52c0 -20 -10 -42 -41 -51zM375 -12c-167 0 -280 66 -280 236v359c0 56 -9 61 -37 67l-41 8v35h300v-35l-38 -8c-31 -7 -37 -11 -37 -67v-375c0 -107 44 -153 168 -153c111 0 159 59 159 165v351
c0 67 -8 72 -46 80l-46 7v35h226v-35l-32 -7c-31 -7 -43 -12 -43 -78v-360c0 -123 -75 -225 -253 -225z" />
    <glyph glyph-name="Ucircumflex" unicode="&#xdb;" horiz-adv-x="722" 
d="M400 899l134 -127l-19 -28l-145 62l-145 -62l-18 28l132 127h61zM375 -12c-167 0 -280 66 -280 236v359c0 56 -9 61 -37 67l-41 8v35h300v-35l-38 -8c-31 -7 -37 -11 -37 -67v-375c0 -107 44 -153 168 -153c111 0 159 59 159 165v351c0 67 -8 72 -46 80l-46 7v35h226v-35
l-32 -7c-31 -7 -43 -12 -43 -78v-360c0 -123 -75 -225 -253 -225z" />
    <glyph glyph-name="Ugrave" unicode="&#xd9;" horiz-adv-x="722" 
d="M476 746l-192 56c-30 9 -42 31 -42 51c0 26 21 52 48 52c16 0 31 -7 47 -20l151 -112zM375 -12c-167 0 -280 66 -280 236v359c0 56 -9 61 -37 67l-41 8v35h300v-35l-38 -8c-31 -7 -37 -11 -37 -67v-375c0 -107 44 -153 168 -153c111 0 159 59 159 165v351
c0 67 -8 72 -46 80l-46 7v35h226v-35l-32 -7c-31 -7 -43 -12 -43 -78v-360c0 -123 -75 -225 -253 -225z" />
    <glyph glyph-name="dotlessi" unicode="&#x131;" horiz-adv-x="305" 
d="M22 0v31l35 11c30 7 32 15 32 71v272c0 53 -4 53 -32 69l-36 23v29l195 22l12 -7c-1 -6 -7 -49 -7 -128v-280c0 -58 3 -65 32 -71l34 -11v-31h-265zM229 521c0 0 -1 1 -1 0h1z" />
    <glyph glyph-name="circumflex" unicode="&#x2c6;" horiz-adv-x="513" 
d="M287 759l132 -147l-20 -28l-142 82l-142 -82l-20 28l131 147h61z" />
    <glyph glyph-name="tilde" unicode="&#x2dc;" horiz-adv-x="513" 
d="M118 584l-36 16c29 86 58 133 103 133c48 0 111 -40 143 -40c24 0 38 24 60 65l36 -16c-29 -85 -56 -133 -102 -133c-48 0 -111 40 -144 40c-24 0 -37 -24 -60 -65z" />
    <glyph glyph-name="macron" unicode="&#xaf;" horiz-adv-x="513" 
d="M111 625v72h291v-72h-291z" />
    <glyph glyph-name="breve" unicode="&#x2d8;" horiz-adv-x="513" 
d="M258 593c-80 0 -135 66 -146 156l37 11c17 -47 48 -82 108 -82c58 0 90 34 108 82l35 -11c-9 -90 -63 -156 -142 -156z" />
    <glyph glyph-name="dotaccent" unicode="&#x2d9;" horiz-adv-x="456" 
d="M228 603c-46 0 -83 35 -83 77c0 44 37 77 83 77c45 0 82 -33 82 -77c0 -42 -37 -77 -82 -77z" />
    <glyph glyph-name="ring" unicode="&#x2da;" horiz-adv-x="513" 
d="M257 586c-64 0 -109 46 -109 103c0 59 47 105 109 105s109 -45 109 -105c0 -57 -47 -103 -109 -103zM257 628c35 0 57 26 57 61c0 36 -22 62 -57 62s-58 -26 -58 -62c0 -35 23 -61 58 -61z" />
    <glyph glyph-name="cedilla" unicode="&#xb8;" horiz-adv-x="513" 
d="M149 -251v31c81 18 114 44 114 71c0 21 -23 35 -73 39l-9 9l52 101h52l-42 -56c74 -5 107 -36 107 -75c0 -52 -65 -106 -201 -120z" />
    <glyph glyph-name="hungarumlaut" unicode="&#x2dd;" horiz-adv-x="513" 
d="M315 589l-19 21l86 123c14 22 26 31 43 31c22 0 51 -22 51 -47c0 -17 -6 -33 -31 -48zM134 589l-19 21l85 123c13 23 28 31 44 31c20 0 50 -21 50 -47c0 -17 -7 -34 -34 -50z" />
    <glyph glyph-name="ogonek" unicode="&#x2db;" horiz-adv-x="465" 
d="M221 -225c-66 0 -110 34 -110 88c0 61 61 107 118 137h52c-38 -37 -64 -73 -64 -114c0 -24 10 -40 30 -46c16 -4 37 -4 65 -3v-34c-17 -12 -43 -28 -91 -28z" />
    <glyph glyph-name="caron" unicode="&#x2c7;" horiz-adv-x="513" 
d="M227 594l-132 147l20 28l142 -82l142 82l20 -28l-131 -147h-61z" />
    <glyph glyph-name="space_uni0326" horiz-adv-x="510" 
d="M176 -284l-7 28c74 19 92 51 91 85c-6 -3 -15 -7 -27 -7c-37 0 -58 24 -58 56c0 33 31 60 72 60c46 0 85 -28 85 -84c0 -63 -46 -125 -156 -138z" />
    <glyph glyph-name="caron.alt" horiz-adv-x="510" 
d="M283 567l-25 7l7 139c2 29 13 52 48 52c28 0 50 -18 50 -44c0 -10 -2 -21 -11 -36z" />
    <glyph glyph-name="space_uni0326.alt" horiz-adv-x="510" 
d="M327 822l7 -27c-74 -20 -92 -52 -91 -86c5 3 14 7 27 7c37 0 58 -23 58 -55c0 -33 -31 -61 -72 -61c-46 0 -85 28 -85 84c0 63 46 125 156 138z" />
    <glyph glyph-name="acute.pl" horiz-adv-x="510" 
d="M220 575l-22 18l70 147c11 24 26 41 51 41c28 0 56 -24 56 -52c0 -15 -8 -30 -24 -44z" />
    <glyph glyph-name="grave.uc" horiz-adv-x="511" 
d="M364 746l-192 56c-30 9 -42 31 -42 51c0 26 21 52 48 52c16 0 31 -7 47 -20l151 -112z" />
    <glyph glyph-name="dieresis.uc" horiz-adv-x="513" 
d="M143 749c-42 0 -77 34 -77 73c0 41 35 73 77 73s77 -32 77 -73c0 -39 -35 -73 -77 -73zM371 750c-43 0 -77 33 -77 73s34 73 77 73c42 0 76 -33 76 -73s-34 -73 -76 -73z" />
    <glyph glyph-name="macron.uc" horiz-adv-x="513" 
d="M109 777v73h296v-73h-296z" />
    <glyph glyph-name="acute.uc" horiz-adv-x="513" 
d="M149 746l-12 27l150 112c17 13 31 20 47 20c27 0 47 -26 47 -52c0 -20 -10 -42 -41 -51z" />
    <glyph glyph-name="circumflex.uc" horiz-adv-x="513" 
d="M286 899l134 -127l-19 -28l-145 62l-145 -62l-18 28l132 127h61z" />
    <glyph glyph-name="caron.uc" horiz-adv-x="513" 
d="M226 757l-133 127l18 28l145 -61l145 61l19 -28l-133 -127h-61z" />
    <glyph glyph-name="breve.uc" horiz-adv-x="513" 
d="M258 754c-82 0 -140 61 -151 140l37 11c16 -40 51 -65 113 -65c61 0 96 24 113 65l36 -11c-10 -79 -66 -140 -148 -140z" />
    <glyph glyph-name="dotaccent.uc" horiz-adv-x="456" 
d="M228 747c-46 0 -83 35 -83 77c0 44 37 77 83 77c45 0 82 -33 82 -77c0 -42 -37 -77 -82 -77z" />
    <glyph glyph-name="ring.uc" horiz-adv-x="513" 
d="M257 737c-64 0 -109 45 -109 103c0 59 47 104 109 104s109 -44 109 -104c0 -58 -47 -103 -109 -103zM257 779c35 0 57 25 57 61c0 35 -22 62 -57 62s-58 -27 -58 -62c0 -36 23 -61 58 -61z" />
    <glyph glyph-name="tilde.uc" horiz-adv-x="513" 
d="M113 761l-37 16c29 84 58 129 104 129c48 0 119 -46 150 -46c25 0 39 20 61 60l35 -15c-29 -84 -55 -129 -102 -129c-48 0 -119 46 -151 46c-25 0 -38 -21 -60 -61z" />
    <glyph glyph-name="hungarumlaut.uc" horiz-adv-x="513" 
d="M315 760l-19 21l82 119c13 21 25 29 42 29c22 0 51 -23 51 -48c0 -16 -7 -32 -32 -47zM134 760l-19 21l80 119c14 21 28 29 44 29c20 0 50 -22 50 -47c0 -18 -8 -35 -35 -50z" />
    <glyph glyph-name="acute.ucpl" horiz-adv-x="510" 
d="M224 748l-21 19l61 128c12 25 27 40 50 40c29 0 57 -23 57 -52c0 -17 -8 -33 -26 -45z" />
    <glyph glyph-name="Dcroat" unicode="&#x110;" horiz-adv-x="737" 
d="M35 325v49h70v209c0 56 -9 61 -37 67l-39 8v35h323c203 0 349 -92 349 -337c0 -231 -141 -356 -355 -356h-317v36l39 8c28 6 37 11 37 66v215h-70zM338 48c157 0 209 103 209 287c0 228 -63 310 -211 310c-41 0 -69 -4 -84 -9v-262h161v-49h-161v-182
c0 -79 10 -95 86 -95z" />
    <glyph glyph-name="Eng" unicode="&#x14a;" horiz-adv-x="724" 
d="M474 -185c40 0 91 42 91 158v8l-396 607h-4v-465c0 -67 7 -73 46 -80l38 -7v-36h-220v36l33 7c31 7 43 12 43 77v463c0 56 -9 61 -37 67l-39 8v35h242l290 -451h4v329c0 67 -7 72 -45 80l-44 7v35h225v-35l-33 -7c-31 -7 -43 -12 -43 -78v-593c0 -117 -57 -209 -180 -209
c-92 0 -138 40 -138 89c0 36 23 61 65 61c48 0 65 -23 76 -81c6 -20 9 -25 26 -25z" />
    <glyph glyph-name="IJ" unicode="&#x132;" horiz-adv-x="712" 
d="M29 0v36l43 8c29 6 36 11 36 66v473c0 56 -7 61 -36 67l-43 8v35h308v-35l-44 -8c-31 -6 -37 -11 -37 -67v-473c0 -55 6 -60 37 -66l44 -8v-36h-308zM391 -181c-91 0 -137 40 -137 90c0 35 23 60 65 60c48 0 65 -22 76 -80c6 -20 9 -25 25 -25c32 0 49 19 49 85v634
c0 56 -7 60 -37 67l-42 8v35h304v-35l-41 -8c-29 -7 -37 -11 -37 -67v-528c0 -138 -78 -236 -225 -236z" />
    <glyph glyph-name="uni0237" unicode="&#x237;" horiz-adv-x="295" 
d="M18 -227c-77 0 -117 40 -117 83c0 34 25 55 62 55c43 0 58 -20 63 -65c3 -27 9 -30 19 -30c28 0 44 25 44 58v522c0 42 -5 44 -32 60l-36 21v29l195 22l13 -8c-1 -16 -8 -53 -8 -135v-399c0 -147 -89 -213 -203 -213z" />
    <glyph glyph-name="dcroat" unicode="&#x111;" horiz-adv-x="626" 
d="M232 595v47h178c-1 38 -8 40 -31 53l-42 21v32l200 18l12 -10s-7 -42 -7 -114h83v-47h-83v-471c0 -47 5 -53 32 -64l33 -15v-32l-186 -25l-9 7l5 55h-4c-44 -34 -107 -62 -176 -62c-99 0 -202 67 -202 253c0 201 138 287 291 287c35 0 68 -4 88 -10c0 0 -4 37 -4 73v4
h-178zM308 68c51 0 83 18 102 28v343c-19 20 -48 41 -90 41c-90 0 -148 -53 -148 -213c0 -146 48 -199 136 -199z" />
    <glyph glyph-name="eng" unicode="&#x14b;" horiz-adv-x="616" 
d="M416 -123v481c0 66 -22 89 -79 89c-43 0 -91 -16 -116 -24v-324c0 -46 4 -49 29 -56l34 -8v-35h-262v35l35 9c27 7 32 13 32 55v297c0 42 -5 44 -32 60l-36 21v29l187 22l12 -8l-6 -58h4c53 34 125 66 195 66c94 0 136 -43 136 -133v-401c0 -151 -89 -221 -204 -221
c-76 0 -116 40 -116 83c0 34 24 55 62 55c42 0 57 -20 62 -65c4 -27 9 -30 19 -30c28 0 44 25 44 61z" />
    <glyph glyph-name="ij" unicode="&#x133;" 
d="M151 603c-47 0 -83 35 -83 77c0 44 36 77 83 77c45 0 81 -33 81 -77c0 -42 -36 -77 -81 -77zM22 0v35l35 9c27 7 32 13 32 55v297c0 42 -5 44 -32 60l-36 21v29l195 22l13 -8c-1 -16 -8 -53 -8 -129v-292c0 -44 5 -49 32 -55l34 -9v-35h-265zM455 603
c-47 0 -83 35 -83 77c0 44 36 77 83 77c45 0 81 -33 81 -77c0 -42 -36 -77 -81 -77zM323 -227c-77 0 -117 40 -117 83c0 34 25 55 62 55c43 0 58 -20 63 -65c3 -27 9 -30 19 -30c28 0 44 25 44 58v522c0 42 -5 44 -32 60l-36 21v29l195 22l13 -8c-1 -16 -8 -53 -8 -135v-399
c0 -147 -89 -213 -203 -213z" />
    <glyph glyph-name="Abreve" unicode="&#x102;" horiz-adv-x="699" 
d="M3 0v36l29 7c29 8 40 15 68 89l205 561h83l214 -568c26 -68 39 -75 66 -83l26 -6v-36h-293v36l28 7c27 7 36 14 36 32c0 16 -8 34 -17 62l-30 83h-225l-28 -83c-9 -28 -14 -42 -14 -58c0 -22 12 -29 40 -36l31 -7v-36h-219zM301 533l-91 -263h190l-94 263h-5zM348 754
c-82 0 -140 61 -151 140l37 11c16 -40 51 -65 113 -65c61 0 96 24 113 65l36 -11c-10 -79 -66 -140 -148 -140z" />
    <glyph glyph-name="Amacron" unicode="&#x100;" horiz-adv-x="699" 
d="M3 0v36l29 7c29 8 40 15 68 89l205 561h83l214 -568c26 -68 39 -75 66 -83l26 -6v-36h-293v36l28 7c27 7 36 14 36 32c0 16 -8 34 -17 62l-30 83h-225l-28 -83c-9 -28 -14 -42 -14 -58c0 -22 12 -29 40 -36l31 -7v-36h-219zM301 533l-91 -263h190l-94 263h-5zM198 777v73
h296v-73h-296z" />
    <glyph glyph-name="Aogonek" unicode="&#x104;" horiz-adv-x="699" 
d="M490 16l-73 204h-224l-28 -83c-9 -28 -14 -42 -14 -58c0 -22 12 -29 40 -36l31 -7v-36h-219v36l29 7c29 8 40 15 68 89l205 561h83l214 -568c26 -68 39 -75 66 -83l26 -6v-36h-84c-94 0 -153 -55 -153 -114c0 -24 9 -40 30 -46c16 -4 36 -4 64 -3v-34
c-17 -12 -43 -28 -91 -28c-66 0 -110 34 -110 88c0 58 49 105 140 153zM301 533l-91 -263h189l-93 263h-5z" />
    <glyph glyph-name="Aringacute" unicode="&#x1fa;" horiz-adv-x="699" 
d="M3 0v36l29 7c29 8 40 15 68 89l205 561h83l214 -568c26 -68 39 -75 66 -83l26 -6v-36h-293v36l28 7c27 7 36 14 36 32c0 16 -8 34 -17 62l-30 83h-225l-28 -83c-9 -28 -14 -42 -14 -58c0 -22 12 -29 40 -36l31 -7v-36h-219zM301 533l-91 -263h190l-94 263h-5zM258 958
l-12 27l150 112c17 13 31 20 47 20c27 0 47 -26 47 -52c0 -20 -10 -42 -41 -51zM346 737c-64 0 -109 45 -109 103c0 59 47 104 109 104s109 -44 109 -104c0 -58 -47 -103 -109 -103zM346 779c35 0 57 25 57 61c0 35 -22 62 -57 62s-58 -27 -58 -62c0 -36 23 -61 58 -61z" />
    <glyph glyph-name="AEacute" unicode="&#x1fc;" horiz-adv-x="967" 
d="M557 746l-12 27l150 112c17 13 31 20 47 20c27 0 47 -26 47 -52c0 -20 -10 -42 -41 -51zM367 0v36l39 8c27 6 38 11 38 66v98h-222l-33 -58c-18 -31 -32 -57 -32 -76c0 -16 9 -25 31 -31l33 -7v-36h-218v36l20 7c31 8 47 17 97 102l293 501l-9 2l-52 10v35h549l12 -190
h-40c-22 53 -38 81 -52 101c-30 40 -52 40 -129 40c-59 0 -86 -4 -105 -9v-250h18c75 0 97 5 112 30c13 23 20 37 28 69h39v-250h-39c-9 32 -15 43 -28 70c-14 28 -30 30 -112 30h-18v-186c0 -99 12 -98 113 -98c87 0 103 3 133 43c18 24 39 71 64 131h40l-15 -224h-555z
M441 595l-191 -337h194v319c0 6 0 12 -1 18h-2z" />
    <glyph glyph-name="Cacute" unicode="&#x106;" horiz-adv-x="645" 
d="M382 -12c-202 0 -345 109 -345 353c0 263 168 364 363 364c78 0 148 -11 192 -23l10 -203h-39c-25 56 -48 106 -73 140c-25 33 -43 37 -102 37c-133 0 -194 -73 -194 -295c0 -253 61 -324 187 -324c76 0 98 21 125 58c28 41 42 68 64 126h37l-10 -191
c-48 -21 -127 -42 -215 -42zM291 746l-12 27l150 112c17 13 31 20 47 20c27 0 47 -26 47 -52c0 -20 -10 -42 -41 -51z" />
    <glyph glyph-name="Ccaron" unicode="&#x10c;" horiz-adv-x="645" 
d="M349 757l-133 127l18 28l145 -61l145 61l19 -28l-133 -127h-61zM382 -12c-202 0 -345 109 -345 353c0 263 168 364 363 364c78 0 148 -11 192 -23l10 -203h-39c-25 56 -48 106 -73 140c-25 33 -43 37 -102 37c-133 0 -194 -73 -194 -295c0 -253 61 -324 187 -324
c76 0 98 21 125 58c28 41 42 68 64 126h37l-10 -191c-48 -21 -127 -42 -215 -42z" />
    <glyph glyph-name="Ccircumflex" unicode="&#x108;" horiz-adv-x="645" 
d="M409 899l134 -127l-19 -28l-145 62l-145 -62l-18 28l132 127h61zM382 -12c-202 0 -345 109 -345 353c0 263 168 364 363 364c78 0 148 -11 192 -23l10 -203h-39c-25 56 -48 106 -73 140c-25 33 -43 37 -102 37c-133 0 -194 -73 -194 -295c0 -253 61 -324 187 -324
c76 0 98 21 125 58c28 41 42 68 64 126h37l-10 -191c-48 -21 -127 -42 -215 -42z" />
    <glyph glyph-name="Cdotaccent" unicode="&#x10a;" horiz-adv-x="645" 
d="M382 -12c-202 0 -345 109 -345 353c0 263 168 364 363 364c78 0 148 -11 192 -23l10 -203h-39c-25 56 -48 106 -73 140c-25 33 -43 37 -102 37c-133 0 -194 -73 -194 -295c0 -253 61 -324 187 -324c76 0 98 21 125 58c28 41 42 68 64 126h37l-10 -191
c-48 -21 -127 -42 -215 -42zM380 747c-46 0 -83 35 -83 77c0 44 37 77 83 77c45 0 82 -33 82 -77c0 -42 -37 -77 -82 -77z" />
    <glyph glyph-name="Cacute.pl" horiz-adv-x="645" 
d="M382 -12c-202 0 -345 109 -345 353c0 263 168 364 363 364c78 0 148 -11 192 -23l10 -203h-39c-25 56 -48 106 -73 140c-25 33 -43 37 -102 37c-133 0 -194 -73 -194 -295c0 -253 61 -324 187 -324c76 0 98 21 125 58c28 41 42 68 64 126h37l-10 -191
c-48 -21 -127 -42 -215 -42zM353 748l-21 19l61 128c12 25 27 40 50 40c29 0 57 -23 57 -52c0 -17 -8 -33 -26 -45z" />
    <glyph glyph-name="Dcaron" unicode="&#x10e;" horiz-adv-x="737" 
d="M319 757l-133 127l18 28l145 -61l145 61l19 -28l-133 -127h-61zM29 0v36l39 8c28 6 37 11 37 66v473c0 56 -9 61 -37 67l-39 8v35h323c203 0 349 -92 349 -337c0 -231 -141 -356 -355 -356h-317zM338 48c157 0 209 103 209 287c0 228 -63 310 -211 310
c-41 0 -69 -4 -84 -9v-493c0 -79 10 -95 86 -95z" />
    <glyph glyph-name="Ebreve" unicode="&#x114;" horiz-adv-x="642" 
d="M29 0v36l39 8c28 6 37 11 37 66v473c0 56 -9 61 -37 67l-39 8v35h547l12 -190h-40c-23 53 -39 81 -53 101c-31 40 -52 40 -132 40c-64 0 -92 -5 -111 -9v-250h30c76 0 98 5 113 30c12 23 19 37 27 69h40v-250h-40c-8 31 -15 43 -27 70c-14 28 -30 30 -113 30h-30v-186
c0 -99 3 -98 120 -98c89 0 104 3 135 43c18 24 40 71 64 131h41l-15 -224h-568zM331 754c-82 0 -140 61 -151 140l37 11c16 -40 51 -65 113 -65c61 0 96 24 113 65l36 -11c-10 -79 -66 -140 -148 -140z" />
    <glyph glyph-name="Ecaron" unicode="&#x11a;" horiz-adv-x="642" 
d="M299 757l-133 127l18 28l145 -61l145 61l19 -28l-133 -127h-61zM29 0v36l39 8c28 6 37 11 37 66v473c0 56 -9 61 -37 67l-39 8v35h547l12 -190h-40c-23 53 -39 81 -53 101c-31 40 -52 40 -132 40c-64 0 -92 -5 -111 -9v-250h30c76 0 98 5 113 30c12 23 19 37 27 69h40
v-250h-40c-8 31 -15 43 -27 70c-14 28 -30 30 -113 30h-30v-186c0 -99 3 -98 120 -98c89 0 104 3 135 43c18 24 40 71 64 131h41l-15 -224h-568z" />
    <glyph glyph-name="Edotaccent" unicode="&#x116;" horiz-adv-x="642" 
d="M330 747c-46 0 -83 35 -83 77c0 44 37 77 83 77c45 0 82 -33 82 -77c0 -42 -37 -77 -82 -77zM29 0v36l39 8c28 6 37 11 37 66v473c0 56 -9 61 -37 67l-39 8v35h547l12 -190h-40c-23 53 -39 81 -53 101c-31 40 -52 40 -132 40c-64 0 -92 -5 -111 -9v-250h30
c76 0 98 5 113 30c12 23 19 37 27 69h40v-250h-40c-8 31 -15 43 -27 70c-14 28 -30 30 -113 30h-30v-186c0 -99 3 -98 120 -98c89 0 104 3 135 43c18 24 40 71 64 131h41l-15 -224h-568z" />
    <glyph glyph-name="Emacron" unicode="&#x112;" horiz-adv-x="642" 
d="M29 0v36l39 8c28 6 37 11 37 66v473c0 56 -9 61 -37 67l-39 8v35h547l12 -190h-40c-23 53 -39 81 -53 101c-31 40 -52 40 -132 40c-64 0 -92 -5 -111 -9v-250h30c76 0 98 5 113 30c12 23 19 37 27 69h40v-250h-40c-8 31 -15 43 -27 70c-14 28 -30 30 -113 30h-30v-186
c0 -99 3 -98 120 -98c89 0 104 3 135 43c18 24 40 71 64 131h41l-15 -224h-568zM181 777v73h296v-73h-296z" />
    <glyph glyph-name="Eogonek" unicode="&#x118;" horiz-adv-x="642" 
d="M29 0v36l39 8c28 6 37 11 37 66v473c0 56 -9 61 -37 67l-39 8v35h547l12 -190h-40c-23 53 -39 81 -53 101c-31 40 -52 40 -132 40c-64 0 -92 -5 -111 -9v-250h30c76 0 98 5 113 30c12 23 19 37 27 69h40v-250h-40c-8 31 -15 43 -27 70c-14 28 -30 30 -113 30h-30v-186
c0 -99 3 -98 120 -98c89 0 104 3 135 43c18 24 40 71 64 131h41l-15 -224h-91c-38 -37 -63 -73 -63 -114c0 -24 9 -40 30 -46c16 -4 36 -4 64 -3v-34c-16 -12 -42 -28 -90 -28c-67 0 -111 34 -111 88c0 58 54 103 110 137h-417z" />
    <glyph glyph-name="Gbreve" unicode="&#x11e;" horiz-adv-x="709" 
d="M386 754c-82 0 -140 61 -151 140l37 11c16 -40 51 -65 113 -65c61 0 96 24 113 65l36 -11c-10 -79 -66 -140 -148 -140zM393 -12c-225 0 -356 118 -356 354c0 264 173 363 371 363c89 0 150 -9 198 -21l13 -205h-41c-25 64 -50 102 -69 129c-24 36 -36 46 -113 46
c-138 0 -204 -79 -204 -291c0 -238 52 -323 197 -323c46 0 78 9 102 21v138c0 56 -8 60 -37 66l-42 9v36h284v-36l-30 -7c-26 -7 -32 -12 -32 -68v-173c-57 -18 -150 -38 -241 -38z" />
    <glyph glyph-name="Gcircumflex" unicode="&#x11c;" horiz-adv-x="709" 
d="M414 899l134 -127l-19 -28l-145 62l-145 -62l-18 28l132 127h61zM393 -12c-225 0 -356 118 -356 354c0 264 173 363 371 363c89 0 150 -9 198 -21l13 -205h-41c-25 64 -50 102 -69 129c-24 36 -36 46 -113 46c-138 0 -204 -79 -204 -291c0 -238 52 -323 197 -323
c46 0 78 9 102 21v138c0 56 -8 60 -37 66l-42 9v36h284v-36l-30 -7c-26 -7 -32 -12 -32 -68v-173c-57 -18 -150 -38 -241 -38z" />
    <glyph glyph-name="Gcommaaccent" unicode="&#x122;" horiz-adv-x="709" 
d="M306 -284l-7 28c74 19 92 51 91 85c-6 -3 -15 -7 -27 -7c-37 0 -58 24 -58 56c0 33 31 60 72 60c46 0 85 -28 85 -84c0 -63 -46 -125 -156 -138zM393 -12c-225 0 -356 118 -356 354c0 264 173 363 371 363c89 0 150 -9 198 -21l13 -205h-41c-25 64 -50 102 -69 129
c-24 36 -36 46 -113 46c-138 0 -204 -79 -204 -291c0 -238 52 -323 197 -323c46 0 78 9 102 21v138c0 56 -8 60 -37 66l-42 9v36h284v-36l-30 -7c-26 -7 -32 -12 -32 -68v-173c-57 -18 -150 -38 -241 -38z" />
    <glyph glyph-name="Gdotaccent" unicode="&#x120;" horiz-adv-x="709" 
d="M385 747c-46 0 -83 35 -83 77c0 44 37 77 83 77c45 0 82 -33 82 -77c0 -42 -37 -77 -82 -77zM393 -12c-225 0 -356 118 -356 354c0 264 173 363 371 363c89 0 150 -9 198 -21l13 -205h-41c-25 64 -50 102 -69 129c-24 36 -36 46 -113 46c-138 0 -204 -79 -204 -291
c0 -238 52 -323 197 -323c46 0 78 9 102 21v138c0 56 -8 60 -37 66l-42 9v36h284v-36l-30 -7c-26 -7 -32 -12 -32 -68v-173c-57 -18 -150 -38 -241 -38z" />
    <glyph glyph-name="Hbar" unicode="&#x126;" horiz-adv-x="776" 
d="M23 490v50h82v43c0 56 -9 61 -37 67l-39 8v35h301v-35l-41 -8c-30 -8 -37 -11 -37 -67v-43h270v43c0 56 -6 59 -35 67l-41 8v35h301v-35l-41 -8c-28 -6 -37 -11 -37 -67v-43h84v-50h-84v-380c0 -55 8 -59 37 -66l41 -8v-36h-301v36l41 8c29 7 35 11 35 66v218h-270v-218
c0 -55 6 -59 37 -66l41 -8v-36h-301v36l39 8c28 6 37 11 37 66v380h-82zM252 380h270v110h-270v-110z" />
    <glyph glyph-name="Hcircumflex" unicode="&#x124;" horiz-adv-x="776" 
d="M29 0v36l39 8c28 6 37 11 37 66v473c0 56 -9 61 -37 67l-39 8v35h301v-35l-41 -8c-30 -8 -37 -11 -37 -67v-203h270v203c0 56 -6 59 -35 67l-41 8v35h301v-35l-41 -8c-28 -6 -37 -11 -37 -67v-473c0 -55 8 -59 37 -66l41 -8v-36h-301v36l41 8c29 7 35 11 35 66v218h-270
v-218c0 -55 6 -59 37 -66l41 -8v-36h-301zM418 899l134 -127l-19 -28l-145 62l-145 -62l-18 28l132 127h61z" />
    <glyph glyph-name="Idotaccent" unicode="&#x130;" horiz-adv-x="364" 
d="M29 0v36l43 8c29 6 36 11 36 66v473c0 56 -7 61 -36 67l-43 8v35h308v-35l-44 -8c-31 -6 -37 -11 -37 -67v-473c0 -55 6 -60 37 -66l44 -8v-36h-308zM184 747c-46 0 -83 35 -83 77c0 44 37 77 83 77c45 0 82 -33 82 -77c0 -42 -37 -77 -82 -77z" />
    <glyph glyph-name="Ibreve" unicode="&#x12c;" horiz-adv-x="364" 
d="M29 0v36l43 8c29 6 36 11 36 66v473c0 56 -7 61 -36 67l-43 8v35h308v-35l-44 -8c-31 -6 -37 -11 -37 -67v-473c0 -55 6 -60 37 -66l44 -8v-36h-308zM185 754c-82 0 -140 61 -151 140l37 11c16 -40 51 -65 113 -65c61 0 96 24 113 65l36 -11c-10 -79 -66 -140 -148 -140z
" />
    <glyph glyph-name="Imacron" unicode="&#x12a;" horiz-adv-x="364" 
d="M29 0v36l43 8c29 6 36 11 36 66v473c0 56 -7 61 -36 67l-43 8v35h308v-35l-44 -8c-31 -6 -37 -11 -37 -67v-473c0 -55 6 -60 37 -66l44 -8v-36h-308zM35 777v73h296v-73h-296z" />
    <glyph glyph-name="Iogonek" unicode="&#x12e;" horiz-adv-x="364" 
d="M29 0v36l43 8c29 6 36 11 36 66v473c0 56 -7 61 -36 67l-43 8v35h308v-35l-44 -8c-31 -6 -37 -11 -37 -67v-473c0 -55 6 -60 37 -66l44 -8v-36h-87c-30 -40 -49 -73 -49 -114c0 -24 9 -40 30 -46c16 -4 37 -4 65 -3v-34c-17 -12 -43 -28 -91 -28c-66 0 -110 34 -110 88
c0 58 52 107 99 137h-165z" />
    <glyph glyph-name="Itilde" unicode="&#x128;" horiz-adv-x="364" 
d="M29 0v36l43 8c29 6 36 11 36 66v473c0 56 -7 61 -36 67l-43 8v35h308v-35l-44 -8c-31 -6 -37 -11 -37 -67v-473c0 -55 6 -60 37 -66l44 -8v-36h-308zM45 761l-37 16c29 84 58 129 104 129c48 0 119 -46 150 -46c25 0 39 20 61 60l35 -15c-29 -84 -55 -129 -102 -129
c-48 0 -119 46 -151 46c-25 0 -38 -21 -60 -61z" />
    <glyph glyph-name="Jcircumflex" unicode="&#x134;" horiz-adv-x="348" 
d="M208 899l134 -127l-19 -28l-145 62l-145 -62l-18 28l132 127h61zM27 -181c-91 0 -137 40 -137 90c0 35 23 60 65 60c48 0 65 -22 76 -80c6 -20 9 -25 25 -25c32 0 49 19 49 85v634c0 56 -7 60 -37 67l-42 8v35h304v-35l-41 -8c-29 -7 -37 -11 -37 -67v-528
c0 -138 -78 -236 -225 -236z" />
    <glyph glyph-name="Kcommaaccent" unicode="&#x136;" horiz-adv-x="708" 
d="M296 -284l-7 28c74 19 92 51 91 85c-6 -3 -15 -7 -27 -7c-37 0 -58 24 -58 56c0 33 31 60 72 60c46 0 85 -28 85 -84c0 -63 -46 -125 -156 -138zM504 0c-81 98 -162 220 -222 336v16l168 191c34 37 45 62 45 75c0 15 -18 27 -37 32l-32 8v35h245v-35l-13 -4
c-38 -9 -55 -27 -107 -82l-154 -167c59 -109 153 -247 226 -337c15 -16 20 -19 34 -23l45 -9v-36h-198zM29 0v36l39 8c28 6 37 11 37 66v473c0 56 -9 61 -37 67l-39 8v35h301v-35l-41 -8c-31 -8 -37 -11 -37 -67v-473c0 -55 6 -59 37 -66l41 -8v-36h-301z" />
    <glyph glyph-name="Lacute" unicode="&#x139;" horiz-adv-x="615" 
d="M96 746l-12 27l150 112c17 13 31 20 47 20c27 0 47 -26 47 -52c0 -20 -10 -42 -41 -51zM29 0v36l39 8c28 6 37 11 37 66v473c0 56 -9 61 -37 67l-39 8v35h307v-35l-47 -9c-30 -6 -37 -10 -37 -66v-439c0 -89 4 -95 101 -95c86 0 107 12 136 55c18 27 42 62 66 131h41
l-15 -235h-552z" />
    <glyph glyph-name="Lcaron" unicode="&#x13d;" horiz-adv-x="615" 
d="M428 494l-25 7l9 160c2 29 14 52 50 52c27 0 50 -18 50 -44c0 -10 -2 -21 -11 -36zM29 0v36l39 8c28 6 37 11 37 66v473c0 56 -9 61 -37 67l-39 8v35h307v-35l-47 -9c-30 -6 -37 -10 -37 -66v-439c0 -89 4 -95 101 -95c86 0 107 12 136 55c18 27 42 62 66 131h41
l-15 -235h-552z" />
    <glyph glyph-name="Lcommaaccent" unicode="&#x13b;" horiz-adv-x="615" 
d="M248 -284l-7 28c74 19 92 51 91 85c-6 -3 -15 -7 -27 -7c-37 0 -58 24 -58 56c0 33 31 60 72 60c46 0 85 -28 85 -84c0 -63 -46 -125 -156 -138zM29 0v36l39 8c28 6 37 11 37 66v473c0 56 -9 61 -37 67l-39 8v35h307v-35l-47 -9c-30 -6 -37 -10 -37 -66v-439
c0 -89 4 -95 101 -95c86 0 107 12 136 55c18 27 42 62 66 131h41l-15 -235h-552z" />
    <glyph glyph-name="Ldot" unicode="&#x13f;" horiz-adv-x="584" 
d="M29 0v36l39 8c28 6 37 11 37 66v473c0 56 -9 61 -37 67l-39 8v35h307v-35l-47 -9c-30 -6 -37 -10 -37 -66v-439c0 -89 4 -95 101 -95c86 0 107 12 136 55c18 27 42 62 66 131h41l-15 -235h-552zM493 323c-43 0 -77 34 -77 76c0 41 34 75 77 75s77 -34 77 -75
c0 -42 -34 -76 -77 -76z" />
    <glyph glyph-name="Nacute" unicode="&#x143;" horiz-adv-x="724" 
d="M305 746l-12 27l150 112c17 13 31 20 47 20c27 0 47 -26 47 -52c0 -20 -10 -42 -41 -51zM554 -3l-385 591h-4v-465c0 -67 7 -73 46 -80l38 -7v-36h-220v36l33 7c31 7 43 12 43 77v463c0 56 -9 61 -37 67l-39 8v35h242l290 -451h4v329c0 67 -7 72 -46 80l-43 7v35h225v-35
l-33 -7c-31 -7 -43 -12 -43 -78v-576h-71z" />
    <glyph glyph-name="Ncaron" unicode="&#x147;" horiz-adv-x="724" 
d="M363 757l-133 127l18 28l145 -61l145 61l19 -28l-133 -127h-61zM554 -3l-385 591h-4v-465c0 -67 7 -73 46 -80l38 -7v-36h-220v36l33 7c31 7 43 12 43 77v463c0 56 -9 61 -37 67l-39 8v35h242l290 -451h4v329c0 67 -7 72 -46 80l-43 7v35h225v-35l-33 -7
c-31 -7 -43 -12 -43 -78v-576h-71z" />
    <glyph glyph-name="Ncommaaccent" unicode="&#x145;" horiz-adv-x="724" 
d="M287 -284l-7 28c74 19 92 51 91 85c-6 -3 -15 -7 -27 -7c-37 0 -58 24 -58 56c0 33 31 60 72 60c46 0 85 -28 85 -84c0 -63 -46 -125 -156 -138zM554 -3l-385 591h-4v-465c0 -67 7 -73 46 -80l38 -7v-36h-220v36l33 7c31 7 43 12 43 77v463c0 56 -9 61 -37 67l-39 8v35
h242l290 -451h4v329c0 67 -7 72 -46 80l-43 7v35h225v-35l-33 -7c-31 -7 -43 -12 -43 -78v-576h-71z" />
    <glyph glyph-name="Nacute.pl" horiz-adv-x="724" 
d="M366 748l-21 19l61 128c12 25 27 40 50 40c29 0 57 -23 57 -52c0 -17 -8 -33 -26 -45zM554 -3l-385 591h-4v-465c0 -67 7 -73 46 -80l38 -7v-36h-220v36l33 7c31 7 43 12 43 77v463c0 56 -9 61 -37 67l-39 8v35h242l290 -451h4v329c0 67 -7 72 -46 80l-43 7v35h225v-35
l-33 -7c-31 -7 -43 -12 -43 -78v-576h-71z" />
    <glyph glyph-name="Obreve" unicode="&#x14e;" horiz-adv-x="741" 
d="M372 754c-82 0 -140 61 -151 140l37 11c16 -40 51 -65 113 -65c61 0 96 24 113 65l36 -11c-10 -79 -66 -140 -148 -140zM366 -12c-177 0 -329 115 -329 350c0 261 172 367 338 367c176 0 329 -114 329 -353c0 -262 -172 -364 -338 -364zM373 40c121 0 176 68 176 293
c0 198 -43 321 -182 321c-119 0 -175 -72 -175 -297c0 -197 42 -317 181 -317z" />
    <glyph glyph-name="Ohungarumlaut" unicode="&#x150;" horiz-adv-x="741" 
d="M455 760l-19 21l82 119c13 21 25 29 42 29c22 0 51 -23 51 -48c0 -16 -7 -32 -32 -47zM274 760l-19 21l80 119c14 21 28 29 44 29c20 0 50 -22 50 -47c0 -18 -8 -35 -35 -50zM366 -12c-177 0 -329 115 -329 350c0 261 172 367 338 367c176 0 329 -114 329 -353
c0 -262 -172 -364 -338 -364zM373 40c121 0 176 68 176 293c0 198 -43 321 -182 321c-119 0 -175 -72 -175 -297c0 -197 42 -317 181 -317z" />
    <glyph glyph-name="Omacron" unicode="&#x14c;" horiz-adv-x="741" 
d="M223 777v73h296v-73h-296zM366 -12c-177 0 -329 115 -329 350c0 261 172 367 338 367c176 0 329 -114 329 -353c0 -262 -172 -364 -338 -364zM373 40c121 0 176 68 176 293c0 198 -43 321 -182 321c-119 0 -175 -72 -175 -297c0 -197 42 -317 181 -317z" />
    <glyph glyph-name="Oacute.pl" horiz-adv-x="741" 
d="M344 748l-21 19l61 128c12 25 27 40 50 40c29 0 57 -23 57 -52c0 -17 -8 -33 -26 -45zM366 -12c-177 0 -329 115 -329 350c0 261 172 367 338 367c176 0 329 -114 329 -353c0 -262 -172 -364 -338 -364zM373 40c121 0 176 68 176 293c0 198 -43 321 -182 321
c-119 0 -175 -72 -175 -297c0 -197 42 -317 181 -317z" />
    <glyph glyph-name="Oslashacute" unicode="&#x1fe;" horiz-adv-x="741" 
d="M55 -60l89 127c-65 59 -107 149 -107 271c0 261 172 367 338 367c65 0 128 -16 181 -49l49 70h63l-71 -101c65 -58 107 -149 107 -273c0 -262 -172 -364 -338 -364c-66 0 -129 16 -181 49l-68 -97h-62zM191 357c0 -81 5 -146 19 -195l296 423c-28 46 -72 69 -139 69
c-119 0 -176 -72 -176 -297zM373 40c121 0 177 68 177 293c0 81 -6 146 -20 196l-296 -422c28 -45 72 -67 139 -67zM283 746l-12 27l150 112c17 13 31 20 47 20c27 0 47 -26 47 -52c0 -20 -10 -42 -41 -51z" />
    <glyph glyph-name="Racute" unicode="&#x154;" horiz-adv-x="698" 
d="M242 746l-12 27l150 112c17 13 31 20 47 20c27 0 47 -26 47 -52c0 -20 -10 -42 -41 -51zM29 0v36l39 8c28 6 37 11 37 66v473c0 56 -9 61 -37 67l-39 8v35h314c182 0 261 -61 261 -180c0 -79 -50 -143 -148 -171v-4c48 -90 113 -197 168 -270c11 -15 20 -17 51 -27l20 -5
v-36h-188c-67 86 -133 203 -180 303c-4 0 -75 1 -77 1v-194c0 -55 8 -60 38 -66l41 -8v-36h-300zM305 353c104 0 148 41 148 149c0 118 -34 142 -120 142c-39 0 -68 -3 -83 -7v-280c2 -1 29 -4 55 -4z" />
    <glyph glyph-name="Rcaron" unicode="&#x158;" horiz-adv-x="698" 
d="M300 757l-133 127l18 28l145 -61l145 61l19 -28l-133 -127h-61zM29 0v36l39 8c28 6 37 11 37 66v473c0 56 -9 61 -37 67l-39 8v35h314c182 0 261 -61 261 -180c0 -79 -50 -143 -148 -171v-4c48 -90 113 -197 168 -270c11 -15 20 -17 51 -27l20 -5v-36h-188
c-67 86 -133 203 -180 303c-4 0 -75 1 -77 1v-194c0 -55 8 -60 38 -66l41 -8v-36h-300zM305 353c104 0 148 41 148 149c0 118 -34 142 -120 142c-39 0 -68 -3 -83 -7v-280c2 -1 29 -4 55 -4z" />
    <glyph glyph-name="Rcommaaccent" unicode="&#x156;" horiz-adv-x="698" 
d="M289 -284l-7 28c74 19 92 51 91 85c-6 -3 -15 -7 -27 -7c-37 0 -58 24 -58 56c0 33 31 60 72 60c46 0 85 -28 85 -84c0 -63 -46 -125 -156 -138zM29 0v36l39 8c28 6 37 11 37 66v473c0 56 -9 61 -37 67l-39 8v35h314c182 0 261 -61 261 -180c0 -79 -50 -143 -148 -171v-4
c48 -90 113 -197 168 -270c11 -15 20 -17 51 -27l20 -5v-36h-188c-67 86 -133 203 -180 303c-4 0 -75 1 -77 1v-194c0 -55 8 -60 38 -66l41 -8v-36h-300zM305 353c104 0 148 41 148 149c0 118 -34 142 -120 142c-39 0 -68 -3 -83 -7v-280c2 -1 29 -4 55 -4z" />
    <glyph glyph-name="Sacute" unicode="&#x15a;" horiz-adv-x="544" 
d="M250 -12c-89 0 -159 16 -204 30l-12 190h41c24 -50 40 -83 67 -119c26 -34 54 -50 116 -50c81 0 132 50 132 107c0 60 -37 96 -161 147c-135 55 -185 113 -185 214c0 114 95 198 238 198c82 0 135 -7 173 -19l12 -171h-40c-25 53 -35 73 -60 103c-20 22 -43 37 -94 37
c-71 0 -123 -43 -123 -102c0 -52 25 -79 141 -127c155 -63 215 -120 215 -213c0 -125 -89 -225 -256 -225zM192 746l-12 27l150 112c17 13 31 20 47 20c27 0 47 -26 47 -52c0 -20 -10 -42 -41 -51z" />
    <glyph glyph-name="Scedilla" unicode="&#x15e;" horiz-adv-x="544" 
d="M143 -251v31c81 18 114 44 114 71c0 21 -23 35 -73 39l-9 9l46 90c-75 3 -135 16 -175 29l-12 190h41c24 -50 40 -83 67 -119c26 -34 54 -50 116 -50c81 0 132 50 132 107c0 60 -37 96 -161 147c-135 55 -185 113 -185 214c0 114 95 198 238 198c82 0 135 -7 173 -19
l12 -171h-40c-25 53 -35 73 -60 103c-20 22 -43 37 -94 37c-71 0 -123 -43 -123 -102c0 -52 25 -79 141 -127c155 -63 215 -120 215 -213c0 -120 -82 -217 -236 -224l-33 -45c74 -5 107 -36 107 -75c0 -52 -65 -106 -201 -120z" />
    <glyph glyph-name="Scircumflex" unicode="&#x15c;" horiz-adv-x="544" 
d="M310 899l134 -127l-19 -28l-145 62l-145 -62l-18 28l132 127h61zM250 -12c-89 0 -159 16 -204 30l-12 190h41c24 -50 40 -83 67 -119c26 -34 54 -50 116 -50c81 0 132 50 132 107c0 60 -37 96 -161 147c-135 55 -185 113 -185 214c0 114 95 198 238 198
c82 0 135 -7 173 -19l12 -171h-40c-25 53 -35 73 -60 103c-20 22 -43 37 -94 37c-71 0 -123 -43 -123 -102c0 -52 25 -79 141 -127c155 -63 215 -120 215 -213c0 -125 -89 -225 -256 -225z" />
    <glyph glyph-name="Scommaaccent" unicode="&#x218;" horiz-adv-x="544" 
d="M185 -284l-7 28c74 19 92 51 91 85c-6 -3 -15 -7 -27 -7c-37 0 -58 24 -58 56c0 33 31 60 72 60c46 0 85 -28 85 -84c0 -63 -46 -125 -156 -138zM250 -12c-89 0 -159 16 -204 30l-12 190h41c24 -50 40 -83 67 -119c26 -34 54 -50 116 -50c81 0 132 50 132 107
c0 60 -37 96 -161 147c-135 55 -185 113 -185 214c0 114 95 198 238 198c82 0 135 -7 173 -19l12 -171h-40c-25 53 -35 73 -60 103c-20 22 -43 37 -94 37c-71 0 -123 -43 -123 -102c0 -52 25 -79 141 -127c155 -63 215 -120 215 -213c0 -125 -89 -225 -256 -225z" />
    <glyph glyph-name="Sacute.pl" horiz-adv-x="544" 
d="M250 -12c-89 0 -159 16 -204 30l-12 190h41c24 -50 40 -83 67 -119c26 -34 54 -50 116 -50c81 0 132 50 132 107c0 60 -37 96 -161 147c-135 55 -185 113 -185 214c0 114 95 198 238 198c82 0 135 -7 173 -19l12 -171h-40c-25 53 -35 73 -60 103c-20 22 -43 37 -94 37
c-71 0 -123 -43 -123 -102c0 -52 25 -79 141 -127c155 -63 215 -120 215 -213c0 -125 -89 -225 -256 -225zM253 748l-21 19l61 128c12 25 27 40 50 40c29 0 57 -23 57 -52c0 -17 -8 -33 -26 -45z" />
    <glyph glyph-name="Tcaron" unicode="&#x164;" horiz-adv-x="646" 
d="M293 757l-133 127l18 28l145 -61l145 61l19 -28l-133 -127h-61zM168 0v36l43 8c32 7 39 11 39 66v535h-3c-83 0 -98 -2 -127 -48c-23 -34 -34 -68 -58 -130h-41l10 226h584l10 -226h-41c-23 62 -35 96 -57 130c-30 47 -44 48 -128 48h-2v-535c0 -55 4 -59 38 -66l43 -8
v-36h-310z" />
    <glyph glyph-name="Tcommaaccent" unicode="&#x162;" horiz-adv-x="646" 
d="M248 -284l-7 28c74 19 92 51 91 85c-6 -3 -15 -7 -27 -7c-37 0 -58 24 -58 56c0 33 31 60 72 60c46 0 85 -28 85 -84c0 -63 -46 -125 -156 -138zM168 0v36l43 8c32 7 39 11 39 66v535h-3c-83 0 -98 -2 -127 -48c-23 -34 -34 -68 -58 -130h-41l10 226h584l10 -226h-41
c-23 62 -35 96 -57 130c-30 47 -44 48 -128 48h-2v-535c0 -55 4 -59 38 -66l43 -8v-36h-310z" />
    <glyph glyph-name="Tbar" unicode="&#x166;" horiz-adv-x="646" 
d="M100 354v49h150v242h-3c-83 0 -98 -2 -127 -48c-23 -34 -34 -68 -58 -130h-41l10 226h584l10 -226h-41c-23 62 -35 96 -57 130c-30 47 -44 48 -128 48h-2v-242h150v-49h-150v-244c0 -55 4 -59 38 -66l43 -8v-36h-310v36l43 8c32 7 39 11 39 66v244h-150z" />
    <glyph glyph-name="Ubreve" unicode="&#x16c;" horiz-adv-x="722" 
d="M375 -12c-167 0 -280 66 -280 236v359c0 56 -9 61 -37 67l-41 8v35h300v-35l-38 -8c-31 -7 -37 -11 -37 -67v-375c0 -107 44 -153 168 -153c111 0 159 59 159 165v351c0 67 -8 72 -46 80l-46 7v35h226v-35l-32 -7c-31 -7 -43 -12 -43 -78v-360c0 -123 -75 -225 -253 -225
zM397 754c-82 0 -140 61 -151 140l37 11c16 -40 51 -65 113 -65c61 0 96 24 113 65l36 -11c-10 -79 -66 -140 -148 -140z" />
    <glyph glyph-name="Uhungarumlaut" unicode="&#x170;" horiz-adv-x="722" 
d="M481 760l-19 21l82 119c13 21 25 29 42 29c22 0 51 -23 51 -48c0 -16 -7 -32 -32 -47zM300 760l-19 21l80 119c14 21 28 29 44 29c20 0 50 -22 50 -47c0 -18 -8 -35 -35 -50zM375 -12c-167 0 -280 66 -280 236v359c0 56 -9 61 -37 67l-41 8v35h300v-35l-38 -8
c-31 -7 -37 -11 -37 -67v-375c0 -107 44 -153 168 -153c111 0 159 59 159 165v351c0 67 -8 72 -46 80l-46 7v35h226v-35l-32 -7c-31 -7 -43 -12 -43 -78v-360c0 -123 -75 -225 -253 -225z" />
    <glyph glyph-name="Umacron" unicode="&#x16a;" horiz-adv-x="722" 
d="M375 -12c-167 0 -280 66 -280 236v359c0 56 -9 61 -37 67l-41 8v35h300v-35l-38 -8c-31 -7 -37 -11 -37 -67v-375c0 -107 44 -153 168 -153c111 0 159 59 159 165v351c0 67 -8 72 -46 80l-46 7v35h226v-35l-32 -7c-31 -7 -43 -12 -43 -78v-360c0 -123 -75 -225 -253 -225
zM248 777v73h296v-73h-296z" />
    <glyph glyph-name="Uogonek" unicode="&#x172;" horiz-adv-x="722" 
d="M409 -225c-66 0 -110 34 -110 88s47 97 97 126c-9 -1 -14 -1 -21 -1c-167 0 -280 66 -280 236v359c0 56 -9 61 -37 67l-41 8v35h300v-35l-38 -8c-31 -7 -37 -11 -37 -67v-375c0 -107 44 -153 168 -153c111 0 159 59 159 165v351c0 67 -8 72 -46 80l-46 7v35h226v-35
l-32 -7c-31 -7 -43 -12 -43 -78v-360c0 -79 -31 -148 -99 -187c-62 -37 -123 -66 -123 -140c0 -24 9 -40 30 -46c16 -4 36 -4 64 -3v-34c-16 -12 -43 -28 -91 -28z" />
    <glyph glyph-name="Uring" unicode="&#x16e;" horiz-adv-x="722" 
d="M375 -12c-167 0 -280 66 -280 236v359c0 56 -9 61 -37 67l-41 8v35h300v-35l-38 -8c-31 -7 -37 -11 -37 -67v-375c0 -107 44 -153 168 -153c111 0 159 59 159 165v351c0 67 -8 72 -46 80l-46 7v35h226v-35l-32 -7c-31 -7 -43 -12 -43 -78v-360c0 -123 -75 -225 -253 -225
zM401 714c-64 0 -109 45 -109 103c0 59 47 104 109 104s109 -44 109 -104c0 -58 -47 -103 -109 -103zM401 756c35 0 57 25 57 61c0 35 -22 62 -57 62s-58 -27 -58 -62c0 -36 23 -61 58 -61z" />
    <glyph glyph-name="Utilde" unicode="&#x168;" horiz-adv-x="722" 
d="M375 -12c-167 0 -280 66 -280 236v359c0 56 -9 61 -37 67l-41 8v35h300v-35l-38 -8c-31 -7 -37 -11 -37 -67v-375c0 -107 44 -153 168 -153c111 0 159 59 159 165v351c0 67 -8 72 -46 80l-46 7v35h226v-35l-32 -7c-31 -7 -43 -12 -43 -78v-360c0 -123 -75 -225 -253 -225
zM257 761l-37 16c29 84 58 129 104 129c48 0 119 -46 150 -46c25 0 39 20 61 60l35 -15c-29 -84 -55 -129 -102 -129c-48 0 -119 46 -151 46c-25 0 -38 -21 -60 -61z" />
    <glyph glyph-name="Wacute" unicode="&#x1e82;" horiz-adv-x="1015" 
d="M440 746l-12 27l150 112c17 13 31 20 47 20c27 0 47 -26 47 -52c0 -20 -10 -42 -41 -51zM280 0l-179 561c-25 68 -33 84 -62 91l-27 6v35h292v-35l-30 -7c-22 -5 -33 -16 -33 -37c0 -19 8 -44 16 -71l112 -374h5l115 328l-23 71c-20 60 -31 76 -62 83l-24 7v35h288v-35
l-34 -7c-20 -4 -34 -18 -34 -39c0 -17 6 -43 14 -69l122 -374h5l104 375c7 24 13 50 13 69c0 21 -10 33 -34 38l-33 7v35h213v-35l-28 -6c-33 -8 -44 -37 -67 -112l-165 -540h-93l-129 412h-5l-143 -412h-94z" />
    <glyph glyph-name="Wcircumflex" unicode="&#x174;" horiz-adv-x="1015" 
d="M558 899l134 -127l-19 -28l-145 62l-145 -62l-18 28l132 127h61zM280 0l-179 561c-25 68 -33 84 -62 91l-27 6v35h292v-35l-30 -7c-22 -5 -33 -16 -33 -37c0 -19 8 -44 16 -71l112 -374h5l115 328l-23 71c-20 60 -31 76 -62 83l-24 7v35h288v-35l-34 -7
c-20 -4 -34 -18 -34 -39c0 -17 6 -43 14 -69l122 -374h5l104 375c7 24 13 50 13 69c0 21 -10 33 -34 38l-33 7v35h213v-35l-28 -6c-33 -8 -44 -37 -67 -112l-165 -540h-93l-129 412h-5l-143 -412h-94z" />
    <glyph glyph-name="Wdieresis" unicode="&#x1e84;" horiz-adv-x="1015" 
d="M414 749c-42 0 -77 34 -77 73c0 41 35 73 77 73s77 -32 77 -73c0 -39 -35 -73 -77 -73zM642 750c-43 0 -77 33 -77 73s34 73 77 73c42 0 76 -33 76 -73s-34 -73 -76 -73zM280 0l-179 561c-25 68 -33 84 -62 91l-27 6v35h292v-35l-30 -7c-22 -5 -33 -16 -33 -37
c0 -19 8 -44 16 -71l112 -374h5l115 328l-23 71c-20 60 -31 76 -62 83l-24 7v35h288v-35l-34 -7c-20 -4 -34 -18 -34 -39c0 -17 6 -43 14 -69l122 -374h5l104 375c7 24 13 50 13 69c0 21 -10 33 -34 38l-33 7v35h213v-35l-28 -6c-33 -8 -44 -37 -67 -112l-165 -540h-93
l-129 412h-5l-143 -412h-94z" />
    <glyph glyph-name="Wgrave" unicode="&#x1e80;" horiz-adv-x="1015" 
d="M625 746l-192 56c-30 9 -42 31 -42 51c0 26 21 52 48 52c16 0 31 -7 47 -20l151 -112zM280 0l-179 561c-25 68 -33 84 -62 91l-27 6v35h292v-35l-30 -7c-22 -5 -33 -16 -33 -37c0 -19 8 -44 16 -71l112 -374h5l115 328l-23 71c-20 60 -31 76 -62 83l-24 7v35h288v-35
l-34 -7c-20 -4 -34 -18 -34 -39c0 -17 6 -43 14 -69l122 -374h5l104 375c7 24 13 50 13 69c0 21 -10 33 -34 38l-33 7v35h213v-35l-28 -6c-33 -8 -44 -37 -67 -112l-165 -540h-93l-129 412h-5l-143 -412h-94z" />
    <glyph glyph-name="Ycircumflex" unicode="&#x176;" horiz-adv-x="660" 
d="M182 0v36l43 8c30 7 37 11 37 66v172l-154 282c-36 64 -51 79 -79 87l-22 7v35h306v-35l-27 -6c-30 -7 -40 -19 -40 -39c0 -13 9 -30 22 -55l105 -209h4l105 205c12 27 18 46 18 60c0 20 -13 31 -37 37l-31 7v35h223v-35l-21 -7c-33 -10 -53 -29 -88 -100l-137 -262v-179
c0 -55 5 -59 38 -66l44 -8v-36h-309zM398 899l134 -127l-19 -28l-145 62l-145 -62l-18 28l132 127h61z" />
    <glyph glyph-name="Ygrave" unicode="&#x1ef2;" horiz-adv-x="660" 
d="M182 0v36l43 8c30 7 37 11 37 66v172l-154 282c-36 64 -51 79 -79 87l-22 7v35h306v-35l-27 -6c-30 -7 -40 -19 -40 -39c0 -13 9 -30 22 -55l105 -209h4l105 205c12 27 18 46 18 60c0 20 -13 31 -37 37l-31 7v35h223v-35l-21 -7c-33 -10 -53 -29 -88 -100l-137 -262v-179
c0 -55 5 -59 38 -66l44 -8v-36h-309zM465 746l-192 56c-30 9 -42 31 -42 51c0 26 21 52 48 52c16 0 31 -7 47 -20l151 -112z" />
    <glyph glyph-name="Zacute" unicode="&#x179;" horiz-adv-x="593" 
d="M206 746l-12 27l150 112c17 13 31 20 47 20c27 0 47 -26 47 -52c0 -20 -10 -42 -41 -51zM22 0v51l372 592v4h-55c-149 0 -171 -4 -199 -45c-24 -33 -38 -59 -65 -120h-36l11 211h497v-50l-368 -592v-4h43c158 0 188 6 219 47c25 34 41 67 69 136h37l-14 -230h-511z" />
    <glyph glyph-name="Zacute.pl" horiz-adv-x="593" 
d="M281 748l-21 19l61 128c12 25 27 40 50 40c29 0 57 -23 57 -52c0 -17 -8 -33 -26 -45zM22 0v51l372 592v4h-55c-149 0 -171 -4 -199 -45c-24 -33 -38 -59 -65 -120h-36l11 211h497v-50l-368 -592v-4h43c158 0 188 6 219 47c25 34 41 67 69 136h37l-14 -230h-511z" />
    <glyph glyph-name="Zdotaccent" unicode="&#x17b;" horiz-adv-x="593" 
d="M22 0v51l372 592v4h-55c-149 0 -171 -4 -199 -45c-24 -33 -38 -59 -65 -120h-36l11 211h497v-50l-368 -592v-4h43c158 0 188 6 219 47c25 34 41 67 69 136h37l-14 -230h-511zM295 747c-46 0 -83 35 -83 77c0 44 37 77 83 77c45 0 82 -33 82 -77c0 -42 -37 -77 -82 -77z
" />
    <glyph glyph-name="abreve" unicode="&#x103;" horiz-adv-x="538" 
d="M180 -12c-95 0 -154 48 -154 133s55 129 195 162l97 22v83c0 75 -13 97 -85 97c-38 0 -43 -8 -47 -38c-5 -52 -23 -79 -73 -79c-43 0 -61 23 -61 57c0 67 95 104 209 104c124 0 189 -41 189 -133v-280c0 -32 5 -47 26 -57c11 -7 29 -9 48 -10v-32
c-18 -13 -57 -29 -104 -29c-55 0 -87 24 -96 60h-5c-24 -33 -75 -60 -139 -60zM238 56c40 0 68 17 80 37v156l-62 -6c-66 -6 -99 -32 -99 -106c0 -61 32 -81 81 -81zM262 593c-80 0 -135 66 -146 156l37 11c17 -47 48 -82 108 -82c58 0 90 34 108 82l35 -11
c-9 -90 -63 -156 -142 -156z" />
    <glyph glyph-name="amacron" unicode="&#x101;" horiz-adv-x="538" 
d="M180 -12c-95 0 -154 48 -154 133s55 129 195 162l97 22v83c0 75 -13 97 -85 97c-38 0 -43 -8 -47 -38c-5 -52 -23 -79 -73 -79c-43 0 -61 23 -61 57c0 67 95 104 209 104c124 0 189 -41 189 -133v-280c0 -32 5 -47 26 -57c11 -7 29 -9 48 -10v-32
c-18 -13 -57 -29 -104 -29c-55 0 -87 24 -96 60h-5c-24 -33 -75 -60 -139 -60zM238 56c40 0 68 17 80 37v156l-62 -6c-66 -6 -99 -32 -99 -106c0 -61 32 -81 81 -81zM115 625v72h291v-72h-291z" />
    <glyph glyph-name="aogonek" unicode="&#x105;" horiz-adv-x="538" 
d="M414 -225c-66 0 -110 34 -110 88s50 95 103 126c-49 4 -75 26 -83 59h-5c-24 -33 -75 -60 -139 -60c-95 0 -154 48 -154 133s55 129 195 162l97 22v83c0 75 -13 97 -85 97c-38 0 -43 -8 -47 -38c-5 -52 -23 -79 -73 -79c-43 0 -61 23 -61 57c0 67 95 104 209 104
c124 0 189 -41 189 -133v-280c0 -32 5 -47 26 -57c11 -7 29 -9 48 -10v-32c-68 -36 -114 -80 -114 -131c0 -24 9 -40 30 -46c16 -4 37 -4 65 -3v-34c-17 -12 -43 -28 -91 -28zM238 56c40 0 68 17 80 37v156l-62 -6c-66 -6 -99 -32 -99 -106c0 -61 32 -81 81 -81z" />
    <glyph glyph-name="aringacute" unicode="&#x1fb;" horiz-adv-x="538" 
d="M180 -12c-95 0 -154 48 -154 133s55 129 195 162l97 22v83c0 75 -13 97 -85 97c-38 0 -43 -8 -47 -38c-5 -52 -23 -79 -73 -79c-43 0 -61 23 -61 57c0 67 95 104 209 104c124 0 189 -41 189 -133v-280c0 -32 5 -47 26 -57c11 -7 29 -9 48 -10v-32
c-18 -13 -57 -29 -104 -29c-55 0 -87 24 -96 60h-5c-24 -33 -75 -60 -139 -60zM238 56c40 0 68 17 80 37v156l-62 -6c-66 -6 -99 -32 -99 -106c0 -61 32 -81 81 -81zM261 586c-64 0 -109 46 -109 103c0 59 47 105 109 105s109 -45 109 -105c0 -57 -47 -103 -109 -103z
M261 628c35 0 57 26 57 61c0 36 -22 62 -57 62s-58 -26 -58 -62c0 -35 23 -61 58 -61zM173 819l-12 27l150 112c17 13 31 20 47 20c27 0 47 -26 47 -52c0 -20 -10 -42 -41 -51z" />
    <glyph glyph-name="aeacute" unicode="&#x1fd;" horiz-adv-x="807" 
d="M335 591l-12 27l150 112c17 13 31 20 47 20c27 0 47 -26 47 -52c0 -20 -10 -42 -41 -51zM559 -12c-94 0 -159 31 -198 89c-43 -62 -98 -89 -179 -89c-97 0 -156 47 -156 135c0 86 73 130 166 151l124 28v86c0 72 -13 97 -82 97c-38 0 -46 -8 -49 -38
c-5 -52 -23 -79 -73 -79c-43 0 -61 23 -61 58c0 66 99 103 206 103c81 0 129 -22 152 -64c39 41 92 64 154 64c132 0 214 -79 214 -264h-334c6 -145 69 -199 165 -199c70 0 118 21 156 40v-43c-31 -30 -106 -75 -205 -75zM556 483c-59 0 -107 -49 -113 -171l199 10
c0 114 -17 161 -86 161zM240 56c44 0 76 24 99 63c-14 35 -22 77 -23 126l-60 -6c-61 -5 -98 -24 -98 -100c0 -65 32 -83 82 -83z" />
    <glyph glyph-name="cacute" unicode="&#x107;" horiz-adv-x="507" 
d="M207 591l-12 27l150 112c17 13 31 20 47 20c27 0 47 -26 47 -52c0 -20 -10 -42 -41 -51zM278 -12c-160 0 -247 106 -247 264c0 212 166 277 299 277c99 0 153 -33 153 -89c0 -35 -27 -73 -66 -73c-46 0 -60 29 -65 66c-6 42 -15 48 -49 48c-70 0 -137 -43 -137 -188
c0 -146 57 -227 171 -227c65 0 112 22 148 41v-43c-31 -32 -104 -76 -207 -76z" />
    <glyph glyph-name="ccaron" unicode="&#x10d;" horiz-adv-x="507" 
d="M268 594l-132 147l20 28l142 -82l142 82l20 -28l-131 -147h-61zM278 -12c-160 0 -247 106 -247 264c0 212 166 277 299 277c99 0 153 -33 153 -89c0 -35 -27 -73 -66 -73c-46 0 -60 29 -65 66c-6 42 -15 48 -49 48c-70 0 -137 -43 -137 -188c0 -146 57 -227 171 -227
c65 0 112 22 148 41v-43c-31 -32 -104 -76 -207 -76z" />
    <glyph glyph-name="ccircumflex" unicode="&#x109;" horiz-adv-x="507" 
d="M328 759l132 -147l-20 -28l-142 82l-142 -82l-20 28l131 147h61zM278 -12c-160 0 -247 106 -247 264c0 212 166 277 299 277c99 0 153 -33 153 -89c0 -35 -27 -73 -66 -73c-46 0 -60 29 -65 66c-6 42 -15 48 -49 48c-70 0 -137 -43 -137 -188c0 -146 57 -227 171 -227
c65 0 112 22 148 41v-43c-31 -32 -104 -76 -207 -76z" />
    <glyph glyph-name="cdotaccent" unicode="&#x10b;" horiz-adv-x="507" 
d="M278 -12c-160 0 -247 106 -247 264c0 212 166 277 299 277c99 0 153 -33 153 -89c0 -35 -27 -73 -66 -73c-46 0 -60 29 -65 66c-6 42 -15 48 -49 48c-70 0 -137 -43 -137 -188c0 -146 57 -227 171 -227c65 0 112 22 148 41v-43c-31 -32 -104 -76 -207 -76zM299 603
c-46 0 -83 35 -83 77c0 44 37 77 83 77c45 0 82 -33 82 -77c0 -42 -37 -77 -82 -77z" />
    <glyph glyph-name="cacute.pl" horiz-adv-x="507" 
d="M278 -12c-160 0 -247 106 -247 264c0 212 166 277 299 277c99 0 153 -33 153 -89c0 -35 -27 -73 -66 -73c-46 0 -60 29 -65 66c-6 42 -15 48 -49 48c-70 0 -137 -43 -137 -188c0 -146 57 -227 171 -227c65 0 112 22 148 41v-43c-31 -32 -104 -76 -207 -76zM278 575
l-22 18l70 147c11 24 26 41 51 41c28 0 56 -24 56 -52c0 -15 -8 -30 -24 -44z" />
    <glyph glyph-name="dcaron" unicode="&#x10f;" horiz-adv-x="626" 
d="M634 567l-25 7l7 139c2 29 13 52 48 52c28 0 50 -18 50 -44c0 -10 -2 -21 -11 -36zM237 -12c-99 0 -202 67 -202 253c0 201 138 287 291 287c35 0 68 -4 88 -10c0 0 -4 37 -4 73v45c0 44 -6 46 -31 59l-42 21v32l200 18l12 -10s-7 -42 -7 -115v-517c0 -47 5 -53 32 -64
l33 -15v-32l-186 -25l-9 7l5 55h-4c-44 -34 -107 -62 -176 -62zM308 68c51 0 83 18 102 28v343c-19 20 -48 41 -90 41c-90 0 -148 -53 -148 -213c0 -146 48 -199 136 -199z" />
    <glyph glyph-name="ebreve" unicode="&#x115;" horiz-adv-x="539" 
d="M289 -12c-173 0 -258 107 -258 273c0 167 124 268 258 268c135 0 217 -70 219 -258h-343c5 -150 72 -205 174 -205c71 0 117 21 156 40v-43c-31 -30 -106 -75 -206 -75zM283 483c-62 0 -111 -47 -117 -165l204 10c0 117 -17 155 -87 155zM287 593c-80 0 -135 66 -146 156
l37 11c17 -47 48 -82 108 -82c58 0 90 34 108 82l35 -11c-9 -90 -63 -156 -142 -156z" />
    <glyph glyph-name="ecaron" unicode="&#x11b;" horiz-adv-x="539" 
d="M255 594l-132 147l20 28l142 -82l142 82l20 -28l-131 -147h-61zM289 -12c-173 0 -258 107 -258 273c0 167 124 268 258 268c135 0 217 -70 219 -258h-343c5 -150 72 -205 174 -205c71 0 117 21 156 40v-43c-31 -30 -106 -75 -206 -75zM283 483c-62 0 -111 -47 -117 -165
l204 10c0 117 -17 155 -87 155z" />
    <glyph glyph-name="edotaccent" unicode="&#x117;" horiz-adv-x="539" 
d="M289 -12c-173 0 -258 107 -258 273c0 167 124 268 258 268c135 0 217 -70 219 -258h-343c5 -150 72 -205 174 -205c71 0 117 21 156 40v-43c-31 -30 -106 -75 -206 -75zM283 483c-62 0 -111 -47 -117 -165l204 10c0 117 -17 155 -87 155zM286 603c-46 0 -83 35 -83 77
c0 44 37 77 83 77c45 0 82 -33 82 -77c0 -42 -37 -77 -82 -77z" />
    <glyph glyph-name="emacron" unicode="&#x113;" horiz-adv-x="539" 
d="M289 -12c-173 0 -258 107 -258 273c0 167 124 268 258 268c135 0 217 -70 219 -258h-343c5 -150 72 -205 174 -205c71 0 117 21 156 40v-43c-31 -30 -106 -75 -206 -75zM283 483c-62 0 -111 -47 -117 -165l204 10c0 117 -17 155 -87 155zM139 625v72h291v-72h-291z" />
    <glyph glyph-name="eogonek" unicode="&#x119;" horiz-adv-x="539" 
d="M339 66c71 0 117 21 156 40v-43c-28 -26 -68 -46 -100 -67c-41 -28 -68 -66 -68 -110c0 -24 9 -40 30 -46c16 -4 37 -4 65 -3v-34c-17 -12 -43 -28 -91 -28c-66 0 -110 34 -110 88s47 97 101 127c-13 -1 -23 -2 -33 -2c-173 0 -258 107 -258 273c0 167 124 268 258 268
c135 0 217 -70 219 -258h-343c5 -150 72 -205 174 -205zM283 483c-62 0 -111 -47 -117 -165l204 10c0 117 -17 155 -87 155z" />
    <glyph glyph-name="gbreve" unicode="&#x11f;" horiz-adv-x="538" 
d="M220 -227c-142 0 -226 45 -226 117c0 51 45 91 118 116v4c-39 11 -75 39 -75 88c0 59 47 95 80 118v4c-44 20 -85 71 -85 132c0 116 103 176 212 176c46 0 78 -5 117 -19c37 34 83 62 132 62c34 0 59 -17 59 -51c0 -29 -15 -56 -47 -56c-29 0 -40 13 -50 32
c-7 14 -39 3 -66 -13v-3c40 -22 69 -62 69 -117c0 -116 -104 -173 -214 -173c-36 0 -60 4 -87 16c-14 -10 -30 -30 -30 -51c0 -23 17 -43 58 -43h167c92 0 158 -31 158 -132c0 -93 -79 -207 -290 -207zM244 235c57 0 86 30 86 118c0 96 -29 131 -86 131
c-56 0 -85 -33 -85 -121c0 -96 30 -128 85 -128zM240 -179c111 0 179 50 179 108c0 45 -20 72 -89 72h-160c-26 -9 -68 -45 -68 -94c0 -55 41 -86 138 -86zM260 593c-80 0 -135 66 -146 156l37 11c17 -47 48 -82 108 -82c58 0 90 34 108 82l35 -11
c-9 -90 -63 -156 -142 -156z" />
    <glyph glyph-name="gcircumflex" unicode="&#x11d;" horiz-adv-x="538" 
d="M288 759l132 -147l-20 -28l-142 82l-142 -82l-20 28l131 147h61zM220 -227c-142 0 -226 45 -226 117c0 51 45 91 118 116v4c-39 11 -75 39 -75 88c0 59 47 95 80 118v4c-44 20 -85 71 -85 132c0 116 103 176 212 176c46 0 78 -5 117 -19c37 34 83 62 132 62
c34 0 59 -17 59 -51c0 -29 -15 -56 -47 -56c-29 0 -40 13 -50 32c-7 14 -39 3 -66 -13v-3c40 -22 69 -62 69 -117c0 -116 -104 -173 -214 -173c-36 0 -60 4 -87 16c-14 -10 -30 -30 -30 -51c0 -23 17 -43 58 -43h167c92 0 158 -31 158 -132c0 -93 -79 -207 -290 -207z
M244 235c57 0 86 30 86 118c0 96 -29 131 -86 131c-56 0 -85 -33 -85 -121c0 -96 30 -128 85 -128zM240 -179c111 0 179 50 179 108c0 45 -20 72 -89 72h-160c-26 -9 -68 -45 -68 -94c0 -55 41 -86 138 -86z" />
    <glyph glyph-name="gcommaaccent" unicode="&#x123;" horiz-adv-x="538" 
d="M329 822l7 -27c-74 -20 -92 -52 -91 -86c5 3 14 7 27 7c37 0 58 -23 58 -55c0 -33 -31 -61 -72 -61c-46 0 -85 28 -85 84c0 63 46 125 156 138zM220 -227c-142 0 -226 45 -226 117c0 51 45 91 118 116v4c-39 11 -75 39 -75 88c0 59 47 95 80 118v4c-44 20 -85 71 -85 132
c0 116 103 176 212 176c46 0 78 -5 117 -19c37 34 83 62 132 62c34 0 59 -17 59 -51c0 -29 -15 -56 -47 -56c-29 0 -40 13 -50 32c-7 14 -39 3 -66 -13v-3c40 -22 69 -62 69 -117c0 -116 -104 -173 -214 -173c-36 0 -60 4 -87 16c-14 -10 -30 -30 -30 -51
c0 -23 17 -43 58 -43h167c92 0 158 -31 158 -132c0 -93 -79 -207 -290 -207zM244 235c57 0 86 30 86 118c0 96 -29 131 -86 131c-56 0 -85 -33 -85 -121c0 -96 30 -128 85 -128zM240 -179c111 0 179 50 179 108c0 45 -20 72 -89 72h-160c-26 -9 -68 -45 -68 -94
c0 -55 41 -86 138 -86z" />
    <glyph glyph-name="gdotaccent" unicode="&#x121;" horiz-adv-x="538" 
d="M220 -227c-142 0 -226 45 -226 117c0 51 45 91 118 116v4c-39 11 -75 39 -75 88c0 59 47 95 80 118v4c-44 20 -85 71 -85 132c0 116 103 176 212 176c46 0 78 -5 117 -19c37 34 83 62 132 62c34 0 59 -17 59 -51c0 -29 -15 -56 -47 -56c-29 0 -40 13 -50 32
c-7 14 -39 3 -66 -13v-3c40 -22 69 -62 69 -117c0 -116 -104 -173 -214 -173c-36 0 -60 4 -87 16c-14 -10 -30 -30 -30 -51c0 -23 17 -43 58 -43h167c92 0 158 -31 158 -132c0 -93 -79 -207 -290 -207zM244 235c57 0 86 30 86 118c0 96 -29 131 -86 131
c-56 0 -85 -33 -85 -121c0 -96 30 -128 85 -128zM240 -179c111 0 179 50 179 108c0 45 -20 72 -89 72h-160c-26 -9 -68 -45 -68 -94c0 -55 41 -86 138 -86zM259 603c-46 0 -83 35 -83 77c0 44 37 77 83 77c45 0 82 -33 82 -77c0 -42 -37 -77 -82 -77z" />
    <glyph glyph-name="hbar" unicode="&#x127;" horiz-adv-x="630" 
d="M-2 595v47h91c-1 38 -7 42 -31 55l-41 19v32l199 18l13 -10s-8 -48 -8 -114h170v-47h-170v-39c0 -50 -5 -93 -5 -93h4c52 34 123 65 193 65c94 0 136 -43 136 -133v-296c0 -42 6 -49 32 -55l33 -9v-35h-260v35l33 8c25 7 29 11 29 56v259c0 66 -22 89 -79 89
c-43 0 -91 -16 -116 -24v-324c0 -46 4 -49 29 -56l34 -8v-35h-262v35l35 9c27 7 32 13 32 55v496h-91z" />
    <glyph glyph-name="hcircumflex" unicode="&#x125;" horiz-adv-x="630" 
d="M22 0v35l35 9c27 7 32 13 32 55v537c0 44 -5 48 -31 61l-41 19v32l199 18l13 -10s-8 -48 -8 -115v-85c0 -50 -5 -93 -5 -93h4c52 34 123 65 193 65c94 0 136 -43 136 -133v-296c0 -42 6 -49 32 -55l33 -9v-35h-260v35l33 8c25 7 29 11 29 56v259c0 66 -22 89 -79 89
c-43 0 -91 -16 -116 -24v-324c0 -46 4 -49 29 -56l34 -8v-35h-262zM352 964l134 -127l-19 -28l-145 62l-145 -62l-18 28l132 127h61z" />
    <glyph glyph-name="ibreve" unicode="&#x12d;" horiz-adv-x="305" 
d="M22 0v31l35 11c30 7 32 15 32 71v272c0 53 -4 53 -32 69l-36 23v29l195 22l12 -7c-1 -6 -7 -49 -7 -128v-280c0 -58 3 -65 32 -71l34 -11v-31h-265zM229 521c0 0 -1 1 -1 0h1zM155 593c-80 0 -135 66 -146 156l37 11c17 -47 48 -82 108 -82c58 0 90 34 108 82l35 -11
c-9 -90 -63 -156 -142 -156z" />
    <glyph glyph-name="imacron" unicode="&#x12b;" horiz-adv-x="305" 
d="M13 625v72h256v-72h-256zM22 0v31l35 11c30 7 32 15 32 71v272c0 53 -4 53 -32 69l-36 23v29l195 22l12 -7c-1 -6 -7 -49 -7 -128v-280c0 -58 3 -65 32 -71l34 -11v-31h-265zM229 521c0 0 -1 1 -1 0h1z" />
    <glyph glyph-name="iogonek" unicode="&#x12f;" horiz-adv-x="305" 
d="M22 0v35l35 9c27 7 32 13 32 55v297c0 42 -5 44 -32 60l-36 21v29l195 22l13 -8c-1 -16 -8 -53 -8 -129v-292c0 -44 5 -49 32 -55l34 -9v-35h-69c-33 -40 -53 -73 -53 -114c0 -24 9 -40 30 -46c16 -4 37 -4 65 -3v-34c-17 -12 -43 -28 -91 -28c-66 0 -110 34 -110 88
c0 60 52 107 102 137h-139zM151 603c-47 0 -83 35 -83 77c0 44 36 77 83 77c45 0 81 -33 81 -77c0 -42 -36 -77 -81 -77z" />
    <glyph glyph-name="itilde" unicode="&#x129;" horiz-adv-x="305" 
d="M22 0v31l35 11c30 7 32 15 32 71v272c0 53 -4 53 -32 69l-36 23v29l195 22l12 -7c-1 -6 -7 -49 -7 -128v-280c0 -58 3 -65 32 -71l34 -11v-31h-265zM229 521c0 0 -1 1 -1 0h1zM19 584l-36 16c29 86 58 133 103 133c48 0 111 -40 143 -40c24 0 38 24 60 65l36 -16
c-29 -85 -56 -133 -102 -133c-48 0 -111 40 -144 40c-24 0 -37 -24 -60 -65z" />
    <glyph glyph-name="idotaccent" horiz-adv-x="305" 
d="M151 603c-47 0 -83 35 -83 77c0 44 36 77 83 77c45 0 81 -33 81 -77c0 -42 -36 -77 -81 -77zM22 0v35l35 9c27 7 32 13 32 55v297c0 42 -5 44 -32 60l-36 21v29l195 22l13 -8c-1 -16 -8 -53 -8 -129v-292c0 -44 5 -49 32 -55l34 -9v-35h-265z" />
    <glyph glyph-name="jcircumflex" unicode="&#x135;" horiz-adv-x="295" 
d="M18 -227c-77 0 -117 40 -117 83c0 34 25 55 62 55c43 0 58 -20 63 -65c3 -27 9 -30 19 -30c28 0 44 25 44 58v522c0 42 -5 44 -32 60l-36 21v29l195 22l13 -8c-1 -16 -8 -53 -8 -135v-399c0 -147 -89 -213 -203 -213zM181 759l132 -147l-20 -28l-142 82l-142 -82l-20 28
l131 147h61z" />
    <glyph glyph-name="kcommaaccent" unicode="&#x137;" horiz-adv-x="585" 
d="M231 -284l-7 28c74 19 92 51 91 85c-6 -3 -15 -7 -27 -7c-37 0 -58 24 -58 56c0 33 31 60 72 60c46 0 85 -28 85 -84c0 -63 -46 -125 -156 -138zM22 0v35l35 9c27 7 32 13 32 55v537c0 44 -5 48 -31 61l-41 19v32l199 18l13 -10s-8 -48 -8 -115v-542c0 -45 5 -49 29 -56
l33 -8v-35h-261zM415 0c-71 83 -125 164 -178 249v20l102 106c39 43 52 60 52 75c0 12 -10 22 -29 27l-15 4v34h209v-35l-26 -8c-28 -8 -51 -19 -94 -62l-94 -97c56 -91 113 -177 175 -246c10 -12 19 -19 32 -23l29 -9v-35h-163z" />
    <glyph glyph-name="lacute" unicode="&#x13a;" horiz-adv-x="308" 
d="M65 811l-12 27l150 112c17 13 31 20 47 20c27 0 47 -26 47 -52c0 -20 -10 -42 -41 -51zM22 0v35l35 9c28 7 33 13 33 55v537c0 44 -5 48 -32 61l-41 19v32l200 18l13 -10s-8 -48 -8 -115v-542c0 -44 5 -48 32 -55l35 -9v-35h-267z" />
    <glyph glyph-name="lcaron" unicode="&#x13e;" horiz-adv-x="308" 
d="M314 567l-25 7l7 139c2 29 13 52 48 52c28 0 50 -18 50 -44c0 -10 -2 -21 -11 -36zM22 0v35l35 9c28 7 33 13 33 55v537c0 44 -5 48 -32 61l-41 19v32l200 18l13 -10s-8 -48 -8 -115v-542c0 -44 5 -48 32 -55l35 -9v-35h-267z" />
    <glyph glyph-name="lcommaaccent" unicode="&#x13c;" horiz-adv-x="308" 
d="M78 -284l-7 28c74 19 92 51 91 85c-6 -3 -15 -7 -27 -7c-37 0 -58 24 -58 56c0 33 31 60 72 60c46 0 85 -28 85 -84c0 -63 -46 -125 -156 -138zM22 0v35l35 9c28 7 33 13 33 55v537c0 44 -5 48 -32 61l-41 19v32l200 18l13 -10s-8 -48 -8 -115v-542c0 -44 5 -48 32 -55
l35 -9v-35h-267z" />
    <glyph glyph-name="ldot" unicode="&#x140;" horiz-adv-x="409" 
d="M22 0v35l35 9c28 7 33 13 33 55v537c0 44 -5 48 -32 61l-41 19v32l200 18l13 -10s-8 -48 -8 -115v-542c0 -44 5 -48 32 -55l35 -9v-35h-267zM361 303c-41 0 -74 33 -74 73s33 72 74 72c42 0 74 -32 74 -72s-32 -73 -74 -73z" />
    <glyph glyph-name="nacute" unicode="&#x144;" horiz-adv-x="634" 
d="M230 591l-12 27l150 112c17 13 31 20 47 20c27 0 47 -26 47 -52c0 -20 -10 -42 -41 -51zM22 0v35l35 9c27 7 32 13 32 55v297c0 42 -5 44 -32 60l-36 21v29l187 22l12 -8l-6 -58h4c53 34 125 66 195 66c94 0 136 -43 136 -133v-296c0 -42 6 -49 32 -55l33 -9v-35h-260v35
l33 8c25 7 29 11 29 56v259c0 66 -22 89 -79 89c-43 0 -91 -16 -116 -24v-324c0 -46 4 -49 29 -56l34 -8v-35h-262z" />
    <glyph glyph-name="napostrophe" unicode="&#x149;" horiz-adv-x="731" 
d="M-77 411l-12 32c72 34 111 82 110 131c-5 -4 -16 -8 -31 -8c-38 0 -65 29 -65 70c0 42 35 69 79 69c50 0 95 -38 95 -101c0 -89 -66 -167 -176 -193zM119 0v35l35 9c27 7 32 13 32 55v297c0 42 -5 44 -32 60l-36 21v29l187 22l12 -8l-6 -58h4c53 34 125 66 195 66
c94 0 136 -43 136 -133v-296c0 -42 6 -49 32 -55l33 -9v-35h-260v35l33 8c25 7 29 11 29 56v259c0 66 -22 89 -79 89c-43 0 -91 -16 -116 -24v-324c0 -46 4 -49 29 -56l34 -8v-35h-262z" />
    <glyph glyph-name="ncaron" unicode="&#x148;" horiz-adv-x="634" 
d="M292 594l-132 147l20 28l142 -82l142 82l20 -28l-131 -147h-61zM22 0v35l35 9c27 7 32 13 32 55v297c0 42 -5 44 -32 60l-36 21v29l187 22l12 -8l-6 -58h4c53 34 125 66 195 66c94 0 136 -43 136 -133v-296c0 -42 6 -49 32 -55l33 -9v-35h-260v35l33 8c25 7 29 11 29 56
v259c0 66 -22 89 -79 89c-43 0 -91 -16 -116 -24v-324c0 -46 4 -49 29 -56l34 -8v-35h-262z" />
    <glyph glyph-name="ncommaaccent" unicode="&#x146;" horiz-adv-x="634" 
d="M245 -284l-7 28c74 19 92 51 91 85c-6 -3 -15 -7 -27 -7c-37 0 -58 24 -58 56c0 33 31 60 72 60c46 0 85 -28 85 -84c0 -63 -46 -125 -156 -138zM22 0v35l35 9c27 7 32 13 32 55v297c0 42 -5 44 -32 60l-36 21v29l187 22l12 -8l-6 -58h4c53 34 125 66 195 66
c94 0 136 -43 136 -133v-296c0 -42 6 -49 32 -55l33 -9v-35h-260v35l33 8c25 7 29 11 29 56v259c0 66 -22 89 -79 89c-43 0 -91 -16 -116 -24v-324c0 -46 4 -49 29 -56l34 -8v-35h-262z" />
    <glyph glyph-name="nacute.pl" horiz-adv-x="634" 
d="M301 575l-22 18l70 147c11 24 26 41 51 41c28 0 56 -24 56 -52c0 -15 -8 -30 -24 -44zM22 0v35l35 9c27 7 32 13 32 55v297c0 42 -5 44 -32 60l-36 21v29l187 22l12 -8l-6 -58h4c53 34 125 66 195 66c94 0 136 -43 136 -133v-296c0 -42 6 -49 32 -55l33 -9v-35h-260v35
l33 8c25 7 29 11 29 56v259c0 66 -22 89 -79 89c-43 0 -91 -16 -116 -24v-324c0 -46 4 -49 29 -56l34 -8v-35h-262z" />
    <glyph glyph-name="obreve" unicode="&#x14f;" horiz-adv-x="594" 
d="M298 -12c-147 0 -267 89 -267 269c0 183 131 272 267 272c145 0 265 -87 265 -267c0 -183 -129 -274 -265 -274zM301 35c76 0 121 51 121 219c0 178 -44 228 -129 228c-77 0 -120 -52 -120 -213c0 -180 41 -234 128 -234zM299 593c-80 0 -135 66 -146 156l37 11
c17 -47 48 -82 108 -82c58 0 90 34 108 82l35 -11c-9 -90 -63 -156 -142 -156z" />
    <glyph glyph-name="ohungarumlaut" unicode="&#x151;" horiz-adv-x="594" 
d="M372 589l-19 21l86 123c14 22 26 31 43 31c22 0 51 -22 51 -47c0 -17 -6 -33 -31 -48zM191 589l-19 21l85 123c13 23 28 31 44 31c20 0 50 -21 50 -47c0 -17 -7 -34 -34 -50zM298 -12c-147 0 -267 89 -267 269c0 183 131 272 267 272c145 0 265 -87 265 -267
c0 -183 -129 -274 -265 -274zM301 35c76 0 121 51 121 219c0 178 -44 228 -129 228c-77 0 -120 -52 -120 -213c0 -180 41 -234 128 -234z" />
    <glyph glyph-name="omacron" unicode="&#x14d;" horiz-adv-x="594" 
d="M151 625v72h291v-72h-291zM298 -12c-147 0 -267 89 -267 269c0 183 131 272 267 272c145 0 265 -87 265 -267c0 -183 -129 -274 -265 -274zM301 35c76 0 121 51 121 219c0 178 -44 228 -129 228c-77 0 -120 -52 -120 -213c0 -180 41 -234 128 -234z" />
    <glyph glyph-name="oacute.pl" horiz-adv-x="594" 
d="M298 -12c-147 0 -267 89 -267 269c0 183 131 272 267 272c145 0 265 -87 265 -267c0 -183 -129 -274 -265 -274zM301 35c76 0 121 51 121 219c0 178 -44 228 -129 228c-77 0 -120 -52 -120 -213c0 -180 41 -234 128 -234zM277 575l-22 18l70 147c11 24 26 41 51 41
c28 0 56 -24 56 -52c0 -15 -8 -30 -24 -44z" />
    <glyph glyph-name="oslashacute" unicode="&#x1ff;" horiz-adv-x="594" 
d="M43 -60l76 106c-54 45 -88 115 -88 211c0 183 131 272 267 272c52 0 100 -11 141 -34l54 76h57l-73 -102c53 -44 86 -113 86 -207c0 -183 -129 -274 -265 -274c-52 0 -100 11 -141 33l-57 -81h-57zM170 258c0 -54 2 -96 9 -127l219 307c-20 35 -54 44 -105 44
c-77 0 -124 -57 -123 -224zM301 35c77 0 124 57 124 229c-1 50 -3 89 -9 120l-218 -307c20 -33 53 -42 103 -42zM206 591l-12 27l150 112c17 13 31 20 47 20c27 0 47 -26 47 -52c0 -20 -10 -42 -41 -51z" />
    <glyph glyph-name="racute" unicode="&#x155;" horiz-adv-x="457" 
d="M165 591l-12 27l150 112c17 13 31 20 47 20c27 0 47 -26 47 -52c0 -20 -10 -42 -41 -51zM22 0v35l35 9c27 7 32 13 32 55v297c0 42 -5 44 -32 60l-36 21v29l187 22l12 -9l-6 -63h4c33 35 96 73 151 73c45 0 72 -24 72 -68c0 -42 -25 -67 -62 -67c-42 0 -54 10 -69 37
c-7 12 -15 15 -25 15c-19 0 -48 -20 -64 -36v-311c0 -45 5 -51 30 -55l43 -9v-35h-272z" />
    <glyph glyph-name="rcaron" unicode="&#x159;" horiz-adv-x="457" 
d="M226 594l-132 147l20 28l142 -82l142 82l20 -28l-131 -147h-61zM22 0v35l35 9c27 7 32 13 32 55v297c0 42 -5 44 -32 60l-36 21v29l187 22l12 -9l-6 -63h4c33 35 96 73 151 73c45 0 72 -24 72 -68c0 -42 -25 -67 -62 -67c-42 0 -54 10 -69 37c-7 12 -15 15 -25 15
c-19 0 -48 -20 -64 -36v-311c0 -45 5 -51 30 -55l43 -9v-35h-272z" />
    <glyph glyph-name="rcommaaccent" unicode="&#x157;" horiz-adv-x="457" 
d="M76 -284l-7 28c74 19 92 51 91 85c-6 -3 -15 -7 -27 -7c-37 0 -58 24 -58 56c0 33 31 60 72 60c46 0 85 -28 85 -84c0 -63 -46 -125 -156 -138zM22 0v35l35 9c27 7 32 13 32 55v297c0 42 -5 44 -32 60l-36 21v29l187 22l12 -9l-6 -63h4c33 35 96 73 151 73
c45 0 72 -24 72 -68c0 -42 -25 -67 -62 -67c-42 0 -54 10 -69 37c-7 12 -15 15 -25 15c-19 0 -48 -20 -64 -36v-311c0 -45 5 -51 30 -55l43 -9v-35h-272z" />
    <glyph glyph-name="sacute" unicode="&#x15b;" horiz-adv-x="444" 
d="M139 591l-12 27l150 112c17 13 31 20 47 20c27 0 47 -26 47 -52c0 -20 -10 -42 -41 -51zM197 -12c-59 0 -117 8 -158 20l-7 152h36c19 -39 28 -59 54 -89c19 -21 43 -36 90 -36c57 0 94 26 94 74c0 50 -36 69 -122 102c-89 34 -148 78 -148 159c0 94 80 159 203 159
c57 0 104 -6 137 -18l4 -135h-34c-19 34 -35 57 -54 81c-15 15 -29 25 -68 25c-57 0 -88 -25 -88 -72c0 -36 30 -59 114 -90c108 -39 164 -82 164 -159c0 -100 -80 -173 -217 -173z" />
    <glyph glyph-name="scedilla" unicode="&#x15f;" horiz-adv-x="444" 
d="M88 -251v31c81 18 114 44 114 71c0 21 -23 35 -73 39l-9 9l46 90c-48 2 -93 9 -127 19l-7 152h36c19 -39 28 -59 54 -89c19 -21 43 -36 90 -36c57 0 94 26 94 74c0 50 -36 69 -122 102c-89 34 -148 78 -148 159c0 94 80 159 203 159c57 0 104 -6 137 -18l4 -135h-34
c-19 34 -35 57 -54 81c-15 15 -29 25 -68 25c-57 0 -88 -25 -88 -72c0 -36 30 -59 114 -90c108 -39 164 -82 164 -159c0 -96 -73 -166 -199 -172l-33 -45c74 -5 107 -36 107 -75c0 -52 -65 -106 -201 -120z" />
    <glyph glyph-name="scircumflex" unicode="&#x15d;" horiz-adv-x="444" 
d="M260 759l132 -147l-20 -28l-142 82l-142 -82l-20 28l131 147h61zM197 -12c-59 0 -117 8 -158 20l-7 152h36c19 -39 28 -59 54 -89c19 -21 43 -36 90 -36c57 0 94 26 94 74c0 50 -36 69 -122 102c-89 34 -148 78 -148 159c0 94 80 159 203 159c57 0 104 -6 137 -18l4 -135
h-34c-19 34 -35 57 -54 81c-15 15 -29 25 -68 25c-57 0 -88 -25 -88 -72c0 -36 30 -59 114 -90c108 -39 164 -82 164 -159c0 -100 -80 -173 -217 -173z" />
    <glyph glyph-name="scommaaccent" unicode="&#x219;" horiz-adv-x="444" 
d="M132 -284l-7 28c74 19 92 51 91 85c-6 -3 -15 -7 -27 -7c-37 0 -58 24 -58 56c0 33 31 60 72 60c46 0 85 -28 85 -84c0 -63 -46 -125 -156 -138zM197 -12c-59 0 -117 8 -158 20l-7 152h36c19 -39 28 -59 54 -89c19 -21 43 -36 90 -36c57 0 94 26 94 74
c0 50 -36 69 -122 102c-89 34 -148 78 -148 159c0 94 80 159 203 159c57 0 104 -6 137 -18l4 -135h-34c-19 34 -35 57 -54 81c-15 15 -29 25 -68 25c-57 0 -88 -25 -88 -72c0 -36 30 -59 114 -90c108 -39 164 -82 164 -159c0 -100 -80 -173 -217 -173z" />
    <glyph glyph-name="sacute.pl" horiz-adv-x="444" 
d="M197 -12c-59 0 -117 8 -158 20l-7 152h36c19 -39 28 -59 54 -89c19 -21 43 -36 90 -36c57 0 94 26 94 74c0 50 -36 69 -122 102c-89 34 -148 78 -148 159c0 94 80 159 203 159c57 0 104 -6 137 -18l4 -135h-34c-19 34 -35 57 -54 81c-15 15 -29 25 -68 25
c-57 0 -88 -25 -88 -72c0 -36 30 -59 114 -90c108 -39 164 -82 164 -159c0 -100 -80 -173 -217 -173zM210 575l-22 18l70 147c11 24 26 41 51 41c28 0 56 -24 56 -52c0 -15 -8 -30 -24 -44z" />
    <glyph glyph-name="tbar" unicode="&#x167;" horiz-adv-x="366" 
d="M9 310v48h67v94h-67v32c75 24 116 77 144 161h56v-130h141l-15 -63h-126v-94h135v-48h-135v-185c0 -47 19 -66 68 -66c26 0 57 7 76 12v-36c-21 -22 -70 -47 -147 -47s-130 35 -130 122v200h-67z" />
    <glyph glyph-name="tcaron" unicode="&#x165;" horiz-adv-x="366" 
d="M299 567l-25 7l7 139c2 29 13 52 48 52c28 0 50 -18 50 -44c0 -10 -2 -21 -11 -36zM206 -12c-77 0 -130 35 -130 122v342h-67v32c75 24 116 77 144 161h56v-130h141l-15 -63h-126v-327c0 -47 19 -66 68 -66c26 0 57 7 76 12v-36c-21 -22 -70 -47 -147 -47z" />
    <glyph glyph-name="tcommaaccent" unicode="&#x163;" horiz-adv-x="366" 
d="M113 -284l-7 28c74 19 92 51 91 85c-6 -3 -15 -7 -27 -7c-37 0 -58 24 -58 56c0 33 31 60 72 60c46 0 85 -28 85 -84c0 -63 -46 -125 -156 -138zM206 -12c-77 0 -130 35 -130 122v342h-67v32c75 24 116 77 144 161h56v-130h141l-15 -63h-126v-327c0 -47 19 -66 68 -66
c26 0 57 7 76 12v-36c-21 -22 -70 -47 -147 -47z" />
    <glyph glyph-name="ubreve" unicode="&#x16d;" horiz-adv-x="630" 
d="M221 -12c-83 0 -135 45 -135 132v284c0 39 -3 42 -29 55l-39 19v30l184 20l16 -11v-365c0 -58 25 -84 78 -84c43 0 87 18 118 30v306c0 39 -3 42 -30 55l-37 19v30l184 20l15 -11v-393c0 -47 4 -53 32 -64l33 -15v-32l-183 -25l-13 9l6 63h-4c-54 -37 -121 -72 -196 -72z
M321 593c-80 0 -135 66 -146 156l37 11c17 -47 48 -82 108 -82c58 0 90 34 108 82l35 -11c-9 -90 -63 -156 -142 -156z" />
    <glyph glyph-name="uhungarumlaut" unicode="&#x171;" horiz-adv-x="630" 
d="M221 -12c-83 0 -135 45 -135 132v284c0 39 -3 42 -29 55l-39 19v30l184 20l16 -11v-365c0 -58 25 -84 78 -84c43 0 87 18 118 30v306c0 39 -3 42 -30 55l-37 19v30l184 20l15 -11v-393c0 -47 4 -53 32 -64l33 -15v-32l-183 -25l-13 9l6 63h-4c-54 -37 -121 -72 -196 -72z
M395 589l-19 21l86 123c14 22 26 31 43 31c22 0 51 -22 51 -47c0 -17 -6 -33 -31 -48zM214 589l-19 21l85 123c13 23 28 31 44 31c20 0 50 -21 50 -47c0 -17 -7 -34 -34 -50z" />
    <glyph glyph-name="umacron" unicode="&#x16b;" horiz-adv-x="630" 
d="M221 -12c-83 0 -135 45 -135 132v284c0 39 -3 42 -29 55l-39 19v30l184 20l16 -11v-365c0 -58 25 -84 78 -84c43 0 87 18 118 30v306c0 39 -3 42 -30 55l-37 19v30l184 20l15 -11v-393c0 -47 4 -53 32 -64l33 -15v-32l-183 -25l-13 9l6 63h-4c-54 -37 -121 -72 -196 -72z
M174 625v72h291v-72h-291z" />
    <glyph glyph-name="uogonek" unicode="&#x173;" horiz-adv-x="630" 
d="M417 -225c-67 0 -111 34 -111 88c0 59 56 102 110 132l5 65h-4c-54 -37 -121 -72 -196 -72c-83 0 -135 45 -135 132v284c0 39 -3 42 -29 55l-39 19v30l184 20l16 -11v-365c0 -58 25 -84 78 -84c43 0 87 18 118 30v306c0 39 -3 42 -30 55l-37 19v30l184 20l15 -11v-393
c0 -47 4 -53 32 -64l33 -15v-32l-47 -6c-113 -14 -151 -71 -151 -121c0 -24 9 -40 30 -46c16 -4 36 -4 64 -3v-34c-16 -12 -43 -28 -90 -28z" />
    <glyph glyph-name="uring" unicode="&#x16f;" horiz-adv-x="630" 
d="M320 586c-64 0 -109 46 -109 103c0 59 47 105 109 105s109 -45 109 -105c0 -57 -47 -103 -109 -103zM320 628c35 0 57 26 57 61c0 36 -22 62 -57 62s-58 -26 -58 -62c0 -35 23 -61 58 -61zM221 -12c-83 0 -135 45 -135 132v284c0 39 -3 42 -29 55l-39 19v30l184 20
l16 -11v-365c0 -58 25 -84 78 -84c43 0 87 18 118 30v306c0 39 -3 42 -30 55l-37 19v30l184 20l15 -11v-393c0 -47 4 -53 32 -64l33 -15v-32l-183 -25l-13 9l6 63h-4c-54 -37 -121 -72 -196 -72z" />
    <glyph glyph-name="utilde" unicode="&#x169;" horiz-adv-x="630" 
d="M221 -12c-83 0 -135 45 -135 132v284c0 39 -3 42 -29 55l-39 19v30l184 20l16 -11v-365c0 -58 25 -84 78 -84c43 0 87 18 118 30v306c0 39 -3 42 -30 55l-37 19v30l184 20l15 -11v-393c0 -47 4 -53 32 -64l33 -15v-32l-183 -25l-13 9l6 63h-4c-54 -37 -121 -72 -196 -72z
M185 584l-36 16c29 86 58 133 103 133c48 0 111 -40 143 -40c24 0 38 24 60 65l36 -16c-29 -85 -56 -133 -102 -133c-48 0 -111 40 -144 40c-24 0 -37 -24 -60 -65z" />
    <glyph glyph-name="wacute" unicode="&#x1e83;" horiz-adv-x="838" 
d="M352 591l-12 27l150 112c17 13 31 20 47 20c27 0 47 -26 47 -52c0 -20 -10 -42 -41 -51zM228 0l-146 400c-19 52 -29 64 -57 73l-23 7v35h257v-35l-24 -6c-20 -5 -28 -15 -28 -32c0 -13 7 -32 16 -58l80 -245h6l85 241l-6 20c-15 47 -29 67 -52 73l-22 7v35h249v-35
l-28 -7c-19 -5 -26 -17 -26 -35c0 -13 5 -31 13 -54l84 -245h5l78 245c9 26 12 43 12 55c0 18 -7 29 -28 34l-29 7v35h191v-35l-23 -7c-28 -7 -37 -25 -58 -83l-142 -390h-81l-107 311h-3l-113 -311h-80z" />
    <glyph glyph-name="wcircumflex" unicode="&#x175;" horiz-adv-x="838" 
d="M473 759l132 -147l-20 -28l-142 82l-142 -82l-20 28l131 147h61zM228 0l-146 400c-19 52 -29 64 -57 73l-23 7v35h257v-35l-24 -6c-20 -5 -28 -15 -28 -32c0 -13 7 -32 16 -58l80 -245h6l85 241l-6 20c-15 47 -29 67 -52 73l-22 7v35h249v-35l-28 -7
c-19 -5 -26 -17 -26 -35c0 -13 5 -31 13 -54l84 -245h5l78 245c9 26 12 43 12 55c0 18 -7 29 -28 34l-29 7v35h191v-35l-23 -7c-28 -7 -37 -25 -58 -83l-142 -390h-81l-107 311h-3l-113 -311h-80z" />
    <glyph glyph-name="wdieresis" unicode="&#x1e85;" horiz-adv-x="838" 
d="M335 606c-42 0 -77 33 -77 73c0 41 35 73 77 73s77 -32 77 -73c0 -40 -35 -73 -77 -73zM551 606c-43 0 -77 33 -77 73c0 41 34 73 77 73c42 0 76 -32 76 -73c0 -40 -34 -73 -76 -73zM228 0l-146 400c-19 52 -29 64 -57 73l-23 7v35h257v-35l-24 -6
c-20 -5 -28 -15 -28 -32c0 -13 7 -32 16 -58l80 -245h6l85 241l-6 20c-15 47 -29 67 -52 73l-22 7v35h249v-35l-28 -7c-19 -5 -26 -17 -26 -35c0 -13 5 -31 13 -54l84 -245h5l78 245c9 26 12 43 12 55c0 18 -7 29 -28 34l-29 7v35h191v-35l-23 -7c-28 -7 -37 -25 -58 -83
l-142 -390h-81l-107 311h-3l-113 -311h-80z" />
    <glyph glyph-name="wgrave" unicode="&#x1e81;" horiz-adv-x="838" 
d="M228 0l-146 400c-19 52 -29 64 -57 73l-23 7v35h257v-35l-24 -6c-20 -5 -28 -15 -28 -32c0 -13 7 -32 16 -58l80 -245h6l85 241l-6 20c-15 47 -29 67 -52 73l-22 7v35h249v-35l-28 -7c-19 -5 -26 -17 -26 -35c0 -13 5 -31 13 -54l84 -245h5l78 245c9 26 12 43 12 55
c0 18 -7 29 -28 34l-29 7v35h191v-35l-23 -7c-28 -7 -37 -25 -58 -83l-142 -390h-81l-107 311h-3l-113 -311h-80zM531 591l-192 56c-30 9 -42 31 -42 51c0 26 21 52 48 52c16 0 31 -7 47 -20l151 -112z" />
    <glyph glyph-name="ycircumflex" unicode="&#x177;" horiz-adv-x="563" 
d="M119 -224c-65 0 -96 34 -96 73c0 35 20 60 55 60c38 0 53 -16 62 -45c6 -15 9 -21 17 -21c23 0 51 27 83 100l19 47l-180 410c-26 59 -30 65 -55 73l-21 7v35h265v-35l-27 -7c-22 -5 -31 -14 -31 -34c0 -14 5 -32 15 -55l100 -239h4l90 239c9 25 11 45 11 59
c0 18 -10 25 -29 30l-29 7v35h194v-35l-25 -7c-26 -8 -31 -22 -56 -83l-188 -451c-43 -104 -93 -163 -178 -163zM347 759l132 -147l-20 -28l-142 82l-142 -82l-20 28l131 147h61z" />
    <glyph glyph-name="ygrave" unicode="&#x1ef3;" horiz-adv-x="563" 
d="M119 -224c-65 0 -96 34 -96 73c0 35 20 60 55 60c38 0 53 -16 62 -45c6 -15 9 -21 17 -21c23 0 51 27 83 100l19 47l-180 410c-26 59 -30 65 -55 73l-21 7v35h265v-35l-27 -7c-22 -5 -31 -14 -31 -34c0 -14 5 -32 15 -55l100 -239h4l90 239c9 25 11 45 11 59
c0 18 -10 25 -29 30l-29 7v35h194v-35l-25 -7c-26 -8 -31 -22 -56 -83l-188 -451c-43 -104 -93 -163 -178 -163zM405 591l-192 56c-30 9 -42 31 -42 51c0 26 21 52 48 52c16 0 31 -7 47 -20l151 -112z" />
    <glyph glyph-name="zacute" unicode="&#x17a;" horiz-adv-x="499" 
d="M172 591l-12 27l150 112c17 13 31 20 47 20c27 0 47 -26 47 -52c0 -20 -10 -42 -41 -51zM23 0v43l304 422v4h-62c-79 0 -98 -6 -118 -31c-22 -30 -36 -56 -61 -103h-35l9 180h416v-41l-305 -424v-4h58c103 0 122 11 146 42c24 32 41 63 58 100h37l-14 -188h-433z" />
    <glyph glyph-name="zacute.pl" horiz-adv-x="499" 
d="M249 575l-22 18l70 147c11 24 26 41 51 41c28 0 56 -24 56 -52c0 -15 -8 -30 -24 -44zM23 0v43l304 422v4h-62c-79 0 -98 -6 -118 -31c-22 -30 -36 -56 -61 -103h-35l9 180h416v-41l-305 -424v-4h58c103 0 122 11 146 42c24 32 41 63 58 100h37l-14 -188h-433z" />
    <glyph glyph-name="zdotaccent" unicode="&#x17c;" horiz-adv-x="499" 
d="M23 0v43l304 422v4h-62c-79 0 -98 -6 -118 -31c-22 -30 -36 -56 -61 -103h-35l9 180h416v-41l-305 -424v-4h58c103 0 122 11 146 42c24 32 41 63 58 100h37l-14 -188h-433zM264 603c-46 0 -83 35 -83 77c0 44 37 77 83 77c45 0 82 -33 82 -77c0 -42 -37 -77 -82 -77z" />
    <glyph glyph-name="oneeighth" unicode="&#x215b;" horiz-adv-x="839" 
d="M25 266v30l28 5c27 6 31 8 31 46v240l-60 3v34c67 12 117 41 152 80l22 -7v-350c0 -38 6 -42 31 -46l27 -5v-30h-231zM639 -112c-100 0 -176 39 -176 107c0 45 38 85 95 108v3c-49 22 -73 56 -73 102c0 78 75 124 159 124c79 0 153 -33 153 -100c0 -39 -38 -76 -83 -94
v-4c69 -29 99 -61 99 -115c0 -73 -71 -131 -174 -131zM681 152c14 17 32 40 32 75c0 50 -30 69 -75 69c-43 0 -70 -23 -70 -57c0 -35 29 -54 113 -87zM646 -77c49 0 82 23 82 64c0 40 -36 58 -139 99c-18 -19 -36 -44 -36 -77c0 -61 33 -86 93 -86zM135 -50l504 764h68
l-505 -764h-67z" />
    <glyph glyph-name="onethird" unicode="&#x2153;" horiz-adv-x="842" 
d="M25 266v30l28 5c27 6 31 8 31 46v240l-60 3v34c67 12 117 41 152 80l22 -7v-350c0 -38 6 -42 31 -46l27 -5v-30h-231zM627 -112c-91 0 -143 32 -143 78c0 26 18 47 45 47c31 0 49 -15 56 -54c7 -28 11 -34 43 -34c50 0 73 29 73 89c0 70 -30 83 -86 83h-32v43h29
c54 0 79 17 79 81c0 58 -24 74 -59 74c-26 0 -32 -7 -35 -28c-5 -33 -15 -51 -52 -51c-27 0 -45 16 -45 42c0 45 62 74 145 74c94 0 148 -38 148 -103c0 -46 -34 -89 -113 -104v-2c75 -7 131 -39 131 -109c0 -71 -52 -126 -184 -126zM138 -50l505 764h68l-505 -764h-68z" />
    <glyph glyph-name="threeeighths" unicode="&#x215c;" horiz-adv-x="846" 
d="M163 258c-92 0 -144 31 -144 78c0 25 19 47 45 47c32 0 50 -16 57 -55c6 -27 10 -33 43 -33c50 0 73 28 73 89c0 70 -31 82 -86 82h-32v43h28c55 0 79 17 79 81c0 59 -23 74 -59 74c-25 0 -32 -6 -35 -27c-5 -34 -15 -52 -51 -52c-27 0 -45 17 -45 42c0 46 61 74 144 74
c95 0 149 -37 149 -102c0 -47 -35 -91 -113 -105v-2c74 -6 130 -38 130 -109s-52 -125 -183 -125zM646 -112c-101 0 -176 39 -176 107c0 45 38 85 95 108v3c-49 22 -73 56 -73 102c0 78 74 124 158 124c79 0 153 -33 153 -100c0 -39 -38 -76 -82 -94v-4
c68 -29 99 -61 99 -115c0 -73 -71 -131 -174 -131zM687 152c15 17 33 40 33 75c0 50 -30 69 -75 69c-43 0 -71 -23 -71 -57c0 -35 29 -54 113 -87zM653 -77c48 0 81 23 81 64c0 40 -36 58 -138 99c-19 -19 -36 -44 -36 -77c0 -61 32 -86 93 -86zM159 -50l504 764h68
l-505 -764h-67z" />
    <glyph glyph-name="fiveeighths" unicode="&#x215d;" horiz-adv-x="848" 
d="M151 258c-86 0 -131 33 -131 76c0 28 21 41 47 41c35 0 48 -14 54 -52c5 -25 10 -28 40 -28c55 0 82 29 82 76c0 63 -47 89 -113 89c-31 0 -55 -6 -70 -12l-9 7l27 238l175 -1c23 0 26 6 41 37h30l-14 -112h-197l-11 -84c15 5 31 10 70 10c95 0 164 -43 164 -136
c0 -82 -70 -149 -185 -149zM648 -112c-100 0 -176 39 -176 107c0 45 38 85 95 108v3c-49 22 -73 56 -73 102c0 78 75 124 159 124c79 0 153 -33 153 -100c0 -39 -38 -76 -83 -94v-4c69 -29 99 -61 99 -115c0 -73 -71 -131 -174 -131zM690 152c14 17 32 40 32 75
c0 50 -30 69 -75 69c-43 0 -70 -23 -70 -57c0 -35 29 -54 113 -87zM655 -77c49 0 82 23 82 64c0 40 -36 58 -139 99c-18 -19 -36 -44 -36 -77c0 -61 33 -86 93 -86zM151 -50l504 764h68l-505 -764h-67z" />
    <glyph glyph-name="twothirds" unicode="&#x2154;" horiz-adv-x="881" 
d="M23 266v52c59 44 98 78 137 119c44 45 74 89 74 152s-26 75 -67 75c-27 0 -31 -9 -35 -32c-5 -41 -17 -59 -55 -59c-29 0 -49 23 -49 47c0 42 58 81 150 81c100 0 164 -41 164 -124c0 -78 -88 -154 -226 -229v-3h140c32 0 38 8 57 53h29l-9 -132h-310zM666 -112
c-91 0 -143 32 -143 78c0 26 18 47 45 47c31 0 49 -15 56 -54c7 -28 11 -34 43 -34c50 0 73 29 73 89c0 70 -30 83 -86 83h-32v43h29c54 0 79 17 79 81c0 58 -24 74 -59 74c-26 0 -32 -7 -35 -28c-5 -33 -15 -51 -52 -51c-27 0 -45 16 -45 42c0 45 62 74 145 74
c94 0 148 -38 148 -103c0 -46 -34 -89 -113 -104v-2c75 -7 131 -39 131 -109c0 -71 -52 -126 -184 -126zM186 -50l504 764h68l-505 -764h-67z" />
    <glyph glyph-name="seveneighths" unicode="&#x215e;" horiz-adv-x="837" 
d="M637 -112c-100 0 -176 39 -176 107c0 45 38 85 95 108v3c-49 22 -73 56 -73 102c0 78 75 124 158 124c80 0 154 -33 154 -100c0 -39 -38 -76 -83 -94v-4c68 -29 99 -61 99 -115c0 -73 -71 -131 -174 -131zM678 152c15 17 33 40 33 75c0 50 -30 69 -75 69
c-43 0 -70 -23 -70 -57c0 -35 28 -54 112 -87zM644 -77c48 0 81 23 81 64c0 40 -35 58 -138 99c-19 -19 -36 -44 -36 -77c0 -61 32 -86 93 -86zM84 266c34 147 108 254 193 349h-170c-27 0 -31 -5 -49 -52h-33l15 130h301v-48c-87 -118 -122 -234 -136 -379h-121zM121 -50
l504 764h68l-505 -764h-67z" />
    <glyph glyph-name="uni24C5" unicode="&#x24c5;" horiz-adv-x="814" 
d="M406 -14c-205 0 -361 161 -361 358s156 356 361 356c204 0 363 -159 363 -356s-159 -358 -363 -358zM406 26c184 0 316 143 316 318s-132 316 -316 316c-185 0 -313 -141 -313 -316s128 -318 313 -318zM380 492v-264c0 -32 4 -35 23 -38l29 -5v-28h-194v28l21 4
c18 3 22 6 22 39v233c0 34 -4 35 -21 39l-22 5v27h191c106 0 159 -39 159 -116c0 -76 -53 -118 -128 -118c-25 0 -46 5 -53 9v24c56 -1 80 20 80 82c0 63 -20 84 -68 84c-18 0 -35 -3 -39 -5z" />
    <glyph glyph-name="dollar.old" horiz-adv-x="508" 
d="M222 -123v112c-145 4 -205 55 -205 121c0 34 24 56 57 56c40 0 60 -15 68 -80c4 -34 15 -50 80 -53v248c-137 55 -185 115 -185 203c0 95 77 169 189 182v84h50v-83c124 -4 186 -58 186 -111c0 -35 -24 -58 -58 -58c-43 0 -61 23 -66 80c-3 32 -17 42 -62 44v-228
c146 -61 197 -117 197 -211c0 -104 -83 -183 -202 -194v-112h-49zM367 140c0 51 -23 86 -96 120v-226c67 8 96 49 96 106zM136 530c0 -52 22 -81 90 -114v205c-59 -8 -90 -42 -90 -91z" />
    <glyph glyph-name="Euro.old" 
d="M10 372v50h99c33 173 157 248 284 248c102 0 179 -38 179 -107c0 -32 -17 -60 -60 -60s-64 20 -72 79c-4 38 -20 44 -63 44c-77 0 -129 -61 -142 -204h214l-9 -50h-208v-26c0 -22 0 -42 1 -60h192l-8 -51h-179c19 -129 75 -177 179 -177c66 0 110 21 148 43v-42
c-34 -33 -99 -71 -197 -71c-139 0 -237 80 -262 247h-96v51h91c-1 12 -1 24 -1 37c0 17 0 33 2 49h-92z" />
    <glyph glyph-name="sterling.old" horiz-adv-x="525" 
d="M47 315v50h61c-9 37 -16 76 -16 109c0 114 87 196 234 196c100 0 166 -36 166 -93c0 -39 -24 -62 -59 -62c-39 0 -57 23 -69 70c-9 37 -17 43 -47 43c-54 0 -91 -31 -91 -125c0 -36 4 -89 7 -138h157v-50h-154c1 -12 1 -24 1 -33c0 -79 -43 -131 -117 -178v-5h261
c38 0 50 7 80 74h32l-24 -173h-444v78c73 44 109 81 109 152c0 23 -6 53 -14 85h-73z" />
    <glyph glyph-name="yen.old" horiz-adv-x="599" 
d="M63 285v49h154l-114 201c-33 58 -45 76 -72 83l-21 6v34h285v-34l-27 -5c-30 -6 -36 -18 -36 -36c0 -13 6 -31 18 -53l92 -176h4l82 172c13 29 18 43 18 58c0 18 -12 27 -39 34l-22 6v34h198v-34l-20 -6c-30 -9 -42 -27 -76 -95l-96 -189h154v-49h-174v-86h174v-49h-174
v-45c0 -52 4 -56 34 -63l41 -7v-35h-282v35l41 7c29 6 36 11 36 63v45h-178v49h178v86h-178z" />
    <glyph glyph-name="zero.old" horiz-adv-x="619" 
d="M307 -12c-137 0 -269 86 -269 293c0 217 152 310 273 310c134 0 270 -86 270 -296c0 -213 -145 -307 -274 -307zM311 34c91 0 130 75 130 245c0 189 -41 265 -132 265c-87 0 -132 -72 -132 -247c0 -186 42 -263 134 -263z" />
    <glyph glyph-name="one.old" horiz-adv-x="378" 
d="M34 0v35l56 8c29 4 37 10 37 52v355l-93 4v37c91 20 145 48 197 100l29 -4v-492c0 -42 6 -48 35 -52l51 -8v-35h-312z" />
    <glyph glyph-name="two.old" horiz-adv-x="510" 
d="M473 92l-14 -92h-436v58c69 51 143 106 210 171c67 66 98 126 98 196c0 95 -46 122 -102 122c-45 0 -56 -12 -59 -42c-4 -53 -26 -77 -69 -77c-41 0 -62 25 -62 61c0 52 64 102 198 102c136 0 229 -60 229 -172c0 -127 -145 -225 -325 -324v-3h332z" />
    <glyph glyph-name="three.old" horiz-adv-x="532" 
d="M222 -123c-127 0 -199 43 -199 109c0 31 20 58 59 58c36 0 58 -17 68 -59c13 -52 17 -65 76 -65c85 0 131 59 131 168c0 98 -43 137 -140 137h-55v50h45c92 0 130 44 130 140c0 91 -41 132 -109 132c-40 0 -52 -13 -56 -48c-5 -52 -26 -71 -65 -71c-41 0 -60 27 -60 57
c0 65 89 106 198 106c141 0 221 -70 221 -165c0 -73 -49 -142 -169 -168v-3c121 -11 196 -66 196 -172c0 -108 -90 -206 -271 -206z" />
    <glyph glyph-name="four.old" horiz-adv-x="578" 
d="M450 -112h-128v178h-304v50l358 471h74v-454h106l-11 -67h-95v-178zM97 133h225v297h-3l-222 -294v-3z" />
    <glyph glyph-name="five.old" horiz-adv-x="521" 
d="M472 578l-12 -101h-304l-19 -159c23 6 54 13 98 13c133 0 252 -66 252 -215c0 -143 -120 -239 -268 -239c-110 0 -187 43 -187 107c0 28 19 58 60 58c40 0 59 -17 68 -70c7 -42 19 -52 65 -52c97 0 149 58 149 156c0 107 -78 146 -177 146c-50 0 -92 -7 -115 -16l-8 7
l42 365h356z" />
    <glyph glyph-name="six.old" horiz-adv-x="584" 
d="M302 -12c-148 0 -262 106 -262 314c0 287 173 403 337 403c101 0 161 -35 161 -90c0 -37 -22 -59 -60 -59c-42 0 -61 20 -70 68c-4 23 -15 37 -51 37c-79 0 -169 -78 -178 -294c39 30 89 54 159 54c125 0 212 -75 212 -208c0 -137 -109 -225 -248 -225zM304 34
c82 0 111 52 111 167c0 114 -41 163 -120 163c-46 0 -86 -16 -117 -37c-1 -15 -1 -5 -1 -23c0 -157 19 -270 127 -270z" />
    <glyph glyph-name="seven.old" horiz-adv-x="515" 
d="M118 -112c54 256 174 428 302 584h-291c-39 0 -43 -10 -70 -77h-32l19 183h452v-62c-138 -193 -204 -370 -237 -628h-143z" />
    <glyph glyph-name="eight.old" horiz-adv-x="559" 
d="M277 -12c-126 0 -245 57 -245 175c0 76 68 139 153 180v3c-78 43 -123 94 -123 167c0 111 102 192 224 192c118 0 214 -59 214 -160c0 -69 -51 -121 -132 -163v-4c100 -53 159 -100 159 -189c0 -109 -100 -201 -250 -201zM285 34c84 0 137 47 137 114
c0 77 -86 115 -205 176c-34 -31 -82 -76 -82 -151c0 -91 58 -139 150 -139zM332 403c32 32 70 77 70 138c0 78 -45 117 -121 117c-75 0 -119 -44 -119 -101c0 -66 78 -109 170 -154z" />
    <glyph glyph-name="nine.old" horiz-adv-x="582" 
d="M278 591c149 0 265 -105 265 -313c0 -284 -149 -401 -333 -401c-95 0 -162 33 -162 91c0 34 20 58 61 58c40 0 58 -18 68 -67c5 -22 14 -40 54 -40c99 0 162 75 173 292c-44 -31 -95 -54 -162 -54c-125 0 -209 77 -209 213c0 129 98 221 245 221zM276 545
c-81 0 -107 -54 -107 -164c0 -114 39 -166 118 -166c47 0 84 16 118 37v24c0 157 -18 269 -129 269z" />
    <glyph glyph-name="percent.old" horiz-adv-x="816" 
d="M201 320c-80 0 -168 53 -168 169c0 126 100 180 171 180c76 0 167 -55 167 -172c0 -122 -97 -177 -170 -177zM115 -49l504 727h64l-505 -727h-63zM612 -13c-80 0 -167 53 -167 169c0 125 99 180 170 180c76 0 167 -55 167 -172c0 -123 -97 -177 -170 -177zM202 358
c47 0 70 38 70 130c0 104 -24 142 -70 142c-44 0 -70 -36 -70 -132c0 -99 24 -140 70 -140zM614 26c47 0 69 38 69 129c0 104 -24 142 -69 142c-44 0 -70 -36 -70 -132c0 -100 23 -139 70 -139z" />
    <glyph glyph-name="perthousand.old" horiz-adv-x="1203" 
d="M201 320c-80 0 -168 53 -168 169c0 126 100 180 171 180c76 0 167 -55 167 -172c0 -122 -97 -177 -170 -177zM115 -49l504 727h64l-505 -727h-63zM612 -13c-80 0 -167 53 -167 169c0 125 99 180 170 180c76 0 167 -55 167 -172c0 -123 -97 -177 -170 -177zM202 358
c47 0 70 38 70 130c0 104 -24 142 -70 142c-44 0 -70 -36 -70 -132c0 -99 24 -140 70 -140zM614 26c47 0 69 38 69 129c0 104 -24 142 -69 142c-44 0 -70 -36 -70 -132c0 -100 23 -139 70 -139zM999 -13c-80 0 -168 53 -168 169c0 125 100 180 171 180
c76 0 167 -55 167 -172c0 -123 -97 -177 -170 -177zM1000 26c48 0 70 38 70 129c0 104 -24 142 -70 142c-44 0 -69 -36 -69 -132c0 -100 23 -139 69 -139z" />
    <glyph glyph-name="plus.old" horiz-adv-x="487" 
d="M208 91v176h-164v62h164v177h72v-177h163v-62h-163v-176h-72z" />
    <glyph glyph-name="minus.old" horiz-adv-x="487" 
d="M44 267v62h399v-62h-399z" />
    <glyph glyph-name="multiply.old" horiz-adv-x="461" 
d="M91 101l-47 45l142 145l-139 143l49 45l135 -142l139 142l45 -44l-139 -143l141 -145l-47 -46l-141 144z" />
    <glyph glyph-name="divide.old" horiz-adv-x="487" 
d="M243 402c-40 0 -72 32 -72 71c0 40 32 72 72 72c41 0 74 -32 74 -72c0 -39 -33 -71 -74 -71zM44 267v62h399v-62h-399zM243 50c-40 0 -72 33 -72 73c0 39 32 71 72 71c41 0 74 -32 74 -71c0 -40 -33 -73 -74 -73z" />
    <glyph glyph-name="equal.old" horiz-adv-x="529" 
d="M44 343v63h441v-63h-441zM44 175v62h441v-62h-441z" />
    <glyph glyph-name="less.old" horiz-adv-x="487" 
d="M439 77l-391 174v73l391 173v-69l-328 -140l328 -141v-70z" />
    <glyph glyph-name="greater.old" horiz-adv-x="487" 
d="M439 251l-391 -174v70l328 140l-328 141v69l391 -173v-73z" />
    <glyph glyph-name="plusminus.old" horiz-adv-x="487" 
d="M44 0v63h399v-63h-399zM208 156v162h-164v62h164v162h72v-162h163v-62h-163v-162h-72z" />
    <glyph glyph-name="notequal.old" horiz-adv-x="529" 
d="M44 344v61h250l72 131h63l-72 -131h128v-61h-162l-58 -107h220v-61h-254l-71 -131h-62l71 131h-125v61h159l58 107h-217z" />
    <glyph glyph-name="approxequal.old" horiz-adv-x="533" 
d="M441 449l50 -23c-28 -60 -59 -105 -122 -105c-60 0 -152 45 -202 45c-32 0 -54 -32 -66 -65l-50 24c20 55 58 103 120 103c58 0 149 -45 201 -45c33 0 52 30 69 66zM441 288l50 -23c-28 -60 -59 -105 -122 -105c-60 0 -152 45 -202 45c-32 0 -54 -32 -66 -64l-50 24
c20 55 58 102 120 102c58 0 149 -45 201 -45c33 0 52 31 69 66z" />
    <glyph glyph-name="lessequal.old" horiz-adv-x="487" 
d="M439 128l-391 158v73l391 158v-70l-328 -124l328 -125v-70zM48 0v63h391v-63h-391z" />
    <glyph glyph-name="greaterequal.old" horiz-adv-x="487" 
d="M439 286l-391 -158v70l328 125l-328 124v70l391 -158v-73zM439 63v-63h-391v63h391z" />
    <glyph glyph-name="numbersign.old" horiz-adv-x="530" 
d="M85 0l37 177h-85l15 87h87l26 133h-82l15 88h87l35 173h57l-35 -173h109l36 173h56l-35 -173h85l-15 -88h-88l-28 -133h85l-14 -87h-89l-36 -177h-56l36 177h-111l-35 -177h-57zM196 264h109l28 133h-110z" />
    <glyph glyph-name="dollar.tab" 
d="M266 -150v139c-149 5 -214 60 -214 129c0 38 29 57 61 57c43 0 61 -13 68 -85c4 -39 17 -54 85 -57v261c-144 59 -192 120 -192 215c0 100 80 178 196 191v92h53v-91c137 -5 194 -61 194 -114c0 -34 -26 -62 -61 -62c-51 0 -62 23 -68 84c-4 34 -19 46 -65 48v-240
c153 -65 206 -123 206 -224c0 -110 -87 -193 -211 -204v-139h-52zM416 146c0 53 -23 90 -98 126v-238c68 8 98 49 98 112zM178 559c0 -53 22 -85 92 -119v216c-60 -9 -92 -44 -92 -97z" />
    <glyph glyph-name="Euro.tab" 
d="M30 390v52h76c34 184 163 263 288 263c105 0 175 -40 175 -112c0 -33 -21 -63 -63 -63c-45 0 -67 23 -74 83c-4 37 -15 47 -54 47c-73 0 -126 -62 -138 -218h199l-9 -52h-193v-26c0 -23 0 -45 1 -65h175l-8 -52h-162c16 -138 67 -186 165 -186c67 0 111 21 151 44v-43
c-35 -33 -97 -74 -202 -74c-134 0 -230 83 -254 259h-73v52h68c-1 13 -1 27 -1 41c0 17 0 34 2 50h-69z" />
    <glyph glyph-name="sterling.tab" 
d="M72 332v52h64c-10 40 -18 80 -18 115c0 122 98 206 249 206c109 0 175 -37 175 -98c0 -43 -29 -66 -63 -66c-45 0 -61 26 -74 75c-11 42 -15 45 -48 45c-55 0 -93 -30 -93 -131c0 -38 4 -95 7 -146h162v-52h-159c1 -12 1 -24 1 -33c0 -84 -46 -139 -124 -188v-5h272
c42 0 54 7 85 78h34l-25 -184h-468v82c77 46 115 85 115 160c0 24 -7 56 -15 90h-77z" />
    <glyph glyph-name="yen.tab" 
d="M60 300v51h161l-111 213c-32 61 -45 79 -70 87l-21 7v35h293v-35l-26 -5c-29 -7 -39 -19 -39 -39c0 -14 7 -31 18 -56l84 -184h4l77 180c13 30 17 46 17 61c0 20 -10 29 -38 37l-23 6v35h196v-35l-18 -6c-31 -10 -45 -28 -78 -101l-92 -200h160v-51h-177v-92h177v-51
h-177v-47c0 -55 5 -59 37 -66l43 -8v-36h-295v36l43 8c32 7 38 11 38 66v47h-183v51h183v92h-183z" />
    <glyph glyph-name="zero.tab" 
d="M297 -12c-122 0 -260 102 -260 348c0 265 155 369 264 369c119 0 262 -105 262 -353c0 -258 -149 -364 -266 -364zM299 37c88 0 119 84 119 299c0 237 -34 320 -119 320c-81 0 -117 -77 -117 -303c0 -229 32 -316 117 -316z" />
    <glyph glyph-name="one.tab" 
d="M115 0v36l72 10c35 5 45 13 45 69v427l-116 5v38c97 19 175 60 226 117l33 -8v-579c0 -56 7 -64 43 -69l69 -10v-36h-372z" />
    <glyph glyph-name="two.tab" 
d="M54 0v69c87 69 158 134 212 194c75 83 117 143 117 257c0 106 -46 141 -105 141c-51 0 -63 -14 -65 -48c-5 -62 -28 -87 -76 -87c-44 0 -66 26 -66 65c0 59 73 114 220 114c138 0 240 -66 240 -200c0 -144 -170 -275 -355 -392v-5h231c53 0 61 9 95 79h33l-15 -187h-466z
" />
    <glyph glyph-name="three.tab" 
d="M248 -12c-132 0 -205 41 -205 110c0 34 22 63 64 63c40 0 63 -14 73 -66c13 -51 13 -63 70 -63c91 0 123 68 123 163c0 99 -38 140 -136 140h-52v51h43c92 0 129 41 129 141c0 91 -37 134 -102 134c-36 0 -48 -6 -51 -44c-7 -59 -25 -79 -72 -79c-43 0 -63 28 -63 60
c0 69 94 107 203 107c145 0 228 -68 228 -166c0 -76 -52 -144 -179 -170v-4c125 -11 204 -68 204 -174c0 -108 -89 -203 -277 -203z" />
    <glyph glyph-name="four.tab" 
d="M236 0v36l42 8c29 6 37 11 37 66v84h-271v52l327 447h79v-431h99l-11 -68h-88v-84c0 -55 5 -60 38 -66l42 -8v-36h-294zM119 262h196v271h-3l-193 -268v-3z" />
    <glyph glyph-name="five.tab" 
d="M256 -12c-117 0 -194 43 -194 109c0 31 22 62 65 62s67 -14 75 -76c6 -41 13 -51 61 -51c98 0 145 55 145 151c0 109 -73 150 -174 150c-52 0 -93 -8 -117 -17l-9 7l41 370h275c28 0 34 7 59 53h34l-19 -160h-304l-19 -151c22 6 47 13 103 13c142 0 254 -71 254 -221
c0 -141 -117 -239 -276 -239z" />
    <glyph glyph-name="six.tab" 
d="M311 -12c-147 0 -263 104 -263 315c0 288 172 402 332 402c99 0 167 -31 167 -91c0 -35 -22 -59 -65 -59c-45 0 -65 20 -73 68c-4 26 -12 38 -50 38c-77 0 -153 -71 -162 -291c36 28 84 51 152 51c118 0 203 -75 203 -208c0 -136 -96 -225 -241 -225zM312 37
c80 0 98 47 98 164c0 113 -32 160 -106 160c-45 0 -78 -12 -108 -33v-23c0 -165 8 -268 116 -268z" />
    <glyph glyph-name="seven.tab" 
d="M155 0c59 253 178 434 307 586h-290c-40 0 -45 -10 -71 -75h-35l18 182h458v-66c-136 -190 -200 -373 -233 -627h-154z" />
    <glyph glyph-name="eight.tab" 
d="M297 -12c-130 0 -247 57 -247 174c0 76 65 137 150 178v4c-78 42 -121 96 -121 170c0 113 105 191 227 191c109 0 216 -53 216 -161c0 -67 -60 -121 -130 -159v-3c100 -54 156 -103 156 -190c0 -110 -105 -204 -251 -204zM355 406c29 30 63 72 63 135
c0 78 -42 114 -118 114c-71 0 -115 -39 -115 -96c0 -67 73 -108 170 -153zM305 38c81 0 133 42 133 109c0 76 -80 113 -204 175c-33 -31 -75 -75 -75 -149c0 -90 53 -135 146 -135z" />
    <glyph glyph-name="nine.tab" 
d="M291 704c151 0 261 -103 261 -313c0 -288 -161 -404 -328 -404c-100 0 -168 32 -168 92c0 35 23 60 65 60c46 0 65 -19 73 -69c5 -26 12 -38 50 -38c95 0 152 69 159 289c-35 -27 -83 -51 -151 -51c-118 0 -204 74 -204 209c0 136 98 225 243 225zM290 656
c-79 0 -99 -50 -99 -165c0 -110 32 -161 106 -161c45 0 78 13 107 33c1 14 1 9 1 25c0 161 -8 268 -115 268z" />
    <glyph glyph-name="cent.tab" 
d="M316 -150v138c-151 2 -243 102 -243 257c0 181 120 259 243 279v79h54v-74h11c105 0 163 -34 163 -90c0 -35 -21 -74 -63 -74c-43 0 -53 22 -58 63c-6 36 -17 50 -53 52v-415h2c69 0 123 23 159 42v-43c-27 -26 -83 -61 -161 -72v-142h-54zM206 286
c0 -128 38 -193 110 -214v405c-62 -14 -110 -65 -110 -191z" />
    <glyph glyph-name="percent.tab" horiz-adv-x="800" 
d="M204 346c-79 0 -166 54 -166 174c0 129 99 184 169 184c75 0 166 -57 166 -176c0 -126 -97 -182 -169 -182zM103 -50l511 764h66l-512 -764h-65zM593 -13c-79 0 -165 54 -165 173c0 129 98 184 168 184c75 0 166 -56 166 -176c0 -125 -97 -181 -169 -181zM205 385
c47 0 69 35 69 134c0 110 -23 145 -69 145c-43 0 -68 -32 -68 -135c0 -107 23 -144 68 -144zM594 26c47 0 68 35 68 134c0 110 -21 145 -68 145c-43 0 -68 -32 -68 -136c0 -106 23 -143 68 -143z" />
    <glyph glyph-name="perthousand.tab" horiz-adv-x="1100" 
d="M190 346c-75 0 -157 54 -157 174c0 129 94 184 161 184c71 0 157 -57 157 -176c0 -126 -91 -182 -161 -182zM74 -50l514 764h65l-514 -764h-65zM545 -13c-75 0 -158 54 -158 173c0 129 94 184 161 184c71 0 157 -56 157 -176c0 -125 -92 -181 -160 -181zM192 385
c44 0 64 38 64 134c0 108 -21 146 -64 146c-41 0 -64 -36 -64 -136c0 -104 21 -144 64 -144zM546 25c44 0 64 39 64 135c0 107 -21 145 -64 145c-41 0 -64 -35 -64 -136c0 -104 21 -144 64 -144zM906 -13c-75 0 -157 54 -157 173c0 129 94 184 161 184
c71 0 157 -56 157 -176c0 -125 -92 -181 -161 -181zM908 25c44 0 64 39 64 135c0 107 -21 145 -64 145c-41 0 -65 -35 -65 -136c0 -104 23 -144 65 -144z" />
    <glyph glyph-name="plus.tab" 
d="M265 120v186h-175v63h175v186h71v-186h174v-63h-174v-186h-71z" />
    <glyph glyph-name="minus.tab" 
d="M90 306v63h420v-63h-420z" />
    <glyph glyph-name="multiply.tab" 
d="M154 132l-47 44l149 153l-146 150l49 46l142 -150l146 150l45 -44l-146 -151l149 -153l-48 -45l-148 152z" />
    <glyph glyph-name="divide.tab" 
d="M299 444c-40 0 -72 32 -72 71c0 40 32 72 72 72c41 0 74 -32 74 -72c0 -39 -33 -71 -74 -71zM79 307v63h442v-63h-442zM299 89c-40 0 -72 33 -72 72c0 40 32 72 72 72c41 0 74 -32 74 -72c0 -39 -33 -72 -74 -72z" />
    <glyph glyph-name="equal.tab" 
d="M79 381v63h442v-63h-442zM79 212v63h442v-63h-442z" />
    <glyph glyph-name="less.tab" 
d="M500 111l-401 173v74l401 173v-69l-337 -141l337 -140v-70z" />
    <glyph glyph-name="greater.tab" 
d="M500 284l-401 -174v70l338 140l-338 141v69l401 -173v-73z" />
    <glyph glyph-name="florin.tab" 
d="M110 349v52h102l15 87c24 148 109 215 229 215c83 0 126 -38 126 -82c0 -36 -25 -56 -58 -56c-37 0 -54 15 -62 68c-2 22 -7 29 -27 29c-29 0 -51 -21 -65 -99l-29 -162h126v-52h-135l-55 -311c-29 -171 -102 -235 -207 -235c-80 0 -114 33 -114 74c0 29 17 50 54 50
c30 0 46 -13 54 -57c4 -21 8 -27 20 -27c22 0 34 13 45 72l74 434h-93z" />
    <glyph glyph-name="plusminus.tab" 
d="M90 0v63h420v-63h-420zM265 159v170h-175v63h175v169h71v-169h174v-63h-174v-170h-71z" />
    <glyph glyph-name="notequal.tab" 
d="M79 381v62h251l72 131h62l-72 -131h129v-62h-163l-59 -107h222v-61h-255l-71 -130h-61l71 130h-126v61h159l59 107h-218z" />
    <glyph glyph-name="approxequal.tab" 
d="M477 489l50 -23c-27 -60 -58 -105 -121 -105c-62 0 -165 46 -217 46c-32 0 -54 -33 -66 -65l-50 24c20 55 58 102 119 102s162 -45 217 -45c33 0 52 31 68 66zM477 329l50 -24c-27 -59 -58 -104 -121 -104c-62 0 -165 45 -217 45c-32 0 -54 -32 -66 -65l-50 24
c20 55 58 103 119 103s162 -46 217 -46c33 0 52 31 68 67z" />
    <glyph glyph-name="lessequal.tab" 
d="M501 131l-402 163v74l402 163v-69l-339 -131l339 -130v-70zM99 0v63h402v-63h-402z" />
    <glyph glyph-name="greaterequal.tab" 
d="M501 294l-402 -163v70l339 130l-339 131v69l402 -163v-74zM501 63v-63h-402v63h402z" />
    <glyph glyph-name="period.tab" horiz-adv-x="300" 
d="M149 -7c-48 0 -85 38 -85 84c0 47 37 85 85 85c49 0 88 -38 88 -85c0 -46 -39 -84 -88 -84z" />
    <glyph glyph-name="comma.tab" horiz-adv-x="300" 
d="M33 -167l-8 26c108 48 140 106 140 161c-7 -7 -22 -13 -39 -13c-44 0 -70 31 -70 76s38 79 88 79c60 0 105 -42 105 -120c0 -82 -60 -175 -216 -209z" />
    <glyph glyph-name="colon.tab" horiz-adv-x="300" 
d="M150 314c-48 0 -86 37 -86 83c0 48 38 85 86 85s87 -37 87 -85c0 -46 -39 -83 -87 -83zM150 -7c-48 0 -86 38 -86 84c0 47 38 85 86 85s87 -38 87 -85c0 -46 -39 -84 -87 -84z" />
    <glyph glyph-name="semicolon.tab" horiz-adv-x="300" 
d="M148 314c-48 0 -86 37 -86 83c0 48 38 85 86 85s87 -37 87 -85c0 -46 -39 -83 -87 -83zM37 -167l-8 26c108 48 140 106 140 161c-7 -7 -22 -13 -39 -13c-44 0 -70 31 -70 76s38 79 88 79c60 0 105 -42 105 -120c0 -82 -60 -175 -216 -209z" />
    <glyph glyph-name="parenleft.tab" horiz-adv-x="400" 
d="M331 -141c-113 81 -256 226 -256 446c0 201 143 359 256 440l27 -29c-94 -91 -161 -231 -161 -394c0 -214 67 -336 161 -434z" />
    <glyph glyph-name="parenright.tab" horiz-adv-x="400" 
d="M69 745c113 -81 256 -232 256 -445c0 -208 -143 -360 -256 -441l-27 29c94 98 161 227 161 407c0 197 -67 330 -161 421z" />
    <glyph glyph-name="bracketleft.tab" horiz-adv-x="400" 
d="M117 -130v864h236v-35l-80 -9c-41 -5 -49 -12 -49 -69v-638c0 -57 8 -64 49 -69l80 -9v-35h-236z" />
    <glyph glyph-name="bracketright.tab" horiz-adv-x="400" 
d="M285 734v-864h-237v35l79 9c43 5 50 12 50 69v638c0 57 -7 64 -50 69l-79 9v35h237z" />
    <glyph glyph-name="braceleft.tab" horiz-adv-x="400" 
d="M349 -129c-180 8 -231 45 -231 115c0 53 52 198 52 237c0 31 -20 55 -117 59v44c94 4 117 30 117 61c0 39 -52 180 -52 233c0 69 51 106 231 115v-36c-96 -14 -114 -26 -114 -75c0 -75 25 -154 25 -211c0 -56 -40 -90 -132 -107v-4c94 -14 132 -49 132 -106
s-25 -139 -25 -215c0 -49 18 -60 114 -74v-36z" />
    <glyph glyph-name="braceright.tab" horiz-adv-x="400" 
d="M55 735c179 -9 231 -46 231 -115c0 -53 -52 -193 -52 -233c0 -30 24 -57 117 -61v-44c-98 -4 -117 -27 -117 -58c0 -39 52 -185 52 -238c0 -70 -52 -107 -231 -115v36c96 14 113 25 113 74c0 76 -24 160 -24 217c0 56 30 91 132 104v4c-83 18 -132 52 -132 109
s24 134 24 209c0 49 -17 61 -113 75v36z" />
    <glyph glyph-name="parenleft.uctab" horiz-adv-x="400" 
d="M331 -96c-113 82 -256 226 -256 446c0 201 143 359 256 440l27 -28c-94 -92 -161 -232 -161 -395c0 -214 67 -336 161 -434z" />
    <glyph glyph-name="parenright.uctab" horiz-adv-x="400" 
d="M69 790c113 -81 256 -231 256 -445c0 -207 -143 -359 -256 -441l-27 29c94 98 161 228 161 408c0 196 -67 329 -161 421z" />
    <glyph glyph-name="bracketleft.uctab" horiz-adv-x="400" 
d="M117 -86v864h236v-35l-80 -9c-41 -5 -49 -12 -49 -69v-638c0 -57 8 -64 49 -69l80 -9v-35h-236z" />
    <glyph glyph-name="bracketright.uctab" horiz-adv-x="400" 
d="M285 778v-864h-237v35l79 9c43 5 50 12 50 69v638c0 57 -7 64 -50 69l-79 9v35h237z" />
    <glyph glyph-name="braceleft.uctab" horiz-adv-x="400" 
d="M349 -85c-180 8 -231 46 -231 116c0 53 52 198 52 237c0 30 -20 54 -117 58v45c94 4 117 30 117 60c0 39 -52 180 -52 233c0 69 51 107 231 116v-37c-96 -13 -114 -26 -114 -75c0 -74 25 -153 25 -210s-40 -91 -132 -108v-4c94 -14 132 -49 132 -105
c0 -57 -25 -140 -25 -215c0 -49 18 -61 114 -75v-36z" />
    <glyph glyph-name="braceright.uctab" horiz-adv-x="400" 
d="M55 780c179 -9 231 -47 231 -116c0 -53 -52 -193 -52 -232c0 -31 24 -57 117 -61v-45c-98 -4 -117 -27 -117 -57c0 -40 52 -185 52 -238c0 -70 -52 -108 -231 -116v36c96 14 113 26 113 75c0 75 -24 159 -24 216s30 92 132 104v4c-83 19 -132 53 -132 109
c0 57 24 135 24 209c0 49 -17 62 -113 75v37z" />
    <glyph glyph-name="space.tab" horiz-adv-x="300" 
 />
    <glyph glyph-name="dollar.oldtab" 
d="M266 -123v112c-145 4 -205 55 -205 121c0 34 25 56 58 56c39 0 59 -15 67 -80c4 -34 15 -50 80 -53v248c-137 55 -185 115 -185 203c0 95 77 169 190 182v84h49v-83c125 -4 187 -57 187 -111c0 -35 -25 -58 -58 -58c-44 0 -62 23 -66 80c-4 32 -18 42 -63 44v-228
c145 -61 198 -117 198 -211c0 -103 -84 -183 -202 -193v-113h-50zM411 140c0 51 -23 86 -95 120v-226c66 8 95 49 95 106zM180 530c0 -52 22 -81 91 -114v205c-59 -8 -91 -42 -91 -91z" />
    <glyph glyph-name="Euro.oldtab" 
d="M24 372v50h80c34 172 157 248 281 248c101 0 178 -38 178 -107c0 -34 -19 -60 -60 -60c-43 0 -64 20 -72 79c-4 38 -19 44 -62 44c-72 0 -125 -63 -139 -204h211l-10 -50h-204v-26c0 -22 0 -42 1 -60h188l-8 -51h-175c19 -129 75 -177 179 -177c58 0 105 20 144 43v-42
c-35 -33 -106 -71 -198 -71c-134 0 -233 80 -257 247h-77v51h72c-1 12 -1 24 -1 37c0 17 0 33 2 49h-73z" />
    <glyph glyph-name="sterling.oldtab" 
d="M85 315v50h61c-9 37 -16 76 -16 109c0 114 87 196 234 196c100 0 166 -36 166 -93c0 -39 -24 -62 -59 -62c-39 0 -57 23 -69 70c-9 37 -17 43 -47 43c-54 0 -91 -31 -91 -125c0 -36 4 -89 7 -138h157v-50h-154c1 -12 1 -24 1 -33c0 -79 -43 -131 -117 -178v-5h261
c38 0 50 7 80 74h32l-24 -173h-444v78c73 44 109 81 109 152c0 23 -6 53 -14 85h-73z" />
    <glyph glyph-name="yen.oldtab" 
d="M68 285v49h149l-107 201c-31 59 -44 76 -71 83l-21 6v34h285v-34l-27 -5c-30 -6 -37 -18 -37 -36c0 -13 7 -30 18 -53l84 -171h4l75 167c12 29 17 43 17 58c0 18 -12 27 -39 34l-22 6v34h198v-34l-20 -6c-30 -8 -42 -26 -75 -95l-91 -189h151v-49h-169v-86h169v-49h-169
v-45c0 -52 4 -56 34 -63l42 -7v-35h-283v35l41 7c29 6 36 11 36 63v45h-172v49h172v86h-172z" />
    <glyph glyph-name="zero.oldtab" 
d="M297 -12c-132 0 -252 85 -252 293c0 218 135 310 256 310c133 0 254 -88 254 -296c0 -214 -129 -307 -258 -307zM301 34c76 0 114 73 114 245c0 191 -37 265 -116 265c-74 0 -115 -71 -115 -247c0 -188 36 -263 117 -263z" />
    <glyph glyph-name="one.oldtab" 
d="M119 0v35l77 9c31 3 44 12 44 54v354l-121 3v36c104 16 169 48 225 100l29 -4v-489c0 -42 10 -51 41 -54l73 -9v-35h-368z" />
    <glyph glyph-name="two.oldtab" 
d="M513 92l-14 -92h-434v58c69 51 143 106 210 171c67 66 100 126 100 196c0 95 -46 122 -102 122c-45 0 -56 -12 -59 -42c-4 -53 -26 -77 -69 -77c-41 0 -62 25 -62 61c0 52 64 102 198 102c136 0 229 -60 229 -172c0 -127 -147 -225 -327 -324v-3h330z" />
    <glyph glyph-name="three.oldtab" 
d="M246 -123c-127 0 -198 43 -198 109c0 31 19 58 59 58c35 0 57 -17 67 -59c13 -52 17 -65 77 -65c84 0 131 59 131 168c0 98 -41 137 -138 137h-55v50h45c92 0 130 44 130 140c0 91 -42 132 -109 132c-40 0 -52 -13 -56 -48c-5 -52 -26 -71 -65 -71c-41 0 -60 27 -60 57
c0 65 89 106 198 106c141 0 221 -70 221 -165c0 -73 -49 -142 -169 -168v-3c121 -11 194 -66 194 -172c0 -108 -91 -206 -272 -206z" />
    <glyph glyph-name="four.oldtab" 
d="M448 -112h-128v178h-291v50l345 471h74v-454h108l-11 -67h-97v-178zM106 133h214v295h-3l-211 -292v-3z" />
    <glyph glyph-name="five.oldtab" 
d="M509 578l-12 -101h-311l-19 -159c23 6 58 13 103 13c135 0 250 -66 250 -215c0 -143 -121 -239 -270 -239c-112 0 -191 43 -191 107c0 28 19 58 60 58c39 0 59 -17 68 -70c7 -42 23 -52 70 -52c96 0 150 58 150 156c0 107 -75 146 -176 146c-50 0 -96 -7 -119 -16l-8 7
l42 365h363z" />
    <glyph glyph-name="six.oldtab" 
d="M306 -12c-156 0 -257 111 -257 314c0 288 172 403 332 403c101 0 162 -35 162 -90c0 -37 -23 -59 -61 -59c-42 0 -60 20 -69 68c-5 23 -16 37 -52 37c-75 0 -163 -76 -173 -293c37 30 92 53 157 53c122 0 204 -77 204 -208c0 -137 -101 -225 -243 -225zM307 34
c77 0 107 52 107 167c0 114 -35 163 -115 163c-46 0 -80 -16 -112 -37v-23c0 -157 19 -270 120 -270z" />
    <glyph glyph-name="seven.oldtab" 
d="M164 -112c54 256 176 428 306 584h-299c-39 0 -44 -10 -70 -77h-33l19 183h460v-62c-138 -193 -207 -370 -240 -628h-143z" />
    <glyph glyph-name="eight.oldtab" 
d="M297 -12c-126 0 -241 57 -241 175c0 76 64 139 149 180v3c-78 43 -120 94 -120 167c0 111 99 192 222 192c118 0 211 -59 211 -160c0 -69 -49 -121 -130 -163v-4c100 -53 157 -100 157 -189c0 -109 -98 -201 -248 -201zM305 34c82 0 135 47 135 114
c0 77 -84 115 -203 176c-34 -31 -78 -76 -78 -151c0 -91 56 -139 146 -139zM352 403c32 32 68 77 68 138c0 77 -46 117 -119 117c-71 0 -117 -44 -117 -101c0 -66 76 -109 168 -154z" />
    <glyph glyph-name="nine.oldtab" 
d="M291 591c152 0 259 -105 259 -317c0 -275 -147 -397 -325 -397c-103 0 -162 33 -162 91c0 34 22 58 61 58c40 0 59 -20 68 -67c6 -25 15 -40 51 -40c92 0 158 76 168 291c-40 -32 -93 -53 -154 -53c-122 0 -205 77 -205 213c0 129 99 221 239 221zM288 545
c-70 0 -101 -54 -101 -164c0 -114 38 -166 114 -166c42 0 78 13 111 37c1 15 1 6 1 24c0 157 -19 269 -125 269z" />
    <glyph glyph-name="percent.oldtab" horiz-adv-x="800" 
d="M198 320c-80 0 -166 53 -166 169c0 126 98 180 169 180c76 0 165 -55 165 -172c0 -122 -95 -177 -168 -177zM107 -49l504 727h65l-505 -727h-64zM600 -13c-80 0 -165 53 -165 169c0 125 97 180 168 180c76 0 165 -55 165 -172c0 -123 -96 -177 -168 -177zM199 358
c47 0 68 38 68 130c0 104 -24 142 -68 142c-42 0 -68 -36 -68 -132c0 -99 22 -140 68 -140zM601 26c46 0 68 38 68 129c0 104 -23 142 -68 142c-42 0 -67 -36 -67 -132c0 -100 23 -139 67 -139z" />
    <glyph glyph-name="perthousand.oldtab" horiz-adv-x="1155" 
d="M195 320c-79 0 -163 53 -163 169c0 126 96 180 166 180c76 0 163 -55 163 -172c0 -122 -93 -177 -166 -177zM96 -49l504 727h65l-505 -727h-64zM580 -13c-80 0 -163 53 -163 169c0 125 96 180 166 180c75 0 163 -55 163 -172c0 -123 -94 -177 -166 -177zM197 358
c46 0 65 38 65 130c0 104 -22 142 -65 142s-66 -36 -66 -132c0 -99 20 -140 66 -140zM582 26c45 0 64 38 64 129c0 104 -21 142 -64 142c-42 0 -66 -36 -66 -132c0 -100 21 -139 66 -139zM958 -13c-80 0 -163 53 -163 169c0 125 96 180 166 180c75 0 162 -55 162 -172
c0 -123 -93 -177 -165 -177zM959 26c45 0 65 38 65 129c0 104 -21 142 -65 142c-41 0 -65 -36 -65 -132c0 -100 21 -139 65 -139z" />
    <glyph glyph-name="plus.oldtab" 
d="M265 85v182h-170v62h170v182h71v-182h170v-62h-170v-182h-71z" />
    <glyph glyph-name="minus.oldtab" 
d="M95 267v62h411v-62h-411z" />
    <glyph glyph-name="multiply.oldtab" 
d="M158 99l-47 44l144 148l-141 145l49 46l137 -145l142 145l46 -44l-142 -146l144 -148l-48 -45l-144 146z" />
    <glyph glyph-name="divide.oldtab" 
d="M300 402c-40 0 -72 32 -72 71c0 40 32 72 72 72c41 0 74 -32 74 -72c0 -39 -33 -71 -74 -71zM89 267v62h422v-62h-422zM300 50c-40 0 -72 33 -72 73c0 39 32 71 72 71c41 0 74 -32 74 -71c0 -40 -33 -73 -74 -73z" />
    <glyph glyph-name="equal.oldtab" 
d="M79 343v63h442v-63h-442zM79 175v62h442v-62h-442z" />
    <glyph glyph-name="less.oldtab" 
d="M499 77l-397 174v73l397 173v-69l-334 -140l334 -141v-70z" />
    <glyph glyph-name="greater.oldtab" 
d="M499 251l-397 -174v70l334 140l-334 141v69l397 -173v-73z" />
    <glyph glyph-name="plusminus.oldtab" 
d="M95 0v63h411v-63h-411zM265 151v167h-170v62h170v168h71v-168h170v-62h-170v-167h-71z" />
    <glyph glyph-name="notequal.oldtab" 
d="M79 344v61h251l72 131h62l-72 -131h129v-61h-163l-58 -107h221v-61h-255l-71 -131h-61l71 131h-126v61h160l58 107h-218z" />
    <glyph glyph-name="approxequal.oldtab" 
d="M477 449l50 -23c-27 -60 -59 -105 -122 -105c-62 0 -155 45 -207 45c-32 0 -54 -32 -66 -65l-50 24c20 55 58 103 119 103s153 -45 208 -45c32 0 51 30 68 66zM477 288l50 -23c-27 -60 -59 -105 -122 -105c-62 0 -155 45 -207 45c-32 0 -54 -32 -66 -64l-50 24
c20 55 58 102 119 102s153 -45 208 -45c32 0 51 31 68 66z" />
    <glyph glyph-name="lessequal.oldtab" 
d="M499 128l-397 158v73l397 158v-70l-334 -124l334 -125v-70zM102 0v63h397v-63h-397z" />
    <glyph glyph-name="greaterequal.oldtab" 
d="M499 286l-397 -158v70l334 125l-334 124v70l397 -158v-73zM499 63v-63h-397v63h397z" />
    <glyph glyph-name="zero.num" horiz-adv-x="473" 
d="M236 258c-105 0 -204 70 -204 216c0 162 123 227 207 227c96 0 202 -73 202 -219c0 -156 -112 -224 -205 -224zM238 301c57 0 86 42 86 172c0 149 -31 186 -86 186c-52 0 -88 -34 -88 -176s31 -182 88 -182z" />
    <glyph glyph-name="one.num" horiz-adv-x="284" 
d="M26 266v30l29 5c27 6 31 8 31 46v240l-60 3v34c67 12 117 41 151 80l23 -7v-350c0 -38 6 -42 31 -46l27 -5v-30h-232z" />
    <glyph glyph-name="two.num" horiz-adv-x="378" 
d="M24 266v52c59 44 99 78 138 119c44 45 74 89 74 152s-26 75 -67 75c-27 0 -31 -9 -35 -32c-5 -41 -17 -59 -55 -59c-30 0 -49 23 -49 47c0 42 58 81 150 81c100 0 164 -41 164 -124c0 -78 -88 -154 -226 -229v-3h140c32 0 38 8 56 53h30l-9 -132h-311z" />
    <glyph glyph-name="three.num" horiz-adv-x="381" 
d="M164 258c-91 0 -143 31 -143 78c0 25 18 47 45 47c31 0 50 -16 57 -55c6 -27 10 -33 43 -33c49 0 72 28 72 89c0 70 -30 82 -85 82h-32v43h28c55 0 79 17 79 81c0 59 -24 74 -59 74c-26 0 -32 -6 -35 -27c-5 -34 -15 -52 -51 -52c-28 0 -45 17 -45 42c0 46 61 74 144 74
c95 0 148 -37 148 -102c0 -47 -34 -91 -113 -105v-2c75 -6 131 -38 131 -109s-52 -125 -184 -125z" />
    <glyph glyph-name="four.num" horiz-adv-x="412" 
d="M172 266v30l24 5c25 6 31 8 31 46v17h-206v42l250 287h52v-277h66l-7 -52h-59v-17c0 -38 5 -41 29 -46l23 -5v-30h-203zM85 416h142v168h-4l-138 -164v-4z" />
    <glyph glyph-name="five.num" horiz-adv-x="369" 
d="M153 258c-86 0 -131 33 -131 76c0 28 21 41 46 41c35 0 49 -14 55 -52c5 -25 10 -28 39 -28c56 0 82 29 82 76c0 63 -46 89 -112 89c-32 0 -55 -6 -70 -12l-9 7l26 238l176 -1c22 0 25 6 41 37h30l-14 -112h-197l-11 -84c15 5 31 10 70 10c95 0 164 -43 164 -136
c0 -82 -70 -149 -185 -149z" />
    <glyph glyph-name="six.num" horiz-adv-x="422" 
d="M214 258c-96 0 -184 60 -184 202c0 174 122 241 232 241c74 0 116 -24 116 -64c0 -26 -18 -45 -48 -45c-34 0 -46 17 -54 49c-5 21 -8 25 -25 25c-49 0 -102 -36 -107 -164c21 13 62 23 106 23c83 0 142 -42 142 -126c0 -83 -66 -141 -178 -141zM216 296
c48 0 69 31 69 94c0 74 -32 90 -77 90c-24 0 -52 -7 -65 -15v-9c0 -107 16 -160 73 -160z" />
    <glyph glyph-name="seven.num" horiz-adv-x="371" 
d="M86 266c34 147 108 254 193 349h-170c-27 0 -31 -5 -49 -52h-33l15 130h301v-48c-87 -118 -122 -234 -136 -379h-121z" />
    <glyph glyph-name="eight.num" horiz-adv-x="405" 
d="M204 258c-101 0 -177 38 -177 107c0 45 39 84 95 107v3c-48 22 -73 56 -73 102c0 77 75 124 159 124c79 0 153 -33 153 -99c0 -40 -38 -77 -82 -95v-3c68 -30 98 -61 98 -116c0 -72 -71 -130 -173 -130zM245 522c15 16 33 39 33 75c0 50 -30 69 -75 69
c-44 0 -71 -23 -71 -58s29 -54 113 -86zM210 293c49 0 82 23 82 64c0 38 -36 58 -139 99c-18 -20 -35 -45 -35 -78c0 -61 32 -85 92 -85z" />
    <glyph glyph-name="nine.num" horiz-adv-x="421" 
d="M208 701c98 0 183 -61 183 -202c0 -170 -112 -241 -231 -241c-74 0 -117 24 -117 63c0 27 18 46 50 46c31 0 44 -16 52 -49c5 -22 9 -25 26 -25c60 0 102 39 106 165c-20 -13 -60 -24 -106 -24c-83 0 -141 41 -141 126c0 82 68 141 178 141zM205 662
c-46 0 -68 -30 -68 -94c0 -71 30 -89 77 -89c21 0 49 5 65 16v10c0 107 -17 157 -74 157z" />
    <glyph glyph-name="zero.den" horiz-adv-x="473" 
d="M236 -112c-105 0 -204 70 -204 217c0 162 123 227 207 227c96 0 202 -74 202 -219c0 -157 -112 -225 -205 -225zM238 -69c57 0 86 42 86 173c0 149 -31 185 -86 185c-52 0 -88 -34 -88 -175c0 -143 31 -183 88 -183z" />
    <glyph glyph-name="one.den" horiz-adv-x="284" 
d="M26 -104v31l29 5c27 6 31 8 31 46v239l-60 4v33c67 13 117 41 151 81l23 -7v-350c0 -38 5 -42 31 -46l27 -5v-31h-232z" />
    <glyph glyph-name="two.den" horiz-adv-x="378" 
d="M24 -104v52c59 44 99 79 138 120c44 45 74 89 74 151c0 64 -26 76 -67 76c-27 0 -31 -10 -35 -32c-5 -42 -17 -59 -55 -59c-30 0 -49 23 -49 46c0 42 58 82 150 82c100 0 164 -42 164 -124c0 -78 -88 -154 -226 -230v-3h140c32 0 38 9 56 54h30l-9 -133h-311z" />
    <glyph glyph-name="three.den" horiz-adv-x="381" 
d="M164 -112c-91 0 -143 32 -143 78c0 26 18 47 45 47c31 0 50 -15 57 -54c6 -28 10 -34 43 -34c49 0 72 29 72 89c0 70 -30 83 -85 83h-32v43h28c55 0 79 17 79 81c0 58 -24 74 -59 74c-26 0 -32 -7 -35 -28c-5 -33 -15 -51 -51 -51c-28 0 -45 16 -45 42c0 45 61 74 144 74
c95 0 148 -38 148 -103c0 -46 -34 -89 -113 -104v-2c75 -7 131 -39 131 -109c0 -71 -52 -126 -184 -126z" />
    <glyph glyph-name="four.den" horiz-adv-x="412" 
d="M172 -104v31l24 5c25 6 31 8 31 46v17h-206v42l250 287h52v-277h66l-7 -52h-59v-17c0 -38 5 -41 29 -46l23 -5v-31h-203zM85 47h142v168h-4l-138 -165v-3z" />
    <glyph glyph-name="five.den" horiz-adv-x="372" 
d="M156 -112c-86 0 -131 33 -131 76c0 28 21 42 47 42c35 0 48 -15 54 -53c5 -25 10 -27 40 -27c55 0 82 29 82 76c0 62 -47 88 -113 88c-31 0 -54 -6 -69 -11l-10 6l27 239h175c23 0 26 5 41 35h30l-13 -112l-198 1l-11 -85c15 5 31 10 70 10c95 0 164 -42 164 -135
c0 -82 -70 -150 -185 -150z" />
    <glyph glyph-name="six.den" horiz-adv-x="422" 
d="M214 -112c-96 0 -184 60 -184 202c0 175 122 242 232 242c74 0 116 -25 116 -64c0 -26 -18 -45 -48 -45c-34 0 -46 17 -54 48c-5 22 -8 25 -25 25c-49 0 -102 -36 -107 -163c21 13 62 23 106 23c83 0 142 -42 142 -127c0 -82 -66 -141 -178 -141zM216 -73
c48 0 69 31 69 94c0 74 -32 90 -77 90c-24 0 -52 -7 -65 -16v-9c0 -107 16 -159 73 -159z" />
    <glyph glyph-name="seven.den" horiz-adv-x="371" 
d="M86 -104c34 147 108 254 193 349h-170c-27 0 -31 -5 -49 -52h-33l15 131h301v-49c-87 -117 -122 -234 -136 -379h-121z" />
    <glyph glyph-name="eight.den" horiz-adv-x="405" 
d="M204 -112c-101 0 -177 39 -177 107c0 45 39 85 95 108v3c-48 22 -73 56 -73 102c0 78 75 124 159 124c79 0 153 -33 153 -100c0 -39 -38 -76 -82 -94v-4c68 -29 98 -61 98 -115c0 -73 -71 -131 -173 -131zM245 152c15 17 33 40 33 75c0 50 -30 69 -75 69
c-44 0 -71 -23 -71 -57c0 -35 29 -54 113 -87zM210 -77c49 0 82 23 82 64c0 40 -36 58 -139 99c-18 -19 -35 -44 -35 -77c0 -61 32 -86 92 -86z" />
    <glyph glyph-name="nine.den" horiz-adv-x="421" 
d="M208 332c98 0 183 -62 183 -203c0 -169 -110 -241 -231 -241c-74 0 -117 25 -117 64c0 26 16 44 50 44c30 0 42 -16 50 -49c5 -21 11 -23 29 -23c61 0 102 38 107 166c-21 -12 -62 -24 -108 -24c-85 0 -142 43 -141 125c0 82 68 141 178 141zM205 298
c-45 -4 -68 -27 -68 -98c0 -75 30 -95 77 -95c21 0 49 5 65 18v14c-1 110 -17 161 -74 161z" />
    <glyph glyph-name="zero.sub" horiz-adv-x="473" 
d="M236 -132c-105 0 -204 70 -204 217c0 162 123 227 207 227c96 0 202 -74 202 -219c0 -157 -112 -225 -205 -225zM238 -89c57 0 86 42 86 173c0 149 -31 185 -86 185c-52 0 -88 -34 -88 -175c0 -143 31 -183 88 -183z" />
    <glyph glyph-name="one.sub" horiz-adv-x="284" 
d="M26 -124v31l29 5c27 6 31 8 31 46v239l-60 4v33c67 13 117 41 151 81l23 -7v-350c0 -38 5 -42 31 -46l27 -5v-31h-232z" />
    <glyph glyph-name="two.sub" horiz-adv-x="378" 
d="M24 -124v52c59 44 99 79 138 120c44 45 74 89 74 151c0 64 -26 76 -67 76c-27 0 -31 -10 -35 -32c-5 -42 -17 -59 -55 -59c-30 0 -49 23 -49 46c0 42 58 82 150 82c100 0 164 -42 164 -124c0 -78 -88 -154 -226 -230v-3h140c32 0 38 9 56 54h30l-9 -133h-311z" />
    <glyph glyph-name="three.sub" horiz-adv-x="381" 
d="M164 -132c-91 0 -143 32 -143 78c0 26 18 47 45 47c31 0 50 -15 57 -54c6 -28 10 -34 43 -34c49 0 72 29 72 89c0 70 -30 83 -85 83h-32v43h28c55 0 79 17 79 81c0 58 -24 74 -59 74c-26 0 -32 -7 -35 -28c-5 -33 -15 -51 -51 -51c-28 0 -45 16 -45 42c0 45 61 74 144 74
c95 0 148 -38 148 -103c0 -46 -34 -89 -113 -104v-2c75 -7 131 -39 131 -109c0 -71 -52 -126 -184 -126z" />
    <glyph glyph-name="four.sub" horiz-adv-x="412" 
d="M172 -124v31l24 5c25 6 31 8 31 46v17h-206v42l250 287h52v-277h66l-7 -52h-59v-17c0 -38 5 -41 29 -46l23 -5v-31h-203zM85 27h142v168h-4l-138 -165v-3z" />
    <glyph glyph-name="five.sub" horiz-adv-x="372" 
d="M156 -132c-86 0 -131 33 -131 76c0 28 21 42 47 42c35 0 48 -15 54 -53c5 -25 10 -27 40 -27c55 0 82 29 82 76c0 62 -47 88 -113 88c-31 0 -54 -6 -69 -11l-10 6l27 239h175c23 0 26 5 41 35h30l-13 -112l-198 1l-11 -85c15 5 31 10 70 10c95 0 164 -42 164 -135
c0 -82 -70 -150 -185 -150z" />
    <glyph glyph-name="six.sub" horiz-adv-x="422" 
d="M214 -132c-96 0 -184 60 -184 202c0 175 122 242 232 242c74 0 116 -25 116 -64c0 -26 -18 -45 -48 -45c-34 0 -46 17 -54 48c-5 22 -8 25 -25 25c-49 0 -102 -36 -107 -163c21 13 62 23 106 23c83 0 142 -42 142 -127c0 -82 -66 -141 -178 -141zM216 -93
c48 0 69 31 69 94c0 74 -32 90 -77 90c-24 0 -52 -7 -65 -16v-9c0 -107 16 -159 73 -159z" />
    <glyph glyph-name="seven.sub" horiz-adv-x="371" 
d="M86 -124c34 147 108 254 193 349h-170c-27 0 -31 -5 -49 -52h-33l15 131h301v-49c-87 -117 -122 -234 -136 -379h-121z" />
    <glyph glyph-name="eight.sub" horiz-adv-x="405" 
d="M204 -132c-101 0 -177 39 -177 107c0 45 39 85 95 108v3c-48 22 -73 56 -73 102c0 78 75 124 159 124c79 0 153 -33 153 -100c0 -39 -38 -76 -82 -94v-4c68 -29 98 -61 98 -116c0 -72 -71 -130 -173 -130zM245 132c15 17 33 40 33 75c0 50 -30 69 -75 69
c-44 0 -71 -23 -71 -57c0 -35 29 -54 113 -87zM210 -97c49 0 82 23 82 64c0 40 -36 58 -139 99c-18 -19 -35 -44 -35 -77c0 -61 32 -86 92 -86z" />
    <glyph glyph-name="nine.sub" horiz-adv-x="421" 
d="M208 312c98 0 183 -62 183 -203c0 -169 -110 -241 -231 -241c-74 0 -117 25 -117 64c0 26 16 44 50 44c30 0 42 -16 50 -49c5 -21 11 -23 29 -23c61 0 102 38 107 166c-21 -12 -62 -24 -108 -24c-85 0 -142 43 -141 125c0 82 68 141 178 141zM205 278
c-45 -4 -68 -27 -68 -98c0 -75 30 -95 77 -95c21 0 49 5 65 18v14c-1 110 -17 161 -74 161z" />
    <glyph glyph-name="plus.sub" horiz-adv-x="414" 
d="M178 -75v149h-135v51h135v148h58v-148h135v-51h-135v-149h-58z" />
    <glyph glyph-name="minus.sub" horiz-adv-x="414" 
d="M43 125h328v-51h-328v51z" />
    <glyph glyph-name="zero.sup" horiz-adv-x="473" 
d="M236 343c-105 0 -204 70 -204 217c0 162 123 227 207 227c96 0 202 -74 202 -219c0 -157 -112 -225 -205 -225zM238 386c57 0 86 43 86 173c0 149 -31 185 -86 185c-52 0 -88 -34 -88 -175c0 -142 31 -183 88 -183z" />
    <glyph glyph-name="one.sup" horiz-adv-x="284" 
d="M26 351v31l29 5c27 6 31 8 31 46v239l-60 4v33c67 12 117 41 151 81l23 -7v-350c0 -38 6 -43 31 -46l27 -5v-31h-232z" />
    <glyph glyph-name="two.sup" horiz-adv-x="378" 
d="M24 351v53c59 43 99 78 138 119c44 45 74 89 74 151c0 64 -26 75 -67 75c-27 0 -31 -9 -35 -31c-5 -42 -17 -59 -55 -59c-30 0 -49 22 -49 46c0 42 58 82 150 82c100 0 164 -42 164 -125c0 -78 -88 -153 -226 -229v-3h140c32 0 38 9 56 53h30l-9 -132h-311z" />
    <glyph glyph-name="three.sup" horiz-adv-x="381" 
d="M164 343c-91 0 -143 32 -143 78c0 26 18 47 45 47c31 0 50 -15 57 -54c6 -28 10 -34 43 -34c49 0 72 29 72 89c0 70 -30 83 -85 83h-32v43h28c55 0 79 17 79 81c0 58 -24 74 -59 74c-26 0 -32 -7 -35 -28c-5 -33 -15 -52 -51 -52c-28 0 -45 17 -45 43c0 45 61 74 144 74
c95 0 148 -38 148 -103c0 -46 -34 -90 -113 -104v-2c75 -7 131 -39 131 -109c0 -71 -52 -126 -184 -126z" />
    <glyph glyph-name="four.sup" horiz-adv-x="412" 
d="M172 351v31l24 5c25 6 31 8 31 46v17h-206v42l250 287h52v-278h66l-7 -51h-59v-17c0 -38 5 -41 29 -46l23 -5v-31h-203zM85 501h142v169h-4l-138 -165v-4z" />
    <glyph glyph-name="five.sup" horiz-adv-x="369" 
d="M153 343c-86 0 -131 33 -131 76c0 28 21 42 46 42c35 0 49 -15 55 -53c5 -24 10 -27 39 -27c56 0 82 28 82 76c0 62 -46 88 -112 88c-32 0 -55 -6 -70 -11l-9 6l26 239l176 -1c22 0 25 6 41 36h30l-14 -112l-197 1l-11 -85c15 5 31 10 70 10c95 0 164 -42 164 -135
c0 -83 -70 -150 -185 -150z" />
    <glyph glyph-name="six.sup" horiz-adv-x="422" 
d="M214 343c-96 0 -184 60 -184 202c0 175 122 242 232 242c74 0 116 -25 116 -64c0 -26 -18 -45 -48 -45c-34 0 -46 17 -54 48c-5 22 -8 25 -25 25c-49 0 -102 -36 -107 -163c21 13 62 23 106 23c83 0 142 -42 142 -127c0 -83 -66 -141 -178 -141zM216 382
c48 0 69 30 69 94c0 74 -32 90 -77 90c-24 0 -52 -7 -65 -16v-9c0 -107 16 -159 73 -159z" />
    <glyph glyph-name="seven.sup" horiz-adv-x="371" 
d="M86 351c34 147 108 254 193 349h-170c-27 0 -31 -5 -49 -52h-33l15 131h301v-49c-87 -117 -122 -234 -136 -379h-121z" />
    <glyph glyph-name="eight.sup" horiz-adv-x="405" 
d="M204 343c-101 0 -177 39 -177 107c0 45 39 85 95 108v2c-48 22 -73 57 -73 103c0 77 75 124 159 124c79 0 153 -33 153 -100c0 -39 -38 -76 -82 -94v-4c68 -29 98 -61 98 -115c0 -73 -71 -131 -173 -131zM245 607c15 16 33 40 33 75c0 50 -30 69 -75 69
c-44 0 -71 -23 -71 -57c0 -35 29 -55 113 -87zM210 378c49 0 82 23 82 64c0 39 -36 58 -139 99c-18 -19 -35 -44 -35 -77c0 -61 32 -86 92 -86z" />
    <glyph glyph-name="nine.sup" horiz-adv-x="421" 
d="M208 787c98 0 183 -61 183 -202c0 -170 -112 -242 -231 -242c-74 0 -117 25 -117 64c0 26 18 45 50 45c31 0 44 -16 52 -49c5 -21 9 -24 26 -24c60 0 102 38 106 164c-20 -12 -60 -23 -106 -23c-83 0 -141 41 -141 126c0 82 68 141 178 141zM205 748
c-46 0 -68 -31 -68 -94c0 -72 30 -89 77 -89c21 0 49 5 65 15v10c0 108 -17 158 -74 158z" />
    <glyph glyph-name="plus.sup" horiz-adv-x="414" 
d="M178 401v148h-135v51h135v148h58v-148h135v-51h-135v-148h-58z" />
    <glyph glyph-name="minus.sup" horiz-adv-x="414" 
d="M43 600h328v-51h-328v51z" />
    <glyph glyph-name="a.ord" horiz-adv-x="468" 
d="M154 245c-80 0 -131 42 -131 114c0 74 44 115 172 142l76 17v68c0 65 -13 82 -70 82c-27 0 -34 -7 -37 -32c-6 -48 -22 -71 -65 -71c-37 0 -55 20 -55 51c0 57 79 92 183 92c108 0 166 -36 166 -116v-233c0 -29 3 -42 21 -51c10 -6 26 -6 41 -7v-29
c-15 -12 -49 -27 -93 -27c-49 0 -77 20 -85 51h-5c-21 -27 -62 -51 -118 -51zM207 306c30 0 54 13 64 29v133l-48 -5c-55 -5 -81 -29 -81 -88c0 -50 27 -69 65 -69z" />
    <glyph glyph-name="b.ord" horiz-adv-x="531" 
d="M246 245c-76 0 -135 14 -186 43v480c0 40 -4 43 -26 54l-34 16v29l177 15l11 -8s-7 -36 -7 -98v-44c0 -44 -4 -78 -4 -78h4c36 28 89 53 149 53c83 0 172 -51 172 -209c0 -173 -109 -253 -256 -253zM255 288c81 0 120 49 120 185c0 112 -40 164 -109 164
c-43 0 -68 -13 -85 -22v-302c19 -16 43 -25 74 -25z" />
    <glyph glyph-name="c.ord" horiz-adv-x="439" 
d="M240 245c-138 0 -213 89 -213 226c0 179 142 237 257 237c89 0 134 -31 134 -80c0 -34 -23 -63 -55 -63c-42 0 -57 25 -61 60s-13 40 -40 40c-57 0 -112 -38 -112 -158s48 -191 145 -191c55 0 92 17 124 33v-37c-26 -29 -92 -67 -179 -67z" />
    <glyph glyph-name="d.ord" horiz-adv-x="543" 
d="M205 245c-89 0 -175 59 -175 216c0 174 118 246 250 246c27 0 53 -3 71 -8c0 0 -2 26 -2 51v24c0 31 -5 35 -27 46l-35 18v29l179 15l11 -8s-6 -36 -6 -98v-413c0 -41 3 -45 27 -55l28 -12v-29l-167 -22l-7 6l3 46h-3c-37 -28 -91 -52 -147 -52zM269 317
c41 0 65 14 80 22v293c-17 18 -42 33 -73 33c-74 0 -120 -55 -120 -181c0 -119 42 -167 113 -167z" />
    <glyph glyph-name="e.ord" horiz-adv-x="466" 
d="M248 245c-148 0 -221 89 -221 233s108 230 221 230c118 0 190 -61 192 -222h-290c5 -124 59 -170 146 -170c59 0 99 16 132 33v-38c-28 -28 -93 -66 -180 -66zM244 667c-50 0 -89 -43 -94 -140l165 9c0 95 -15 131 -71 131z" />
    <glyph glyph-name="f.ord" horiz-adv-x="308" 
d="M19 255v31l27 7c26 7 29 12 29 48v298h-61v30l61 27v13c0 110 85 175 211 175c65 0 100 -26 100 -64c0 -28 -20 -51 -52 -51c-36 0 -56 19 -59 54c-2 20 -9 24 -20 24c-29 0 -58 -25 -58 -87v-64h102l-15 -57h-87v-296c0 -40 3 -44 28 -49l38 -8v-31h-244z" />
    <glyph glyph-name="g.ord" horiz-adv-x="469" 
d="M192 88c-125 0 -196 33 -196 93c0 41 37 69 100 91v3c-35 8 -64 35 -64 74c0 50 40 81 68 100v3c-39 18 -72 60 -72 109c0 95 88 146 184 146c43 0 72 -4 102 -15c33 30 74 54 118 54c29 0 53 -17 53 -46c0 -28 -16 -48 -42 -48c-24 0 -33 10 -43 26c-7 12 -34 8 -60 -10
v-2c34 -18 58 -50 58 -95c0 -96 -88 -145 -186 -145c-30 0 -53 2 -76 13c-12 -7 -24 -23 -24 -41s13 -31 47 -31h143c79 0 138 -25 138 -107c0 -83 -70 -172 -248 -172zM208 132c99 0 149 38 149 82c0 33 -18 51 -74 51h-136c-19 -7 -55 -32 -55 -70c0 -43 34 -63 116 -63z
M212 465c48 0 72 27 72 98c0 74 -25 106 -72 106c-46 0 -69 -30 -69 -99c0 -77 24 -105 69 -105z" />
    <glyph glyph-name="h.ord" horiz-adv-x="543" 
d="M19 255v31l27 7c26 7 29 12 29 48v427c0 40 -3 43 -26 54l-34 16v29l177 15l12 -8s-7 -41 -7 -98v-44c0 -44 -5 -81 -5 -81h4c46 30 105 56 166 56c78 0 115 -37 115 -113v-253c0 -36 5 -41 29 -48l26 -7v-31h-229v31l26 6c23 5 26 10 26 49v218c0 55 -19 75 -65 75
c-35 0 -72 -12 -93 -19v-274c0 -40 3 -44 26 -49l26 -6v-31h-230z" />
    <glyph glyph-name="i.ord" horiz-adv-x="269" 
d="M19 255v31l27 7c26 7 29 12 29 48v250c0 35 -3 39 -27 52l-31 19v26l175 19l12 -7c-1 -18 -7 -49 -7 -115v-244c0 -38 4 -41 29 -48l27 -7v-31h-234zM133 762c-43 0 -75 31 -75 69c0 40 32 70 75 70c41 0 74 -30 74 -70c0 -38 -33 -69 -74 -69z" />
    </font>
</defs>
</svg>
