<?xml version="1.0" standalone="no"?>
<!DOCTYPE svg PUBLIC "-//W3C//DTD SVG 1.1//EN" "http://www.w3.org/Graphics/SVG/1.1/DTD/svg11.dtd" >
<svg xmlns="http://www.w3.org/2000/svg" xmlns:xlink="http://www.w3.org/1999/xlink" version="1.1">
<metadata>
Created by FontForge 20170910 at Mon Jan 11 11:57:49 2016
 By Jimmy Wärting
\\\\uFFFD 2010 Paul Barnes and Christian Schwartz, under exclusive license to Schwartzco Inc./Commercial Type. All rights reserved.
</metadata>
<defs>
<font id="ChubbPublicoText-Roman" horiz-adv-x="600" >
  <font-face 
    font-family="Chubb Publico Text"
    font-weight="400"
    font-stretch="normal"
    units-per-em="1000"
    panose-1="2 4 5 2 6 5 4 6 2 3"
    ascent="781"
    descent="-219"
    x-height="509"
    cap-height="693"
    bbox="-146 -284 1180 1103"
    underline-thickness="50"
    underline-position="-124"
    stemh="49"
    stemv="100"
    unicode-range="U+0020-FB04"
  />
<missing-glyph horiz-adv-x="510" 
 />
    <glyph glyph-name="f_b" unicode="fb" horiz-adv-x="903" 
d="M25 0v30l41 11c20 5 27 13 27 52v363h-71v30l71 24v36c0 139 102 221 241 221c57 0 93 -12 111 -29l37 27l14 -8s-5 -40 -5 -117v-91c0 -45 -4 -84 -4 -84h4c43 32 107 59 174 59c97 0 201 -55 201 -245s-120 -291 -286 -291c-77 0 -132 9 -189 37v627
c-29 6 -42 27 -46 56c-2 16 -9 22 -28 22c-69 0 -124 -27 -124 -131v-90h117l-15 -53h-102v-358c0 -47 4 -52 26 -57l54 -11v-30h-248zM591 33c115 0 170 60 170 226c0 136 -58 202 -144 202c-69 0 -102 -20 -126 -34v-360c28 -24 57 -34 100 -34z" />
    <glyph glyph-name="f_f" unicode="ff" horiz-adv-x="617" 
d="M25 0v30l41 11c20 5 27 13 27 52v363h-71v30l71 24v26c0 139 98 214 232 214c61 0 98 -16 128 -39c39 36 96 56 162 56c64 0 93 -25 93 -63c0 -23 -17 -49 -49 -49c-38 0 -58 21 -62 50c-3 20 -6 25 -20 25c-39 0 -86 -28 -86 -112v-109h117l-15 -53h-102v-358
c0 -47 5 -53 26 -57l54 -11v-30h-249v30l42 11c20 5 27 13 27 52v363h-198v-358c0 -47 4 -51 26 -57l41 -11v-30h-235zM391 565c0 29 5 55 14 79c-22 46 -53 66 -99 66c-60 0 -113 -30 -113 -125v-76h198v56z" />
    <glyph glyph-name="f_f_b" unicode="ffb" horiz-adv-x="1201" 
d="M322 0v30l42 11c20 5 27 13 27 52v363h-198v-358c0 -47 4 -51 26 -57l41 -11v-30h-235v30l41 11c20 5 27 13 27 52v363h-71v30l71 24v26c0 139 98 214 232 214c64 0 102 -18 133 -43c43 39 103 60 174 60c57 0 93 -12 111 -29l37 27l14 -8s-5 -40 -5 -117v-91
c0 -45 -4 -84 -4 -84h4c43 32 107 59 174 59c97 0 201 -55 201 -245s-120 -291 -286 -291c-77 0 -132 9 -189 37v627c-29 6 -42 27 -46 56c-2 16 -9 22 -28 22c-69 0 -124 -27 -124 -131v-90h117l-15 -53h-102v-358c0 -47 4 -52 26 -57l54 -11v-30h-249zM889 33
c115 0 170 60 170 226c0 136 -58 202 -144 202c-69 0 -102 -20 -126 -34v-360c28 -24 57 -34 100 -34zM193 585v-76h198v37c0 34 6 64 17 91c-22 51 -54 73 -102 73c-60 0 -113 -30 -113 -125z" />
    <glyph glyph-name="f_f_h" unicode="ffh" horiz-adv-x="1200" 
d="M322 0v30l42 11c20 5 27 13 27 52v363h-198v-358c0 -47 4 -51 26 -57l41 -11v-30h-235v30l41 11c20 5 27 13 27 52v363h-71v30l71 24v26c0 139 98 214 232 214c64 0 102 -18 133 -43c43 39 103 60 174 60c57 0 93 -12 111 -29l37 27l14 -8s-5 -50 -5 -117v-91
c0 -45 -5 -88 -5 -88h4c50 32 125 63 189 63c101 0 136 -43 136 -133v-298c0 -39 8 -47 27 -52l40 -11v-30h-234v30l41 11c20 5 26 10 26 52v270c0 70 -23 95 -87 95c-49 0 -108 -20 -137 -31v-334c0 -42 6 -47 26 -52l41 -11v-30h-232v30l38 11c20 6 27 13 27 52v559
c-29 6 -42 27 -46 56c-2 16 -9 22 -28 22c-69 0 -124 -27 -124 -131v-90h117l-15 -53h-102v-358c0 -47 4 -51 26 -57l41 -11v-30h-236zM193 585v-76h198v37c0 34 6 64 17 91c-22 51 -54 73 -102 73c-60 0 -113 -30 -113 -125z" />
    <glyph glyph-name="f_f_i" unicode="ffi" horiz-adv-x="877" 
d="M25 0v30l41 11c20 5 27 13 27 52v363h-71v30l71 24v26c0 139 98 214 232 214c63 0 100 -17 130 -41c42 38 103 58 176 58c80 0 115 -28 115 -63c0 -33 -22 -52 -54 -52c-39 0 -57 23 -62 57c-2 16 -9 22 -28 22c-59 0 -111 -24 -111 -128v-94h184l108 14l12 -6
s-6 -41 -6 -92v-332c0 -42 6 -47 26 -52l41 -11v-30h-232v30l38 11c19 5 27 13 27 52v310c0 40 -14 53 -40 53h-158v-358c0 -47 4 -51 26 -57l41 -11v-30h-236v30l42 11c20 5 27 13 27 52v363h-198v-358c0 -47 4 -51 26 -57l41 -11v-30h-235zM391 550c0 33 6 63 16 90
c-22 49 -54 70 -101 70c-60 0 -113 -30 -113 -125v-76h198v41z" />
    <glyph glyph-name="f_f_j" unicode="ffj" horiz-adv-x="876" 
d="M607 -233c-62 0 -92 34 -92 69c0 27 21 47 52 47c39 0 49 -22 52 -45c4 -31 9 -34 19 -34c31 0 51 27 51 64v535c0 40 -14 53 -40 53h-158v-358c0 -47 4 -51 26 -57l41 -11v-30h-236v30l42 11c20 5 27 13 27 52v363h-198v-358c0 -47 4 -51 26 -57l41 -11v-30h-235v30
l41 11c20 5 27 13 27 52v363h-71v30l71 24v26c0 139 98 214 232 214c63 0 100 -17 130 -41c42 38 103 58 176 58c80 0 115 -28 115 -63c0 -36 -22 -55 -54 -55c-39 0 -57 22 -62 56c-2 16 -9 26 -28 26c-59 0 -111 -24 -111 -128v-94h184l108 14l11 -6s-5 -41 -5 -92v-452
c0 -151 -82 -206 -182 -206zM193 585v-76h198v41c0 33 6 63 16 90c-22 49 -54 70 -101 70c-60 0 -113 -30 -113 -125z" />
    <glyph glyph-name="f_f_k" unicode="ffk" horiz-adv-x="1138" 
d="M322 0v30l42 11c20 5 27 13 27 52v363h-198v-358c0 -47 4 -51 26 -57l41 -11v-30h-235v30l41 11c20 5 27 13 27 52v363h-71v30l71 24v26c0 139 98 214 232 214c64 0 102 -18 133 -43c43 39 103 60 174 60c57 0 93 -12 111 -29l37 27l14 -8s-5 -50 -5 -117v-547
c0 -42 6 -47 26 -52l41 -11v-30h-232v30l38 11c19 5 27 13 27 52v559c-29 6 -42 27 -46 56c-2 16 -9 22 -28 22c-69 0 -124 -27 -124 -131v-90h117l-15 -53h-102v-358c0 -47 4 -51 26 -57l41 -11v-30h-236zM1004 0c-78 83 -133 157 -198 252v15l103 112c41 47 55 63 55 75
c0 10 -7 17 -24 22l-15 5v28h187v-29l-31 -10c-28 -9 -51 -22 -91 -62l-102 -110c58 -86 120 -167 189 -240c9 -10 16 -14 27 -17l34 -11v-30h-134zM193 585v-76h198v37c0 34 6 64 17 91c-22 51 -54 73 -102 73c-60 0 -113 -30 -113 -125z" />
    <glyph glyph-name="f_f_l" unicode="ffl" horiz-adv-x="877" 
d="M25 0v30l41 11c20 5 27 13 27 52v363h-71v30l71 24v26c0 139 98 214 232 214c64 0 102 -18 133 -43c43 39 103 60 174 60c57 0 93 -12 111 -29l37 27l15 -8s-6 -50 -6 -117v-547c0 -42 6 -47 26 -52l41 -11v-30h-232v30l38 11c19 5 27 13 27 52v559c-29 6 -42 27 -46 56
c-2 16 -9 22 -28 22c-69 0 -124 -27 -124 -131v-90h117l-15 -53h-102v-358c0 -47 4 -51 26 -57l41 -11v-30h-235v30l41 11c20 5 27 13 27 52v363h-198v-358c0 -47 4 -51 26 -57l41 -11v-30h-235zM193 585v-76h198v37c0 34 6 64 17 91c-22 51 -54 73 -102 73
c-60 0 -113 -30 -113 -125z" />
    <glyph glyph-name="f_h" unicode="fh" horiz-adv-x="902" 
d="M25 0v30l41 11c20 5 27 13 27 52v363h-71v30l71 24v36c0 139 102 221 241 221c57 0 93 -12 111 -29l37 27l14 -8s-5 -50 -5 -117v-91c0 -45 -5 -88 -5 -88h4c50 32 125 63 189 63c101 0 136 -43 136 -133v-298c0 -39 8 -47 27 -52l40 -11v-30h-234v30l41 11
c20 5 26 10 26 52v270c0 70 -23 95 -87 95c-49 0 -108 -20 -137 -31v-334c0 -42 6 -47 26 -52l41 -11v-30h-232v30l38 11c20 6 27 13 27 52v559c-29 6 -42 27 -46 56c-2 16 -9 22 -28 22c-69 0 -124 -27 -124 -131v-90h117l-15 -53h-102v-358c0 -47 4 -51 26 -57l41 -11v-30
h-235z" />
    <glyph glyph-name="f_i" unicode="fi" horiz-adv-x="579" 
d="M193 603v-94h184l108 14l11 -6s-5 -41 -5 -92v-332c0 -42 6 -47 26 -52l41 -11v-30h-232v30l38 11c19 5 27 13 27 52v310c0 40 -14 53 -40 53h-158v-358c0 -47 4 -51 26 -57l41 -11v-30h-235v30l41 11c20 5 27 13 27 52v363h-71v30l71 24v40c0 139 97 217 240 217
c80 0 115 -28 115 -63c0 -38 -22 -55 -54 -55c-39 0 -57 22 -62 56c-2 16 -9 26 -28 26c-59 0 -111 -24 -111 -128z" />
    <glyph glyph-name="f_j" unicode="fj" horiz-adv-x="578" 
d="M309 -233c-62 0 -92 34 -92 69c0 27 21 47 52 47c39 0 49 -22 52 -45c4 -31 9 -34 19 -34c31 0 51 27 51 64v535c0 40 -14 53 -40 53h-158v-358c0 -47 4 -51 26 -57l41 -11v-30h-235v30l41 11c20 5 27 13 27 52v363h-71v30l71 24v40c0 139 97 217 240 217
c80 0 115 -28 115 -63c0 -36 -22 -55 -54 -55c-39 0 -57 22 -62 56c-2 16 -9 26 -28 26c-59 0 -111 -24 -111 -128v-94h184l108 14l11 -6s-5 -41 -5 -92v-452c0 -151 -82 -206 -182 -206z" />
    <glyph glyph-name="f_k" unicode="fk" horiz-adv-x="840" 
d="M326 0v30l38 11c19 5 27 13 27 52v559c-29 6 -42 27 -46 56c-2 16 -9 22 -28 22c-69 0 -124 -27 -124 -131v-90h117l-15 -53h-102v-358c0 -47 4 -51 26 -57l41 -11v-30h-235v30l41 11c20 5 27 13 27 52v363h-71v30l71 24v36c0 139 102 221 241 221c57 0 93 -12 111 -29
l37 27l14 -8s-5 -50 -5 -117v-547c0 -42 6 -47 26 -52l41 -11v-30h-232zM706 0c-78 83 -133 157 -198 252v15l103 112c41 47 55 63 55 75c0 10 -7 17 -24 22l-15 5v28h187v-29l-31 -10c-28 -9 -51 -22 -91 -62l-102 -110c58 -86 120 -167 189 -240c9 -10 16 -14 27 -17
l34 -11v-30h-134z" />
    <glyph glyph-name="f_l" unicode="fl" horiz-adv-x="579" 
d="M326 0v30l38 11c19 5 27 13 27 52v559c-29 6 -42 27 -46 56c-2 16 -9 22 -28 22c-69 0 -124 -27 -124 -131v-90h117l-15 -53h-102v-358c0 -47 4 -51 26 -57l41 -11v-30h-235v30l41 11c20 5 27 13 27 52v363h-71v30l71 24v36c0 139 102 221 241 221c57 0 93 -12 111 -29
l37 27l14 -8s-5 -50 -5 -117v-547c0 -42 6 -47 26 -52l41 -11v-30h-232z" />
    <glyph glyph-name=".notdef" horiz-adv-x="510" 
 />
    <glyph glyph-name="Eth" unicode="&#xd0;" horiz-adv-x="705" 
d="M34 329v43h74v222c0 50 -8 55 -32 60l-45 9v30h297c191 0 341 -85 341 -340c0 -234 -143 -353 -347 -353h-291v31l45 9c24 4 32 10 32 60v229h-74zM315 42c187 0 240 119 240 292c0 221 -67 317 -242 317c-49 0 -78 -4 -96 -9v-270h184v-43h-184v-190c0 -80 6 -97 98 -97
z" />
    <glyph glyph-name="eth" unicode="&#xf0;" horiz-adv-x="574" 
d="M163 579l-15 35l105 47c-40 30 -85 57 -133 79l16 30c71 -22 131 -49 183 -80l116 52l16 -35l-94 -42c124 -90 182 -212 182 -372c0 -229 -127 -306 -252 -306c-143 0 -253 91 -253 268c0 175 124 270 247 270c47 0 91 -17 127 -56c-17 54 -61 112 -121 165zM291 30
c90 0 142 67 142 217c0 173 -52 236 -150 236c-90 0 -139 -64 -139 -214c0 -170 49 -239 147 -239z" />
    <glyph glyph-name="Lslash" unicode="&#x141;" horiz-adv-x="571" 
d="M17 239v47l91 37v271c0 50 -8 55 -32 60l-45 9v30h270v-30l-52 -10c-26 -5 -32 -9 -32 -59v-227l198 81v-47l-198 -81v-178c0 -92 3 -98 111 -98c90 0 111 10 139 50c15 21 40 60 60 126h38l-13 -220h-521v31l45 9c24 4 32 10 32 60v176z" />
    <glyph glyph-name="lslash" unicode="&#x142;" horiz-adv-x="280" 
d="M14 304v47l79 42v257c0 40 -7 42 -30 53l-43 20v29l170 16l11 -9s-8 -49 -8 -116v-197l81 44v-47l-81 -44v-306c0 -42 6 -47 26 -52l41 -11v-30h-235v30l41 11c20 5 27 13 27 52v253z" />
    <glyph glyph-name="Scaron" unicode="&#x160;" horiz-adv-x="526" 
d="M242 -13c-82 0 -151 16 -196 30l-11 187h37c20 -47 33 -80 60 -118c26 -38 52 -50 120 -50c91 0 142 54 142 117c0 65 -42 102 -167 158c-122 55 -179 105 -179 206c0 107 88 189 222 189c77 0 130 -8 165 -18l13 -168h-36c-24 54 -31 71 -52 99c-19 22 -39 39 -97 39
c-75 0 -133 -45 -133 -110c0 -59 28 -87 142 -138c150 -67 212 -120 212 -206c0 -121 -81 -217 -242 -217zM246 758l-133 127l17 24l141 -70l141 70l18 -24l-133 -127h-51z" />
    <glyph glyph-name="scaron" unicode="&#x161;" horiz-adv-x="425" 
d="M190 -12c-57 0 -112 7 -152 22l-5 149h32c17 -39 24 -60 48 -90c19 -22 39 -38 87 -38c61 0 104 30 104 82c0 54 -36 75 -118 108c-87 34 -148 76 -148 154c0 93 83 150 188 150c55 0 96 -5 131 -18l4 -134h-30c-17 34 -32 58 -51 83c-15 18 -30 27 -66 27
c-66 0 -95 -29 -95 -80c0 -38 33 -65 117 -97c94 -36 156 -75 156 -152c0 -94 -77 -166 -202 -166zM196 598l-133 141l17 24l141 -84l141 84l18 -24l-133 -141h-51z" />
    <glyph glyph-name="Yacute" unicode="&#xdd;" horiz-adv-x="630" 
d="M186 0v31l49 9c24 5 31 10 31 60v180l-157 287c-36 64 -51 81 -79 89l-25 7v30h263v-30l-25 -6c-32 -7 -42 -18 -42 -36c0 -13 9 -29 22 -54l120 -230h4l116 230c12 25 17 41 17 54c0 19 -11 29 -36 35l-32 7v30h214v-30l-22 -7c-34 -11 -51 -25 -90 -103l-139 -265v-188
c0 -50 4 -55 32 -60l49 -9v-31h-270zM250 748l-11 24l162 114c15 10 27 15 39 15c23 0 41 -22 41 -43c0 -17 -9 -37 -37 -46z" />
    <glyph glyph-name="yacute" unicode="&#xfd;" horiz-adv-x="532" 
d="M103 -226c-62 0 -86 32 -86 65c0 31 18 54 49 54c32 0 47 -18 54 -41c5 -15 7 -18 16 -18c23 0 55 32 85 105l24 57l-168 409c-22 53 -25 58 -52 67l-24 8v29h228v-29l-27 -7c-23 -6 -29 -12 -29 -30c0 -13 5 -30 15 -54l108 -268h4l98 268c9 26 12 46 12 58
c0 17 -10 21 -28 26l-28 7v29h181v-29l-28 -8c-24 -7 -29 -20 -51 -77l-181 -454c-39 -98 -86 -167 -172 -167zM194 593l-11 24l162 114c15 10 27 15 39 15c23 0 41 -22 41 -43c0 -17 -9 -37 -37 -46z" />
    <glyph glyph-name="Thorn" unicode="&#xde;" horiz-adv-x="593" 
d="M32 0v31l45 9c23 4 31 10 31 60v494c0 50 -8 55 -31 60l-45 9v30h261v-30l-47 -9c-26 -6 -31 -10 -31 -60v-38h93c161 0 248 -68 248 -189c0 -124 -91 -202 -225 -202c-35 0 -56 6 -62 9v33c113 -3 176 28 176 150c0 116 -43 155 -144 155c-39 0 -71 -3 -86 -7v-405
c0 -50 4 -55 31 -60l47 -9v-31h-261z" />
    <glyph glyph-name="thorn" unicode="&#xfe;" horiz-adv-x="578" 
d="M70 -127v775c0 40 -7 42 -29 53l-43 20v28l169 16l10 -8s-7 -40 -7 -117v-91c0 -45 -4 -84 -4 -84h4c43 32 107 59 173 59c97 0 202 -55 202 -245s-115 -291 -289 -291c-26 0 -62 5 -89 13c0 0 3 -30 3 -64v-64c0 -42 5 -48 26 -52l54 -11v-29h-248v29l41 11
c21 5 27 13 27 52zM268 33c115 0 171 60 171 226c0 136 -57 202 -156 202c-56 0 -90 -23 -113 -34v-357c27 -24 55 -37 98 -37z" />
    <glyph glyph-name="Zcaron" unicode="&#x17d;" horiz-adv-x="571" 
d="M24 0v44l386 602v4h-70c-163 0 -185 -3 -212 -44c-20 -30 -33 -58 -53 -109h-32l10 196h470v-43l-382 -603v-4h54c171 0 208 6 235 42c20 28 33 61 60 128h32l-13 -213h-485zM257 758l-133 127l17 24l141 -70l141 70l18 -24l-133 -127h-51z" />
    <glyph glyph-name="zcaron" unicode="&#x17e;" horiz-adv-x="476" 
d="M25 0v33l310 433v4h-83c-81 0 -98 -6 -114 -30c-21 -31 -33 -55 -53 -98h-31l7 167h393v-31l-312 -435v-4h73c110 0 127 12 148 44c24 35 37 63 50 96h32l-12 -179h-408zM228 598l-133 141l17 24l141 -84l141 84l18 -24l-133 -141h-51z" />
    <glyph glyph-name="onehalf" unicode="&#xbd;" horiz-adv-x="800" 
d="M451 -104v44c54 42 98 81 133 118c45 47 77 86 77 155c0 68 -27 79 -73 79c-29 0 -33 -9 -37 -31c-5 -38 -16 -54 -48 -54c-27 0 -44 24 -44 44c0 37 53 75 138 75c93 0 154 -40 154 -122c0 -83 -101 -162 -221 -238v-3h142c32 0 38 8 57 52h23l-9 -119h-292zM24 271v26
l31 5c26 4 29 7 29 42v257h-61v30c65 12 104 36 136 72l17 -6v-353c0 -35 4 -38 29 -42l29 -5v-26h-210zM110 -50l506 764h58l-506 -764h-58z" />
    <glyph glyph-name="onequarter" unicode="&#xbc;" horiz-adv-x="800" 
d="M583 -104v26l25 5c24 5 29 7 29 42v28h-201v37l242 284h37v-275h64l-7 -46h-57v-28c0 -35 4 -37 28 -42l23 -5v-26h-183zM492 43h145v176h-3l-142 -173v-3zM24 271v26l31 5c26 4 29 7 29 42v257h-61v30c65 12 104 36 136 72l17 -6v-353c0 -35 4 -38 29 -42l29 -5v-26
h-210zM140 -50l506 764h58l-506 -764h-58z" />
    <glyph glyph-name="onesuperior" unicode="&#xb9;" horiz-adv-x="258" 
d="M24 271v26l31 5c26 4 29 7 29 42v257h-61v30c65 12 104 36 136 72l17 -6v-353c0 -35 4 -38 29 -42l29 -5v-26h-210z" />
    <glyph glyph-name="threequarters" unicode="&#xbe;" horiz-adv-x="800" 
d="M150 264c-78 0 -133 32 -133 75c0 20 15 42 40 42c27 0 43 -13 50 -46c7 -29 11 -37 47 -37c53 0 77 30 77 91c0 66 -24 82 -83 82h-33v37h30c54 0 77 19 77 84c0 60 -26 75 -65 75c-28 0 -35 -7 -38 -27c-5 -32 -14 -49 -46 -49c-25 0 -40 17 -40 39c0 44 62 71 137 71
c89 0 135 -40 135 -101c0 -46 -32 -91 -106 -106v-2c71 -7 123 -39 123 -105c0 -67 -49 -123 -172 -123zM583 -104v26l25 5c24 5 29 7 29 42v28h-201v37l242 284h37v-275h64l-7 -46h-57v-28c0 -35 4 -37 28 -42l23 -5v-26h-183zM492 43h145v176h-3l-142 -173v-3zM166 -50
l506 764h58l-506 -764h-58z" />
    <glyph glyph-name="threesuperior" unicode="&#xb3;" horiz-adv-x="352" 
d="M150 264c-78 0 -133 32 -133 75c0 20 15 42 40 42c27 0 43 -13 50 -46c7 -29 11 -37 47 -37c53 0 77 30 77 91c0 66 -24 82 -83 82h-33v37h30c54 0 77 19 77 84c0 60 -26 75 -65 75c-28 0 -35 -7 -38 -27c-5 -32 -14 -49 -46 -49c-25 0 -40 17 -40 39c0 44 62 71 137 71
c89 0 135 -40 135 -101c0 -46 -32 -91 -106 -106v-2c71 -7 123 -39 123 -105c0 -67 -49 -123 -172 -123z" />
    <glyph glyph-name="twosuperior" unicode="&#xb2;" horiz-adv-x="353" 
d="M22 271v45c54 42 98 80 133 117c45 47 77 86 77 155c0 68 -27 79 -73 79c-29 0 -33 -9 -37 -31c-5 -38 -16 -54 -48 -54c-27 0 -44 24 -44 44c0 37 53 75 138 75c93 0 154 -40 154 -122c0 -83 -101 -162 -221 -238v-3h142c32 0 38 8 57 52h23l-9 -119h-292z" />
    <glyph glyph-name="brokenbar" unicode="&#xa6;" horiz-adv-x="254" 
d="M97 328v406h60v-406h-60zM97 -130v384h60v-384h-60z" />
    <glyph glyph-name="minus" unicode="&#x2212;" horiz-adv-x="469" 
d="M41 310v56h387v-56h-387z" />
    <glyph glyph-name="multiply" unicode="&#xd7;" horiz-adv-x="451" 
d="M88 134l-44 42l140 144l-140 144l46 43l136 -144l140 144l41 -42l-139 -144l139 -144l-44 -43l-139 144z" />
    <glyph glyph-name="space" unicode=" " horiz-adv-x="251" 
 />
    <glyph glyph-name="exclam" unicode="!" horiz-adv-x="281" 
d="M122 209l-47 414c-6 54 28 79 65 79c36 0 71 -25 65 -79l-47 -414h-36zM140 -6c-40 0 -72 31 -72 70s32 71 72 71c41 0 73 -32 73 -71s-32 -70 -73 -70z" />
    <glyph glyph-name="quotedbl" unicode="&#x22;" horiz-adv-x="350" 
d="M238 434l-35 197c-10 53 21 73 52 73c30 0 63 -20 53 -73l-40 -197h-30zM82 434l-39 197c-11 53 21 73 52 73c30 0 62 -20 53 -73l-36 -197h-30z" />
    <glyph glyph-name="numbersign" unicode="#" horiz-adv-x="543" 
d="M86 0l41 196h-88l12 74h92l32 156h-87l12 74h92l41 193h52l-40 -193h118l41 193h53l-41 -193h89l-12 -74h-93l-33 -156h89l-12 -74h-93l-41 -196h-53l41 196h-119l-40 -196h-53zM196 270h118l33 156h-119z" />
    <glyph glyph-name="dollar" unicode="$" horiz-adv-x="512" 
d="M227 -140v128c-146 5 -210 62 -210 127c0 30 24 49 51 49c39 0 55 -11 61 -74c4 -38 15 -56 98 -59v279c-134 58 -187 113 -187 209c0 93 79 169 187 180v85h48v-84c127 -5 184 -61 184 -109c0 -30 -22 -52 -54 -52c-42 0 -52 20 -57 71c-4 34 -17 46 -73 48v-257
c142 -64 198 -118 198 -215c0 -113 -85 -188 -198 -198v-128h-48zM382 154c0 56 -22 93 -107 135v-257c79 8 107 57 107 122zM125 551c0 -57 24 -89 102 -128v233c-68 -9 -102 -49 -102 -105z" />
    <glyph glyph-name="percent" unicode="%" horiz-adv-x="788" 
d="M195 348c-71 0 -161 53 -161 171c0 126 95 184 164 184s161 -54 161 -174c0 -124 -97 -181 -164 -181zM104 -50l505 764h59l-505 -764h-59zM590 -14c-71 0 -161 53 -161 171c0 126 95 184 164 184s161 -54 161 -174c0 -124 -97 -181 -164 -181zM196 383
c49 0 78 40 78 136c0 105 -29 149 -78 149c-48 0 -76 -41 -76 -138c0 -102 28 -147 76 -147zM591 21c49 0 77 40 77 136c0 105 -28 149 -77 149c-48 0 -76 -41 -76 -138c0 -102 28 -147 76 -147z" />
    <glyph glyph-name="ampersand" unicode="&#x26;" horiz-adv-x="688" 
d="M266 -13c-192 0 -241 106 -241 192c0 102 82 161 171 209c-41 54 -58 100 -58 149c0 105 90 168 171 168s167 -43 167 -136c0 -79 -65 -128 -166 -175c46 -68 107 -151 171 -230c33 56 44 103 44 131s-11 36 -34 41l-32 6v30h204v-30l-31 -8c-24 -6 -31 -21 -47 -53
c-17 -37 -36 -90 -74 -152c21 -26 38 -46 53 -62c10 -11 21 -21 40 -25l47 -11v-31h-158c-14 14 -31 36 -44 52c-45 -36 -105 -65 -183 -65zM289 424c67 39 99 74 99 139c0 79 -37 97 -79 97c-54 0 -83 -33 -83 -86s29 -103 63 -150zM289 36c59 0 104 23 129 49
c-75 90 -145 185 -202 272c-50 -41 -76 -89 -76 -158c0 -96 50 -163 149 -163z" />
    <glyph glyph-name="quotesingle" unicode="'" horiz-adv-x="187" 
d="M79 434l-38 197c-9 53 22 73 53 73c30 0 62 -20 52 -73l-37 -197h-30z" />
    <glyph glyph-name="parenleft" unicode="(" horiz-adv-x="329" 
d="M293 -141c-112 88 -243 231 -243 446c0 196 131 352 243 440l26 -28c-94 -98 -170 -237 -170 -395c0 -209 76 -337 170 -435z" />
    <glyph glyph-name="parenright" unicode=")" horiz-adv-x="329" 
d="M36 745c112 -88 243 -230 243 -445c0 -196 -131 -353 -243 -441l-26 28c94 98 170 237 170 395c0 209 -76 337 -170 435z" />
    <glyph glyph-name="asterisk" unicode="*" horiz-adv-x="427" 
d="M104 374c-21 15 -31 47 2 72l92 70l-116 11c-39 5 -50 31 -41 55c8 22 33 37 67 16l93 -58l-27 107c-11 41 15 57 40 57s49 -16 38 -57l-27 -107l94 58c34 20 59 6 67 -19c8 -23 -3 -47 -41 -52l-116 -11l91 -70c33 -25 23 -58 1 -72c-20 -13 -48 -12 -64 25l-42 103
l-46 -103c-17 -36 -45 -40 -65 -25z" />
    <glyph glyph-name="plus" unicode="+" horiz-adv-x="469" 
d="M202 131v179h-161v56h161v179h65v-179h161v-56h-161v-179h-65z" />
    <glyph glyph-name="comma" unicode="," horiz-adv-x="311" 
d="M53 -161l-11 28c100 43 129 94 129 147c-5 -5 -17 -11 -31 -11c-41 0 -64 29 -64 66c0 39 32 66 74 66c53 0 92 -36 92 -107c0 -72 -53 -158 -189 -189z" />
    <glyph glyph-name="hyphen" unicode="-" horiz-adv-x="284" 
d="M33 254l9 74h210l-9 -74h-210z" />
    <glyph glyph-name="period" unicode="." horiz-adv-x="297" 
d="M148 -6c-40 0 -72 31 -72 70s32 71 72 71c41 0 73 -32 73 -71s-32 -70 -73 -70z" />
    <glyph glyph-name="slash" unicode="/" horiz-adv-x="386" 
d="M3 -130l301 864h60l-302 -864h-59z" />
    <glyph glyph-name="zero" unicode="0" horiz-adv-x="642" 
d="M318 -12c-125 0 -278 96 -278 347c0 263 159 370 284 370s278 -98 278 -351c0 -261 -159 -366 -284 -366zM321 35c110 0 167 93 167 300c0 220 -57 324 -167 324c-109 0 -167 -94 -167 -305c0 -216 58 -319 167 -319z" />
    <glyph glyph-name="one" unicode="1" horiz-adv-x="360" 
d="M38 0v31l58 9c24 4 34 10 34 60v469h-94v31c93 19 131 48 178 100l26 -3v-597c0 -50 5 -55 31 -60l53 -9v-31h-286z" />
    <glyph glyph-name="two" unicode="2" horiz-adv-x="517" 
d="M21 0v53c82 66 167 144 215 197c80 89 129 147 129 264c0 109 -61 150 -124 150c-58 0 -72 -15 -76 -48c-5 -44 -24 -70 -62 -70c-40 0 -58 24 -58 57c0 52 71 102 206 102c128 0 226 -65 226 -198c0 -147 -167 -283 -349 -415v-4h231c55 0 64 8 99 78h28l-16 -166h-449z
" />
    <glyph glyph-name="three" unicode="3" horiz-adv-x="529" 
d="M208 -12c-118 0 -192 37 -192 102c0 25 18 56 56 56c31 0 51 -14 62 -46c17 -57 13 -70 82 -70c102 0 142 73 142 164c0 90 -36 143 -145 143h-55v46h45c96 0 136 47 136 144c0 92 -45 137 -122 137c-41 0 -56 -6 -61 -51c-5 -43 -25 -64 -59 -64c-39 0 -56 30 -56 55
c0 67 99 101 192 101c142 0 214 -74 214 -166c0 -77 -49 -145 -169 -173v-3c124 -13 193 -74 193 -173c0 -103 -85 -202 -263 -202z" />
    <glyph glyph-name="four" unicode="4" horiz-adv-x="566" 
d="M248 0v31l46 9c23 4 31 10 31 60v99h-302v45l352 449h53v-434h110l-11 -60h-99v-99c0 -50 4 -55 32 -60l48 -9v-31h-260zM90 259h235v297h-3l-232 -295v-2z" />
    <glyph glyph-name="five" unicode="5" horiz-adv-x="526" 
d="M221 -12c-103 0 -184 35 -184 101c0 25 18 57 57 57c35 0 56 -13 65 -60c9 -46 15 -56 66 -56c112 0 164 62 164 165c0 116 -80 158 -181 158c-49 0 -94 -9 -119 -18l-7 6l39 352h264c26 0 32 6 55 52h29l-18 -140h-288l-23 -174c23 6 48 13 97 13
c128 0 244 -66 244 -219c0 -147 -124 -237 -260 -237z" />
    <glyph glyph-name="six" unicode="6" horiz-adv-x="572" 
d="M299 -12c-146 0 -259 111 -259 306c0 291 182 411 336 411c86 0 153 -26 153 -83c0 -30 -19 -53 -54 -53c-38 0 -55 18 -65 57c-6 22 -13 38 -53 38c-82 0 -191 -80 -202 -300c39 31 95 58 167 58c122 0 210 -80 210 -212c0 -139 -112 -222 -233 -222zM300 35
c96 0 122 54 122 162c0 115 -44 172 -131 172c-53 0 -100 -17 -137 -43c-1 -17 -1 -6 -1 -25c0 -125 13 -266 147 -266z" />
    <glyph glyph-name="seven" unicode="7" horiz-adv-x="499" 
d="M117 0c64 265 181 455 291 606h-288c-37 0 -41 -10 -65 -68h-30l18 155h439v-50c-131 -191 -209 -373 -254 -643h-111z" />
    <glyph glyph-name="eight" unicode="8" horiz-adv-x="549" 
d="M274 -13c-113 0 -241 54 -241 178c0 78 69 143 154 189v3c-77 43 -123 92 -123 166c0 102 93 182 214 182c105 0 209 -54 209 -159c0 -71 -61 -129 -134 -173v-3c98 -55 159 -100 159 -185c0 -105 -97 -198 -238 -198zM322 393c35 34 78 79 78 150c0 79 -48 116 -126 116
c-77 0 -124 -43 -124 -104c0 -71 91 -120 172 -162zM280 34c90 0 141 49 141 119c0 81 -101 127 -204 183c-38 -31 -93 -80 -93 -162c0 -94 63 -140 156 -140z" />
    <glyph glyph-name="nine" unicode="9" horiz-adv-x="572" 
d="M273 704c146 0 259 -111 259 -306c0 -291 -155 -411 -325 -411c-86 0 -154 26 -154 83c0 30 20 53 55 53c38 0 55 -18 65 -57c6 -22 12 -38 53 -38c102 0 180 80 191 300c-39 -31 -95 -58 -168 -58c-122 0 -209 80 -209 213c0 138 112 221 233 221zM272 657
c-96 0 -122 -54 -122 -161c0 -116 44 -173 131 -173c53 0 100 17 137 43c1 17 1 6 1 25c0 125 -13 266 -147 266z" />
    <glyph glyph-name="colon" unicode=":" horiz-adv-x="306" 
d="M153 324c-40 0 -72 31 -72 70s32 70 72 70s72 -31 72 -70s-32 -70 -72 -70zM153 -6c-40 0 -72 31 -72 70s32 71 72 71s72 -32 72 -71s-32 -70 -72 -70z" />
    <glyph glyph-name="semicolon" unicode=";" horiz-adv-x="307" 
d="M153 324c-40 0 -72 31 -72 70s32 70 72 70s72 -31 72 -70s-32 -70 -72 -70zM55 -161l-11 28c100 43 129 94 129 147c-5 -5 -17 -11 -31 -11c-41 0 -64 29 -64 66c0 39 32 66 74 66c53 0 92 -36 92 -107c0 -72 -53 -158 -189 -189z" />
    <glyph glyph-name="less" unicode="&#x3c;" horiz-adv-x="469" 
d="M424 109l-379 171v66l379 170v-61l-324 -142l324 -142v-62z" />
    <glyph glyph-name="equal" unicode="=" horiz-adv-x="500" 
d="M41 369v57h418v-57h-418zM41 207v56h418v-56h-418z" />
    <glyph glyph-name="greater" unicode="&#x3e;" horiz-adv-x="469" 
d="M45 516l379 -170v-66l-379 -171v61l324 142l-324 142v62z" />
    <glyph glyph-name="question" unicode="?" horiz-adv-x="449" 
d="M149 202v165c79 25 166 78 166 180c0 79 -55 117 -111 117c-38 0 -49 -6 -54 -41c-6 -41 -23 -60 -58 -60c-38 0 -53 26 -53 52c0 60 72 90 147 90c131 0 217 -63 217 -191c0 -112 -88 -184 -202 -220v-92h-52zM176 -6c-40 0 -72 31 -72 70s32 71 72 71
c41 0 73 -32 73 -71s-32 -70 -73 -70z" />
    <glyph glyph-name="at" unicode="@" horiz-adv-x="907" 
d="M426 -163c-231 0 -388 151 -388 368c0 264 215 471 469 471c215 0 363 -124 363 -311c0 -246 -163 -326 -266 -326c-85 0 -100 46 -96 109h-4c-44 -74 -95 -107 -151 -107c-55 0 -98 40 -98 115c0 198 152 332 254 332c45 0 70 -13 94 -30h4l37 28l19 -9
s-16 -35 -30 -103l-34 -187c-12 -69 -7 -96 36 -96c86 0 166 83 166 239c0 187 -95 302 -294 302c-234 0 -387 -190 -387 -399s104 -346 334 -346c84 0 159 16 244 54v-39c-55 -32 -148 -65 -272 -65zM390 102c39 0 82 48 121 105l41 207c-7 11 -18 33 -50 33
c-73 0 -155 -126 -155 -277c0 -52 13 -68 43 -68z" />
    <glyph glyph-name="A" unicode="A" horiz-adv-x="667" 
d="M1 0v31l30 7c28 7 39 13 67 90l203 565h60l213 -576c26 -67 39 -72 64 -79l28 -7v-31h-251v31l28 7c27 7 35 13 35 29c0 15 -7 33 -16 59l-39 107h-232l-36 -107c-9 -27 -13 -40 -13 -54c0 -21 12 -29 36 -34l34 -7v-31h-211zM302 560l-96 -282h201l-100 282h-5z" />
    <glyph glyph-name="B" unicode="B" horiz-adv-x="624" 
d="M31 0v31l45 9c24 4 32 10 32 60v494c0 50 -8 55 -32 60l-45 9v30h275c150 0 246 -46 246 -163c0 -94 -61 -143 -170 -162v-4c136 -11 207 -66 207 -169c0 -127 -103 -195 -258 -195h-300zM217 382h86c88 0 139 47 139 128c0 110 -45 139 -145 139c-31 0 -62 -2 -80 -6
v-261zM321 44c94 0 152 38 152 137c0 109 -44 156 -156 156h-100v-215c0 -70 11 -78 104 -78z" />
    <glyph glyph-name="C" unicode="C" horiz-adv-x="630" 
d="M365 -12c-189 0 -326 102 -326 353c0 267 159 364 349 364c77 0 145 -11 189 -24l9 -198h-35c-19 50 -42 105 -65 139c-21 31 -41 37 -110 37c-144 0 -221 -71 -221 -299c0 -244 70 -326 207 -326c91 0 113 22 137 57c28 43 39 68 58 121h32l-10 -180
c-46 -22 -128 -44 -214 -44z" />
    <glyph glyph-name="D" unicode="D" horiz-adv-x="705" 
d="M31 0v31l45 9c24 4 32 10 32 60v494c0 50 -8 55 -32 60l-45 9v30h297c191 0 341 -85 341 -340c0 -234 -143 -353 -347 -353h-291zM315 42c187 0 240 119 240 292c0 221 -67 317 -242 317c-49 0 -78 -4 -96 -9v-503c0 -80 6 -97 98 -97z" />
    <glyph glyph-name="E" unicode="E" horiz-adv-x="617" 
d="M31 0v31l45 9c24 4 32 10 32 60v494c0 50 -8 55 -32 60l-45 9v30h517l13 -177h-36c-21 49 -36 77 -48 94c-28 38 -46 39 -136 39c-73 0 -104 -4 -124 -9v-257h44c78 0 106 3 121 31c11 22 17 39 25 69h35v-246h-35c-10 30 -14 43 -25 69c-14 30 -32 31 -121 31h-44v-185
c0 -107 3 -108 133 -108c93 0 109 2 137 37c16 21 40 73 60 128h37l-15 -209h-538z" />
    <glyph glyph-name="F" unicode="F" horiz-adv-x="587" 
d="M31 0v31l45 9c24 4 32 10 32 60v494c0 50 -8 55 -32 60l-45 9v30h510l10 -187h-37c-23 59 -35 87 -50 106c-29 39 -47 37 -136 37c-56 0 -88 -3 -111 -7v-271h22c94 0 115 8 128 29s21 41 29 74h34v-258h-34c-9 35 -16 55 -31 83c-13 24 -26 26 -126 26h-22v-225
c0 -50 4 -54 32 -59l59 -10v-31h-277z" />
    <glyph glyph-name="G" unicode="G" horiz-adv-x="690" 
d="M381 -12c-209 0 -342 111 -342 353c0 268 164 364 349 364c92 0 149 -7 200 -19l14 -199h-36c-22 65 -46 103 -60 124c-23 35 -32 46 -124 46c-150 0 -229 -79 -229 -292c0 -232 64 -328 226 -328c57 0 95 10 122 23v138c0 50 -7 54 -32 59l-48 10v31h255v-31l-35 -8
c-24 -6 -31 -11 -31 -61v-175c-53 -15 -133 -35 -229 -35z" />
    <glyph glyph-name="H" unicode="H" horiz-adv-x="741" 
d="M31 0v31l45 9c24 4 32 10 32 60v494c0 50 -8 55 -32 60l-45 9v30h266v-30l-48 -9c-27 -6 -32 -10 -32 -60v-218h306v218c0 50 -5 54 -31 60l-48 9v30h266v-30l-46 -9c-25 -5 -32 -10 -32 -60v-494c0 -50 6 -55 32 -60l46 -9v-31h-266v31l48 9c27 5 31 10 31 60v230h-306
v-230c0 -50 4 -55 32 -60l48 -9v-31h-266z" />
    <glyph glyph-name="I" unicode="I" horiz-adv-x="333" 
d="M31 0v31l49 9c25 4 32 10 32 60v494c0 50 -7 56 -32 60l-49 9v30h272v-30l-50 -9c-27 -5 -32 -10 -32 -60v-494c0 -50 5 -55 32 -60l50 -9v-31h-272z" />
    <glyph glyph-name="J" unicode="J" horiz-adv-x="311" 
d="M21 -163c-76 0 -115 32 -115 74c0 27 18 50 55 50c41 0 53 -22 63 -59c7 -20 8 -24 28 -24c34 0 56 23 56 96v620c0 50 -5 54 -32 60l-48 9v30h267v-30l-46 -9c-25 -5 -32 -10 -32 -60v-535c0 -129 -65 -222 -196 -222z" />
    <glyph glyph-name="K" unicode="K" horiz-adv-x="658" 
d="M494 0c-87 96 -179 227 -244 344v13l183 210c27 29 36 48 36 59c0 14 -18 24 -38 29l-34 8v30h231v-30l-16 -5c-35 -8 -51 -24 -99 -76l-175 -190c61 -106 162 -245 238 -330c15 -16 20 -18 33 -21l47 -10v-31h-162zM31 0v31l45 9c24 4 32 10 32 60v494
c0 50 -8 55 -32 60l-45 9v30h266v-30l-48 -9c-27 -6 -32 -10 -32 -60v-494c0 -50 4 -55 32 -60l48 -9v-31h-266z" />
    <glyph glyph-name="L" unicode="L" horiz-adv-x="584" 
d="M31 0v31l45 9c24 4 32 10 32 60v494c0 50 -8 55 -32 60l-45 9v30h270v-30l-52 -10c-26 -5 -32 -9 -32 -59v-452c0 -92 3 -98 111 -98c90 0 111 10 139 50c15 21 40 60 60 126h38l-13 -220h-521z" />
    <glyph glyph-name="M" unicode="M" horiz-adv-x="853" 
d="M31 0v31l35 7c29 6 42 12 42 72v484c0 50 -8 55 -32 60l-45 9v30h217l184 -528h3l178 528h209v-30l-46 -9c-24 -5 -31 -10 -31 -60v-494c0 -50 6 -55 31 -60l46 -9v-31h-255v31l42 9c27 6 31 10 31 60v530h-4l-201 -614h-52l-217 614h-4v-520c0 -60 8 -66 42 -72l37 -7
v-31h-210z" />
    <glyph glyph-name="N" unicode="N" horiz-adv-x="705" 
d="M549 -4l-383 607h-4v-493c0 -60 8 -66 42 -72l42 -7v-31h-215v31l35 7c29 6 42 12 42 72v484c0 50 -8 55 -32 60l-45 9v30h203l314 -504h4v395c0 60 -8 67 -42 72l-47 7v30h220v-30l-35 -7c-29 -6 -42 -12 -42 -72v-588h-57z" />
    <glyph glyph-name="O" unicode="O" horiz-adv-x="714" 
d="M352 -12c-176 0 -313 120 -313 349c0 259 157 368 323 368c175 0 313 -125 313 -354c0 -259 -157 -363 -323 -363zM360 37c138 0 201 83 201 297c0 160 -45 323 -208 323c-138 0 -200 -89 -200 -303c0 -160 45 -317 207 -317z" />
    <glyph glyph-name="P" unicode="P" horiz-adv-x="593" 
d="M31 0v31l45 9c24 4 32 10 32 60v494c0 50 -6 54 -22 57l-55 12v30h284c164 0 250 -75 250 -201s-94 -222 -221 -222c-41 0 -64 8 -71 13v30c119 -6 179 34 179 169c0 118 -41 167 -143 167c-41 0 -77 -3 -92 -7v-542c0 -50 3 -56 32 -60l59 -9v-31h-277z" />
    <glyph glyph-name="Q" unicode="Q" horiz-adv-x="714" 
d="M606 -167c-71 0 -116 16 -176 53c-51 32 -85 62 -142 108c-150 29 -249 149 -249 343c0 259 157 369 323 369c175 0 313 -126 313 -355c0 -209 -100 -317 -238 -352v-3c27 -22 66 -49 92 -64c55 -32 103 -44 150 -44c30 0 57 11 73 17v-26c-24 -21 -68 -46 -146 -46z
M360 37c138 0 201 83 201 297c0 160 -45 324 -208 324c-138 0 -200 -90 -200 -304c0 -160 45 -317 207 -317z" />
    <glyph glyph-name="R" unicode="R" horiz-adv-x="652" 
d="M31 0v31l45 9c24 4 32 10 32 60v494c0 50 -8 55 -32 60l-45 9v30h291c161 0 234 -60 234 -176c0 -74 -56 -143 -159 -173v-3c54 -93 125 -204 181 -276c11 -14 21 -20 52 -28l22 -6v-31h-152c-75 96 -144 206 -198 313h-87v-213c0 -50 6 -55 34 -60l48 -9v-31h-266z
M275 359c119 0 168 44 168 148c0 122 -42 142 -134 142c-44 0 -76 -3 -94 -7v-279s32 -4 60 -4z" />
    <glyph glyph-name="S" unicode="S" horiz-adv-x="526" 
d="M242 -13c-82 0 -151 16 -196 30l-11 187h37c20 -47 33 -80 60 -118c26 -38 52 -50 120 -50c91 0 142 54 142 117c0 65 -42 102 -167 158c-122 55 -179 105 -179 206c0 107 88 189 222 189c77 0 130 -8 165 -18l13 -168h-36c-24 54 -31 71 -52 99c-19 22 -39 39 -97 39
c-75 0 -133 -45 -133 -110c0 -59 28 -87 142 -138c150 -67 212 -120 212 -206c0 -121 -81 -217 -242 -217z" />
    <glyph glyph-name="T" unicode="T" horiz-adv-x="619" 
d="M174 0v31l49 9c25 5 32 10 32 60v551h-7c-103 0 -114 0 -144 -52c-20 -35 -28 -62 -46 -118h-37l10 212h557l10 -212h-37c-18 56 -26 83 -46 118c-30 52 -41 52 -144 52h-7v-551c0 -50 4 -55 32 -60l49 -9v-31h-271z" />
    <glyph glyph-name="U" unicode="U" horiz-adv-x="701" 
d="M356 -12c-160 0 -262 70 -262 237v369c0 50 -7 55 -32 60l-46 9v30h262v-30l-43 -9c-28 -6 -32 -10 -32 -60v-379c0 -116 49 -169 179 -169c120 0 172 65 172 178v360c0 60 -8 67 -42 72l-50 7v30h222v-30l-35 -7c-29 -6 -42 -12 -42 -72v-367c0 -123 -72 -229 -251 -229
z" />
    <glyph glyph-name="V" unicode="V" horiz-adv-x="664" 
d="M304 0l-207 564c-26 68 -32 83 -65 92l-25 7v30h253v-30l-29 -7c-24 -6 -34 -17 -34 -34c0 -15 7 -41 16 -67l149 -422h5l141 422c7 21 14 48 14 63c0 23 -12 33 -37 38l-34 7v30h206v-30l-28 -7c-30 -8 -33 -21 -63 -103l-196 -553h-66z" />
    <glyph glyph-name="W" unicode="W" horiz-adv-x="962" 
d="M276 0l-177 564c-25 73 -33 85 -62 92l-27 7v30h252v-30l-32 -7c-23 -5 -32 -17 -32 -37c0 -16 7 -40 14 -64l123 -412h5l124 366l-18 55c-24 72 -34 85 -63 92l-27 7v30h251v-30l-32 -7c-20 -4 -34 -17 -34 -37c0 -16 6 -42 13 -64l134 -412h5l111 412c6 22 12 49 12 66
s-8 30 -31 35l-34 7v30h202v-30l-31 -7c-32 -7 -41 -35 -63 -110l-159 -546h-70l-138 430h-4l-146 -430h-66z" />
    <glyph glyph-name="X" unicode="X" horiz-adv-x="680" 
d="M28 0v31l29 6c28 6 38 20 81 82l143 217l-157 248c-31 49 -40 65 -68 72l-28 7v30h267v-30l-37 -7c-14 -3 -25 -14 -25 -28c0 -12 8 -29 24 -55l104 -170h3l102 180c14 22 18 37 18 48c0 14 -8 22 -22 25l-35 7v30h199v-30l-29 -7c-26 -7 -39 -23 -76 -81l-128 -207
l161 -252c32 -51 42 -73 71 -79l27 -6v-31h-262v31l33 5c22 3 30 12 30 25c0 12 -12 33 -27 58l-113 181h-3l-118 -189c-12 -20 -21 -36 -21 -47c0 -16 10 -25 24 -28l28 -5v-31h-195z" />
    <glyph glyph-name="Y" unicode="Y" horiz-adv-x="630" 
d="M186 0v31l49 9c24 5 31 10 31 60v180l-157 287c-36 64 -51 81 -79 89l-25 7v30h263v-30l-25 -6c-32 -7 -42 -18 -42 -36c0 -13 9 -29 22 -54l120 -230h4l116 230c12 25 17 41 17 54c0 19 -11 29 -36 35l-32 7v30h214v-30l-22 -7c-34 -11 -51 -25 -90 -103l-139 -265v-188
c0 -50 4 -55 32 -60l49 -9v-31h-270z" />
    <glyph glyph-name="Z" unicode="Z" horiz-adv-x="571" 
d="M24 0v44l386 602v4h-70c-163 0 -185 -3 -212 -44c-20 -30 -33 -58 -53 -109h-32l10 196h470v-43l-382 -603v-4h54c171 0 208 6 235 42c20 28 33 61 60 128h32l-13 -213h-485z" />
    <glyph glyph-name="bracketleft" unicode="[" horiz-adv-x="360" 
d="M107 -130v864h217v-30l-91 -11c-32 -4 -37 -11 -37 -63v-656c0 -52 5 -59 37 -63l91 -11v-30h-217z" />
    <glyph glyph-name="backslash" unicode="\" horiz-adv-x="386" 
d="M324 -130l-301 864h59l302 -864h-60z" />
    <glyph glyph-name="bracketright" unicode="]" horiz-adv-x="360" 
d="M253 734v-864h-217v30l90 11c33 4 38 11 38 63v656c0 52 -5 59 -38 63l-90 11v30h217z" />
    <glyph glyph-name="asciicircum" unicode="^" horiz-adv-x="417" 
d="M72 472l-21 19l140 212h35l140 -212l-21 -19l-136 130z" />
    <glyph glyph-name="underscore" unicode="_" horiz-adv-x="343" 
d="M-2 -180v56h347v-56h-347z" />
    <glyph glyph-name="grave" unicode="`" horiz-adv-x="510" 
d="M363 593l-195 64c-28 9 -37 29 -37 46c0 21 18 43 41 43c12 0 24 -5 39 -15l163 -114z" />
    <glyph glyph-name="a" unicode="a" horiz-adv-x="510" 
d="M179 -13c-93 0 -152 47 -152 133c0 82 59 123 175 150l117 26v93c0 67 -10 97 -95 97c-44 0 -51 -10 -55 -40c-5 -38 -15 -67 -60 -67c-40 0 -53 24 -53 50c0 66 105 96 189 96c120 0 174 -44 174 -130v-295c0 -26 7 -42 27 -52c11 -6 27 -8 49 -9v-28
c-16 -11 -53 -23 -88 -23c-51 0 -78 25 -84 58h-5c-24 -33 -80 -59 -139 -59zM222 44c48 0 83 22 97 47v154l-77 -8c-72 -7 -113 -34 -113 -109c0 -58 35 -84 93 -84z" />
    <glyph glyph-name="b" unicode="b" horiz-adv-x="582" 
d="M259 -12c-77 0 -132 9 -189 37v623c0 40 -7 42 -29 53l-43 20v28l169 16l10 -8s-7 -40 -7 -117v-91c0 -45 -4 -84 -4 -84h4c43 32 107 59 174 59c97 0 201 -55 201 -245s-120 -291 -286 -291zM270 33c115 0 170 60 170 226c0 136 -58 202 -144 202
c-69 0 -102 -20 -126 -34v-360c28 -24 57 -34 100 -34z" />
    <glyph glyph-name="c" unicode="c" horiz-adv-x="486" 
d="M270 -12c-154 0 -236 109 -236 260c0 215 162 277 285 277c96 0 141 -33 141 -84c0 -31 -24 -65 -59 -65c-39 0 -51 21 -56 54c-7 45 -17 52 -52 52c-83 0 -153 -54 -153 -198c0 -150 60 -232 172 -232c67 0 121 25 154 43v-40c-31 -27 -102 -67 -196 -67z" />
    <glyph glyph-name="d" unicode="d" horiz-adv-x="597" 
d="M239 -12c-97 0 -201 61 -201 251c0 195 137 285 282 285c42 0 75 -6 95 -12c0 0 -3 40 -3 76v60c0 40 -7 42 -30 53l-42 20v28l168 16l10 -8s-6 -40 -6 -117v-525c0 -45 6 -51 30 -62l37 -17v-27l-159 -21l-7 6l5 53h-4c-43 -32 -109 -59 -175 -59zM294 56
c61 0 95 22 118 33v349c-22 21 -53 42 -99 42c-105 0 -170 -59 -170 -221c0 -144 54 -203 151 -203z" />
    <glyph glyph-name="e" unicode="e" horiz-adv-x="519" 
d="M281 -12c-166 0 -247 110 -247 272c0 160 115 265 247 265c127 0 204 -69 204 -255h-345c3 -152 72 -218 174 -218c77 0 123 24 161 42v-40c-27 -22 -98 -66 -194 -66zM277 483c-73 0 -128 -53 -136 -171l232 12c0 115 -19 159 -96 159z" />
    <glyph glyph-name="f" unicode="f" horiz-adv-x="319" 
d="M25 0v30l41 11c20 5 27 13 27 52v363h-71v30l71 24v55c0 124 93 202 224 202c64 0 93 -25 93 -63c0 -23 -17 -49 -49 -49c-38 0 -58 21 -62 50c-3 20 -6 25 -20 25c-39 0 -86 -28 -86 -112v-109h117l-15 -53h-102v-358c0 -47 5 -53 26 -57l54 -11v-30h-248z" />
    <glyph glyph-name="g" unicode="g" horiz-adv-x="508" 
d="M210 -224c-135 0 -217 49 -217 120c0 49 44 93 115 118v4c-34 12 -67 37 -67 83c0 55 44 90 77 113v4c-41 18 -85 70 -85 132c0 118 103 174 198 174c40 0 71 -6 106 -20c35 29 80 54 125 54c31 0 55 -16 55 -47c0 -25 -15 -49 -42 -49c-26 0 -37 12 -45 30
c-6 15 -42 3 -68 -11v-3c41 -24 68 -63 68 -119c0 -118 -103 -170 -199 -170c-33 0 -53 4 -78 15c-16 -10 -35 -31 -35 -55c0 -25 20 -46 63 -46h158c86 0 145 -28 145 -127c0 -78 -65 -200 -274 -200zM231 230c63 0 97 31 97 117c0 98 -34 137 -97 137
c-62 0 -96 -35 -96 -122c0 -97 34 -132 96 -132zM227 -182c99 0 183 51 183 117c0 45 -18 77 -90 77h-154c-32 -8 -80 -47 -80 -100c0 -61 45 -94 141 -94z" />
    <glyph glyph-name="h" unicode="h" horiz-adv-x="604" 
d="M25 0v30l41 11c20 5 27 13 27 52v555c0 40 -7 42 -30 53l-43 20v28l170 16l10 -8s-7 -50 -7 -117v-91c0 -45 -5 -88 -5 -88h4c50 32 125 63 189 63c101 0 136 -43 136 -133v-298c0 -39 8 -47 27 -52l40 -11v-30h-234v30l41 11c20 5 26 10 26 52v270c0 70 -23 95 -87 95
c-49 0 -108 -20 -137 -31v-334c0 -42 6 -47 26 -52l41 -11v-30h-235z" />
    <glyph glyph-name="i" unicode="i" horiz-adv-x="279" 
d="M139 614c-38 0 -68 32 -68 65c0 36 30 65 68 65c37 0 67 -29 67 -65c0 -33 -30 -65 -67 -65zM25 0v30l41 11c20 5 27 13 27 52v310c0 40 -5 42 -30 54l-38 19v26l165 21l10 -6s-7 -41 -7 -112v-312c0 -42 6 -47 26 -52l41 -11v-30h-235z" />
    <glyph glyph-name="j" unicode="j" horiz-adv-x="271" 
d="M137 614c-38 0 -68 32 -68 65c0 36 30 65 68 65c37 0 67 -29 67 -65c0 -33 -30 -65 -67 -65zM11 -228c-62 0 -93 34 -93 69c0 27 22 47 53 47c39 0 49 -22 52 -45c4 -31 9 -34 19 -34c31 0 51 27 51 64v530c0 40 -5 42 -30 54l-38 19v26l165 21l10 -6s-7 -41 -7 -117
v-422c0 -151 -82 -206 -182 -206z" />
    <glyph glyph-name="k" unicode="k" horiz-adv-x="542" 
d="M25 0v30l41 11c20 5 27 13 27 52v555c0 40 -7 42 -30 53l-43 20v28l170 16l10 -8s-7 -50 -7 -117v-547c0 -42 6 -47 26 -52l41 -11v-30h-235zM408 0c-78 83 -133 157 -198 252v15l103 112c41 47 55 63 55 75c0 10 -7 17 -24 22l-15 5v28h187v-29l-31 -10
c-28 -9 -51 -22 -91 -62l-102 -110c58 -86 120 -167 189 -240c9 -10 16 -14 27 -17l34 -11v-30h-134z" />
    <glyph glyph-name="l" unicode="l" horiz-adv-x="280" 
d="M25 0v30l41 11c20 5 27 13 27 52v555c0 40 -7 42 -30 53l-43 20v28l170 16l10 -8s-7 -50 -7 -117v-547c0 -42 6 -47 26 -52l41 -11v-30h-235z" />
    <glyph glyph-name="m" unicode="m" horiz-adv-x="896" 
d="M25 0v30l41 11c20 5 27 13 27 52v310c0 40 -5 42 -30 54l-38 19v26l158 21l10 -8l-5 -54h4c50 32 118 63 180 63c73 0 103 -24 121 -65h4c55 32 116 65 190 65c88 0 122 -44 122 -134v-297c0 -39 8 -47 26 -52l41 -11v-30h-235v30l41 11c21 5 27 10 27 52v269
c0 67 -17 96 -78 96c-49 0 -100 -19 -130 -33v-332c0 -39 8 -47 26 -52l41 -11v-30h-235v30l41 11c21 5 27 10 27 52v269c0 66 -17 96 -78 96c-49 0 -101 -19 -130 -31v-334c0 -42 6 -47 26 -52l41 -11v-30h-235z" />
    <glyph glyph-name="n" unicode="n" horiz-adv-x="605" 
d="M25 0v30l41 11c20 5 27 13 27 52v310c0 40 -5 42 -30 54l-38 19v26l158 21l10 -6l-5 -56h4c50 32 125 63 189 63c101 0 136 -43 136 -133v-298c0 -39 8 -47 27 -52l40 -11v-30h-234v30l41 11c20 5 26 10 26 52v270c0 70 -23 95 -87 95c-49 0 -108 -20 -137 -31v-334
c0 -42 6 -47 26 -52l41 -11v-30h-235z" />
    <glyph glyph-name="o" unicode="o" horiz-adv-x="573" 
d="M287 -13c-143 0 -253 91 -253 268c0 175 122 270 253 270c142 0 252 -87 252 -264c0 -175 -122 -274 -252 -274zM291 30c90 0 138 67 138 217c0 170 -48 236 -146 236c-90 0 -139 -64 -139 -214c0 -170 49 -239 147 -239z" />
    <glyph glyph-name="p" unicode="p" horiz-adv-x="605" 
d="M25 -219v29l41 11c21 5 27 13 27 52v530c0 40 -5 42 -30 54l-38 19v26l158 21l10 -6l-4 -52h4c43 32 107 59 173 59c97 0 201 -55 201 -245s-114 -291 -288 -291c-26 0 -62 5 -89 13c0 0 3 -30 3 -64v-64c0 -42 5 -48 26 -52l54 -11v-29h-248zM291 33
c115 0 171 60 171 226c0 136 -57 202 -156 202c-56 0 -91 -23 -113 -34v-357c27 -24 55 -37 98 -37z" />
    <glyph glyph-name="q" unicode="q" horiz-adv-x="588" 
d="M331 -219v17l54 11c22 4 27 10 27 52v118c0 37 3 67 3 67h-4c-41 -31 -106 -58 -172 -58c-97 0 -201 61 -201 251c0 195 137 285 282 285c65 0 101 -15 136 -35h4l31 38l21 -5v-661c0 -39 6 -46 26 -52l41 -11v-17h-248zM294 51c61 0 95 24 118 35v352
c-22 21 -53 42 -99 42c-105 0 -170 -59 -170 -221c0 -144 54 -208 151 -208z" />
    <glyph glyph-name="r" unicode="r" horiz-adv-x="421" 
d="M25 0v30l41 11c20 5 27 13 27 52v310c0 40 -5 42 -30 54l-38 19v26l158 21l10 -8l-5 -58h4c35 35 97 68 147 68c41 0 66 -22 66 -60c0 -37 -25 -56 -54 -56c-37 0 -48 10 -57 32c-6 14 -13 17 -23 17c-20 0 -60 -24 -78 -44v-321c0 -42 6 -48 26 -52l51 -11v-30h-245z
" />
    <glyph glyph-name="s" unicode="s" horiz-adv-x="425" 
d="M190 -12c-57 0 -112 7 -152 22l-5 149h32c17 -39 24 -60 48 -90c19 -22 39 -38 87 -38c61 0 104 30 104 82c0 54 -36 75 -118 108c-87 34 -148 76 -148 154c0 93 83 150 188 150c55 0 96 -5 131 -18l4 -134h-30c-17 34 -32 58 -51 83c-15 18 -30 27 -66 27
c-66 0 -95 -29 -95 -80c0 -38 33 -65 117 -97c94 -36 156 -75 156 -152c0 -94 -77 -166 -202 -166z" />
    <glyph glyph-name="t" unicode="t" horiz-adv-x="339" 
d="M196 -12c-63 0 -116 29 -116 105v363h-70v29c69 19 104 66 131 147h39v-123h144l-13 -53h-131v-348c0 -43 22 -62 68 -62c29 0 59 8 79 14v-32c-18 -17 -64 -40 -131 -40z" />
    <glyph glyph-name="u" unicode="u" horiz-adv-x="598" 
d="M224 -12c-84 0 -135 46 -135 131v294c0 37 -4 38 -27 48l-41 18v27l153 17l15 -10v-371c0 -58 26 -89 86 -89c49 0 101 21 138 37v323c0 37 -3 38 -27 48l-40 18v27l153 17l14 -10v-398c0 -45 6 -51 30 -62l37 -17v-27l-156 -21l-11 8l5 60h-4c-53 -35 -120 -68 -190 -68
z" />
    <glyph glyph-name="v" unicode="v" horiz-adv-x="522" 
d="M237 0l-161 405c-17 43 -24 57 -54 67l-24 8v29h229v-29l-27 -7c-26 -7 -28 -16 -28 -32c0 -12 6 -30 14 -52l101 -272h4l97 272c9 26 12 43 12 54c0 15 -6 25 -26 30l-28 7v29h179v-29l-28 -8c-27 -7 -32 -28 -51 -77l-152 -395h-57z" />
    <glyph glyph-name="w" unicode="w" horiz-adv-x="790" 
d="M222 0l-144 405c-16 44 -24 57 -54 67l-25 8v29h228v-29l-27 -7c-23 -6 -28 -16 -28 -32c0 -12 6 -29 14 -52l89 -272h5l93 266l-7 22c-12 39 -26 60 -49 67l-24 8v29h213v-29l-28 -7c-19 -5 -22 -16 -22 -32c0 -12 5 -30 13 -52l94 -272h4l87 272c9 27 12 43 12 54
c0 15 -6 25 -26 30l-28 7v29h178v-29l-28 -8c-27 -7 -33 -27 -51 -77l-141 -395h-60l-111 321h-3l-114 -321h-60z" />
    <glyph glyph-name="x" unicode="x" horiz-adv-x="556" 
d="M27 0v30l29 8c36 10 55 25 87 73l91 136l-115 154c-43 59 -53 68 -82 75l-17 4v29h234v-29l-25 -5c-17 -4 -22 -12 -22 -25c0 -11 11 -29 26 -49l67 -94h3l49 80c19 34 30 51 30 65c0 11 -8 18 -21 21l-31 7v29h197v-29l-29 -8c-39 -11 -53 -27 -86 -75l-85 -121
l124 -167c37 -51 53 -68 85 -76l13 -3v-30h-234v30l26 5c20 4 24 12 24 23c0 13 -15 31 -29 51l-75 108h-3l-55 -96c-20 -33 -31 -50 -31 -64c0 -10 6 -17 34 -23l18 -4v-30h-197z" />
    <glyph glyph-name="y" unicode="y" horiz-adv-x="532" 
d="M103 -226c-62 0 -86 32 -86 65c0 31 18 54 49 54c32 0 47 -18 54 -41c5 -15 7 -18 16 -18c23 0 55 32 85 105l24 57l-168 409c-22 53 -25 58 -52 67l-24 8v29h228v-29l-27 -7c-23 -6 -29 -12 -29 -30c0 -13 5 -30 15 -54l108 -268h4l98 268c9 26 12 46 12 58
c0 17 -10 21 -28 26l-28 7v29h181v-29l-28 -8c-24 -7 -29 -20 -51 -77l-181 -454c-39 -98 -86 -167 -172 -167z" />
    <glyph glyph-name="z" unicode="z" horiz-adv-x="476" 
d="M25 0v33l310 433v4h-83c-81 0 -98 -6 -114 -30c-21 -31 -33 -55 -53 -98h-31l7 167h393v-31l-312 -435v-4h73c110 0 127 12 148 44c24 35 37 63 50 96h32l-12 -179h-408z" />
    <glyph glyph-name="braceleft" unicode="{" horiz-adv-x="348" 
d="M312 -130c-149 5 -212 34 -212 104c0 53 51 208 51 247c0 32 -18 60 -117 64v38c96 4 117 35 117 67c0 39 -51 187 -51 240c0 70 63 99 212 104v-30c-97 -14 -116 -24 -116 -72c0 -85 30 -160 30 -222c0 -55 -42 -86 -118 -104v-4c82 -15 118 -47 118 -102
c0 -62 -30 -142 -30 -228c0 -48 19 -58 116 -72v-30z" />
    <glyph glyph-name="bar" unicode="|" horiz-adv-x="254" 
d="M97 -130v864h60v-864h-60z" />
    <glyph glyph-name="braceright" unicode="}" horiz-adv-x="348" 
d="M36 734c149 -5 212 -34 212 -104c0 -53 -51 -201 -51 -240c0 -32 22 -63 117 -67v-38c-99 -4 -117 -32 -117 -64c0 -39 51 -194 51 -247c0 -70 -63 -99 -212 -104v30c97 14 116 24 116 72c0 86 -30 167 -30 229c0 55 33 87 118 101v4c-72 19 -118 50 -118 105
c0 62 30 136 30 221c0 48 -19 58 -116 72v30z" />
    <glyph glyph-name="asciitilde" unicode="~" horiz-adv-x="385" 
d="M61 225l-25 12c29 63 50 108 93 108c47 0 102 -32 139 -32c21 0 37 18 56 49l26 -12c-30 -63 -50 -108 -94 -108c-47 0 -100 32 -138 32c-20 0 -38 -18 -57 -49z" />
    <glyph glyph-name="Adieresis" unicode="&#xc4;" horiz-adv-x="667" 
d="M1 0v31l30 7c28 7 39 13 67 90l203 565h60l213 -576c26 -67 39 -72 64 -79l28 -7v-31h-251v31l28 7c27 7 35 13 35 29c0 15 -7 33 -16 59l-39 107h-232l-36 -107c-9 -27 -13 -40 -13 -54c0 -21 12 -29 36 -34l34 -7v-31h-211zM302 560l-96 -282h201l-100 282h-5zM222 751
c-36 0 -66 31 -66 63c0 34 30 63 66 63s66 -29 66 -63c0 -32 -30 -63 -66 -63zM439 752c-37 0 -66 31 -66 63c0 34 29 63 66 63c36 0 65 -29 65 -63c0 -32 -29 -63 -65 -63z" />
    <glyph glyph-name="Aring" unicode="&#xc5;" horiz-adv-x="667" 
d="M1 0v31l30 7c28 7 39 13 67 90l203 565h60l213 -576c26 -67 39 -72 64 -79l28 -7v-31h-251v31l28 7c27 7 35 13 35 29c0 15 -7 33 -16 59l-39 107h-232l-36 -107c-9 -27 -13 -40 -13 -54c0 -21 12 -29 36 -34l34 -7v-31h-211zM330 738c-58 0 -102 45 -102 98
c0 55 44 99 102 99s102 -44 102 -99c0 -53 -44 -98 -102 -98zM302 560l-96 -282h201l-100 282h-5zM330 776c35 0 58 25 58 60s-23 61 -58 61s-58 -26 -58 -61s23 -60 58 -60z" />
    <glyph glyph-name="Ccedilla" unicode="&#xc7;" horiz-adv-x="630" 
d="M246 -239v27c83 19 109 43 109 70c0 21 -23 35 -70 39l-9 9l43 84c-165 15 -280 120 -280 351c0 267 159 364 349 364c77 0 145 -11 189 -24l9 -198h-35c-19 50 -42 105 -65 139c-21 31 -41 37 -110 37c-144 0 -221 -71 -221 -299c0 -244 70 -326 207 -326
c91 0 113 22 137 57c28 43 39 68 58 121h32l-10 -180c-46 -22 -128 -44 -214 -44l-33 -45c66 -5 100 -32 100 -71c0 -45 -56 -99 -186 -111z" />
    <glyph glyph-name="Eacute" unicode="&#xc9;" horiz-adv-x="617" 
d="M31 0v31l45 9c24 4 32 10 32 60v494c0 50 -8 55 -32 60l-45 9v30h517l13 -177h-36c-21 49 -36 77 -48 94c-28 38 -46 39 -136 39c-73 0 -104 -4 -124 -9v-257h44c78 0 106 3 121 31c11 22 17 39 25 69h35v-246h-35c-10 30 -14 43 -25 69c-14 30 -32 31 -121 31h-44v-185
c0 -107 3 -108 133 -108c93 0 109 2 137 37c16 21 40 73 60 128h37l-15 -209h-538zM222 748l-11 24l162 114c15 10 27 15 39 15c23 0 41 -22 41 -43c0 -17 -9 -37 -37 -46z" />
    <glyph glyph-name="Ntilde" unicode="&#xd1;" horiz-adv-x="705" 
d="M549 -4l-383 607h-4v-493c0 -60 8 -66 42 -72l42 -7v-31h-215v31l35 7c29 6 42 12 42 72v484c0 50 -8 55 -32 60l-45 9v30h203l314 -504h4v395c0 60 -8 67 -42 72l-47 7v30h220v-30l-35 -7c-29 -6 -42 -12 -42 -72v-588h-57zM245 763l-34 14c29 78 56 114 98 114
c41 0 111 -41 136 -41c21 0 36 12 60 56l32 -13c-29 -79 -56 -114 -98 -114c-41 0 -108 41 -136 41c-21 0 -34 -12 -58 -57z" />
    <glyph glyph-name="Odieresis" unicode="&#xd6;" horiz-adv-x="714" 
d="M352 -12c-176 0 -313 120 -313 349c0 259 157 368 323 368c175 0 313 -125 313 -354c0 -259 -157 -363 -323 -363zM360 37c138 0 201 83 201 297c0 160 -45 323 -208 323c-138 0 -200 -89 -200 -303c0 -160 45 -317 207 -317zM249 751c-36 0 -66 31 -66 63
c0 34 30 63 66 63s66 -29 66 -63c0 -32 -30 -63 -66 -63zM466 752c-37 0 -66 31 -66 63c0 34 29 63 66 63c36 0 65 -29 65 -63c0 -32 -29 -63 -65 -63z" />
    <glyph glyph-name="Udieresis" unicode="&#xdc;" horiz-adv-x="701" 
d="M356 -12c-160 0 -262 70 -262 237v369c0 50 -7 55 -32 60l-46 9v30h262v-30l-43 -9c-28 -6 -32 -10 -32 -60v-379c0 -116 49 -169 179 -169c120 0 172 65 172 178v360c0 60 -8 67 -42 72l-50 7v30h222v-30l-35 -7c-29 -6 -42 -12 -42 -72v-367c0 -123 -72 -229 -251 -229
zM264 751c-36 0 -66 31 -66 63c0 34 30 63 66 63s66 -29 66 -63c0 -32 -30 -63 -66 -63zM481 752c-37 0 -66 31 -66 63c0 34 29 63 66 63c36 0 65 -29 65 -63c0 -32 -29 -63 -65 -63z" />
    <glyph glyph-name="aacute" unicode="&#xe1;" horiz-adv-x="510" 
d="M179 -13c-93 0 -152 47 -152 133c0 82 59 123 175 150l117 26v93c0 67 -10 97 -95 97c-44 0 -51 -10 -55 -40c-5 -38 -15 -67 -60 -67c-40 0 -53 24 -53 50c0 66 105 96 189 96c120 0 174 -44 174 -130v-295c0 -26 7 -42 27 -52c11 -6 27 -8 49 -9v-28
c-16 -11 -53 -23 -88 -23c-51 0 -78 25 -84 58h-5c-24 -33 -80 -59 -139 -59zM222 44c48 0 83 22 97 47v154l-77 -8c-72 -7 -113 -34 -113 -109c0 -58 35 -84 93 -84zM146 593l-11 24l162 114c15 10 27 15 39 15c23 0 41 -22 41 -43c0 -17 -9 -37 -37 -46z" />
    <glyph glyph-name="agrave" unicode="&#xe0;" horiz-adv-x="510" 
d="M179 -13c-93 0 -152 47 -152 133c0 82 59 123 175 150l117 26v93c0 67 -10 97 -95 97c-44 0 -51 -10 -55 -40c-5 -38 -15 -67 -60 -67c-40 0 -53 24 -53 50c0 66 105 96 189 96c120 0 174 -44 174 -130v-295c0 -26 7 -42 27 -52c11 -6 27 -8 49 -9v-28
c-16 -11 -53 -23 -88 -23c-51 0 -78 25 -84 58h-5c-24 -33 -80 -59 -139 -59zM222 44c48 0 83 22 97 47v154l-77 -8c-72 -7 -113 -34 -113 -109c0 -58 35 -84 93 -84zM330 593l-195 64c-28 9 -37 29 -37 46c0 21 18 43 41 43c12 0 24 -5 39 -15l163 -114z" />
    <glyph glyph-name="acircumflex" unicode="&#xe2;" horiz-adv-x="510" 
d="M179 -13c-93 0 -152 47 -152 133c0 82 59 123 175 150l117 26v93c0 67 -10 97 -95 97c-44 0 -51 -10 -55 -40c-5 -38 -15 -67 -60 -67c-40 0 -53 24 -53 50c0 66 105 96 189 96c120 0 174 -44 174 -130v-295c0 -26 7 -42 27 -52c11 -6 27 -8 49 -9v-28
c-16 -11 -53 -23 -88 -23c-51 0 -78 25 -84 58h-5c-24 -33 -80 -59 -139 -59zM222 44c48 0 83 22 97 47v154l-77 -8c-72 -7 -113 -34 -113 -109c0 -58 35 -84 93 -84zM272 751l134 -141l-18 -24l-141 84l-141 -84l-17 24l132 141h51z" />
    <glyph glyph-name="adieresis" unicode="&#xe4;" horiz-adv-x="510" 
d="M179 -13c-93 0 -152 47 -152 133c0 82 59 123 175 150l117 26v93c0 67 -10 97 -95 97c-44 0 -51 -10 -55 -40c-5 -38 -15 -67 -60 -67c-40 0 -53 24 -53 50c0 66 105 96 189 96c120 0 174 -44 174 -130v-295c0 -26 7 -42 27 -52c11 -6 27 -8 49 -9v-28
c-16 -11 -53 -23 -88 -23c-51 0 -78 25 -84 58h-5c-24 -33 -80 -59 -139 -59zM222 44c48 0 83 22 97 47v154l-77 -8c-72 -7 -113 -34 -113 -109c0 -58 35 -84 93 -84zM147 616c-36 0 -66 31 -66 63c0 34 30 63 66 63s66 -29 66 -63c0 -32 -30 -63 -66 -63zM348 616
c-37 0 -66 31 -66 63c0 34 29 63 66 63c36 0 65 -29 65 -63c0 -32 -29 -63 -65 -63z" />
    <glyph glyph-name="atilde" unicode="&#xe3;" horiz-adv-x="510" 
d="M179 -13c-93 0 -152 47 -152 133c0 82 59 123 175 150l117 26v93c0 67 -10 97 -95 97c-44 0 -51 -10 -55 -40c-5 -38 -15 -67 -60 -67c-40 0 -53 24 -53 50c0 66 105 96 189 96c120 0 174 -44 174 -130v-295c0 -26 7 -42 27 -52c11 -6 27 -8 49 -9v-28
c-16 -11 -53 -23 -88 -23c-51 0 -78 25 -84 58h-5c-24 -33 -80 -59 -139 -59zM222 44c48 0 83 22 97 47v154l-77 -8c-72 -7 -113 -34 -113 -109c0 -58 35 -84 93 -84zM118 583l-34 14c29 83 56 124 98 124c41 0 111 -41 136 -41c21 0 36 20 60 66l32 -13
c-29 -83 -56 -124 -98 -124c-41 0 -108 41 -136 41c-21 0 -34 -20 -58 -67z" />
    <glyph glyph-name="aring" unicode="&#xe5;" horiz-adv-x="510" 
d="M179 -13c-93 0 -152 47 -152 133c0 82 59 123 175 150l117 26v93c0 67 -10 97 -95 97c-44 0 -51 -10 -55 -40c-5 -38 -15 -67 -60 -67c-40 0 -53 24 -53 50c0 66 105 96 189 96c120 0 174 -44 174 -130v-295c0 -26 7 -42 27 -52c11 -6 27 -8 49 -9v-28
c-16 -11 -53 -23 -88 -23c-51 0 -78 25 -84 58h-5c-24 -33 -80 -59 -139 -59zM222 44c48 0 83 22 97 47v154l-77 -8c-72 -7 -113 -34 -113 -109c0 -58 35 -84 93 -84zM247 588c-58 0 -102 45 -102 98c0 55 44 99 102 99s102 -44 102 -99c0 -53 -44 -98 -102 -98zM247 626
c35 0 58 25 58 60s-23 61 -58 61s-58 -26 -58 -61s23 -60 58 -60z" />
    <glyph glyph-name="ccedilla" unicode="&#xe7;" horiz-adv-x="486" 
d="M165 -239v27c83 19 109 43 109 70c0 21 -23 35 -70 39l-9 9l43 84c-133 14 -204 117 -204 258c0 215 162 277 285 277c96 0 141 -33 141 -84c0 -31 -24 -65 -59 -65c-39 0 -51 21 -56 54c-7 45 -17 52 -52 52c-83 0 -153 -54 -153 -198c0 -150 60 -232 172 -232
c67 0 121 25 154 43v-40c-30 -26 -95 -62 -182 -66l-33 -46c66 -5 100 -32 100 -71c0 -45 -56 -99 -186 -111z" />
    <glyph glyph-name="eacute" unicode="&#xe9;" horiz-adv-x="519" 
d="M281 -12c-166 0 -247 110 -247 272c0 160 115 265 247 265c127 0 204 -69 204 -255h-345c3 -152 72 -218 174 -218c77 0 123 24 161 42v-40c-27 -22 -98 -66 -194 -66zM277 483c-73 0 -128 -53 -136 -171l232 12c0 115 -19 159 -96 159zM179 593l-11 24l162 114
c15 10 27 15 39 15c23 0 41 -22 41 -43c0 -17 -9 -37 -37 -46z" />
    <glyph glyph-name="egrave" unicode="&#xe8;" horiz-adv-x="519" 
d="M281 -12c-166 0 -247 110 -247 272c0 160 115 265 247 265c127 0 204 -69 204 -255h-345c3 -152 72 -218 174 -218c77 0 123 24 161 42v-40c-27 -22 -98 -66 -194 -66zM277 483c-73 0 -128 -53 -136 -171l232 12c0 115 -19 159 -96 159zM363 593l-195 64
c-28 9 -37 29 -37 46c0 21 18 43 41 43c12 0 24 -5 39 -15l163 -114z" />
    <glyph glyph-name="ecircumflex" unicode="&#xea;" horiz-adv-x="519" 
d="M281 -12c-166 0 -247 110 -247 272c0 160 115 265 247 265c127 0 204 -69 204 -255h-345c3 -152 72 -218 174 -218c77 0 123 24 161 42v-40c-27 -22 -98 -66 -194 -66zM277 483c-73 0 -128 -53 -136 -171l232 12c0 115 -19 159 -96 159zM305 751l134 -141l-18 -24
l-141 84l-141 -84l-17 24l132 141h51z" />
    <glyph glyph-name="edieresis" unicode="&#xeb;" horiz-adv-x="519" 
d="M281 -12c-166 0 -247 110 -247 272c0 160 115 265 247 265c127 0 204 -69 204 -255h-345c3 -152 72 -218 174 -218c77 0 123 24 161 42v-40c-27 -22 -98 -66 -194 -66zM277 483c-73 0 -128 -53 -136 -171l232 12c0 115 -19 159 -96 159zM180 616c-36 0 -66 31 -66 63
c0 34 30 63 66 63s66 -29 66 -63c0 -32 -30 -63 -66 -63zM381 616c-37 0 -66 31 -66 63c0 34 29 63 66 63c36 0 65 -29 65 -63c0 -32 -29 -63 -65 -63z" />
    <glyph glyph-name="iacute" unicode="&#xed;" horiz-adv-x="279" 
d="M25 0v28l41 12c22 5 27 14 27 59v299c0 45 -5 46 -30 58l-38 20v26l165 21l10 -6c-1 -5 -7 -46 -7 -117v-301c0 -48 5 -54 26 -59l41 -12v-28h-235zM41 593l-11 24l162 114c15 10 27 15 39 15c23 0 41 -22 41 -43c0 -17 -9 -37 -37 -46zM201 517h-1c1 1 1 1 1 0z" />
    <glyph glyph-name="igrave" unicode="&#xec;" horiz-adv-x="279" 
d="M25 0v28l41 12c22 5 27 14 27 59v299c0 45 -5 46 -30 58l-38 20v26l165 21l10 -6c-1 -5 -7 -46 -7 -117v-301c0 -48 5 -54 26 -59l41 -12v-28h-235zM225 593l-195 64c-28 9 -37 29 -37 46c0 21 18 43 41 43c12 0 24 -5 39 -15l163 -114zM201 517h-1c1 1 1 1 1 0z" />
    <glyph glyph-name="icircumflex" unicode="&#xee;" horiz-adv-x="279" 
d="M25 0v28l41 12c22 5 27 14 27 59v299c0 45 -5 46 -30 58l-38 20v26l165 21l10 -6c-1 -5 -7 -46 -7 -117v-301c0 -48 5 -54 26 -59l41 -12v-28h-235zM167 751l134 -141l-18 -24l-141 84l-141 -84l-17 24l132 141h51zM201 517h-1c1 1 1 1 1 0z" />
    <glyph glyph-name="idieresis" unicode="&#xef;" horiz-adv-x="279" 
d="M25 0v28l41 12c22 5 27 14 27 59v299c0 45 -5 46 -30 58l-38 20v26l165 21l10 -6c-1 -5 -7 -46 -7 -117v-301c0 -48 5 -54 26 -59l41 -12v-28h-235zM42 616c-36 0 -66 31 -66 63c0 34 30 63 66 63s66 -29 66 -63c0 -32 -30 -63 -66 -63zM243 616c-37 0 -66 31 -66 63
c0 34 29 63 66 63c36 0 65 -29 65 -63c0 -32 -29 -63 -65 -63zM201 517h-1c1 1 1 1 1 0z" />
    <glyph glyph-name="ntilde" unicode="&#xf1;" horiz-adv-x="605" 
d="M25 0v30l41 11c20 5 27 13 27 52v310c0 40 -5 42 -30 54l-38 19v26l158 21l10 -6l-5 -56h4c50 32 125 63 189 63c101 0 136 -43 136 -133v-298c0 -39 8 -47 27 -52l40 -11v-30h-234v30l41 11c20 5 26 10 26 52v270c0 70 -23 95 -87 95c-49 0 -108 -20 -137 -31v-334
c0 -42 6 -47 26 -52l41 -11v-30h-235zM177 583l-34 14c29 83 56 124 98 124c41 0 111 -41 136 -41c21 0 36 20 60 66l32 -13c-29 -83 -56 -124 -98 -124c-41 0 -108 41 -136 41c-21 0 -34 -20 -58 -67z" />
    <glyph glyph-name="oacute" unicode="&#xf3;" horiz-adv-x="573" 
d="M287 -13c-143 0 -253 91 -253 268c0 175 122 270 253 270c142 0 252 -87 252 -264c0 -175 -122 -274 -252 -274zM291 30c90 0 138 67 138 217c0 170 -48 236 -146 236c-90 0 -139 -64 -139 -214c0 -170 49 -239 147 -239zM185 593l-11 24l162 114c15 10 27 15 39 15
c23 0 41 -22 41 -43c0 -17 -9 -37 -37 -46z" />
    <glyph glyph-name="ograve" unicode="&#xf2;" horiz-adv-x="573" 
d="M287 -13c-143 0 -253 91 -253 268c0 175 122 270 253 270c142 0 252 -87 252 -264c0 -175 -122 -274 -252 -274zM291 30c90 0 138 67 138 217c0 170 -48 236 -146 236c-90 0 -139 -64 -139 -214c0 -170 49 -239 147 -239zM369 593l-195 64c-28 9 -37 29 -37 46
c0 21 18 43 41 43c12 0 24 -5 39 -15l163 -114z" />
    <glyph glyph-name="ocircumflex" unicode="&#xf4;" horiz-adv-x="573" 
d="M287 -13c-143 0 -253 91 -253 268c0 175 122 270 253 270c142 0 252 -87 252 -264c0 -175 -122 -274 -252 -274zM291 30c90 0 138 67 138 217c0 170 -48 236 -146 236c-90 0 -139 -64 -139 -214c0 -170 49 -239 147 -239zM311 751l134 -141l-18 -24l-141 84l-141 -84
l-17 24l132 141h51z" />
    <glyph glyph-name="odieresis" unicode="&#xf6;" horiz-adv-x="573" 
d="M287 -13c-143 0 -253 91 -253 268c0 175 122 270 253 270c142 0 252 -87 252 -264c0 -175 -122 -274 -252 -274zM291 30c90 0 138 67 138 217c0 170 -48 236 -146 236c-90 0 -139 -64 -139 -214c0 -170 49 -239 147 -239zM186 616c-36 0 -66 31 -66 63c0 34 30 63 66 63
s66 -29 66 -63c0 -32 -30 -63 -66 -63zM387 616c-37 0 -66 31 -66 63c0 34 29 63 66 63c36 0 65 -29 65 -63c0 -32 -29 -63 -65 -63z" />
    <glyph glyph-name="otilde" unicode="&#xf5;" horiz-adv-x="573" 
d="M287 -13c-143 0 -253 91 -253 268c0 175 122 270 253 270c142 0 252 -87 252 -264c0 -175 -122 -274 -252 -274zM291 30c90 0 138 67 138 217c0 170 -48 236 -146 236c-90 0 -139 -64 -139 -214c0 -170 49 -239 147 -239zM157 583l-34 14c29 83 56 124 98 124
c41 0 111 -41 136 -41c21 0 36 20 60 66l32 -13c-29 -83 -56 -124 -98 -124c-41 0 -108 41 -136 41c-21 0 -34 -20 -58 -67z" />
    <glyph glyph-name="uacute" unicode="&#xfa;" horiz-adv-x="598" 
d="M224 -12c-84 0 -135 46 -135 131v294c0 37 -4 38 -27 48l-41 18v27l153 17l15 -10v-371c0 -58 26 -89 86 -89c49 0 101 21 138 37v323c0 37 -3 38 -27 48l-40 18v27l153 17l14 -10v-398c0 -45 6 -51 30 -62l37 -17v-27l-156 -21l-11 8l5 60h-4c-53 -35 -120 -68 -190 -68
zM204 593l-11 24l162 114c15 10 27 15 39 15c23 0 41 -22 41 -43c0 -17 -9 -37 -37 -46z" />
    <glyph glyph-name="ugrave" unicode="&#xf9;" horiz-adv-x="598" 
d="M224 -12c-84 0 -135 46 -135 131v294c0 37 -4 38 -27 48l-41 18v27l153 17l15 -10v-371c0 -58 26 -89 86 -89c49 0 101 21 138 37v323c0 37 -3 38 -27 48l-40 18v27l153 17l14 -10v-398c0 -45 6 -51 30 -62l37 -17v-27l-156 -21l-11 8l5 60h-4c-53 -35 -120 -68 -190 -68
zM388 593l-195 64c-28 9 -37 29 -37 46c0 21 18 43 41 43c12 0 24 -5 39 -15l163 -114z" />
    <glyph glyph-name="ucircumflex" unicode="&#xfb;" horiz-adv-x="598" 
d="M224 -12c-84 0 -135 46 -135 131v294c0 37 -4 38 -27 48l-41 18v27l153 17l15 -10v-371c0 -58 26 -89 86 -89c49 0 101 21 138 37v323c0 37 -3 38 -27 48l-40 18v27l153 17l14 -10v-398c0 -45 6 -51 30 -62l37 -17v-27l-156 -21l-11 8l5 60h-4c-53 -35 -120 -68 -190 -68
zM330 751l134 -141l-18 -24l-141 84l-141 -84l-17 24l132 141h51z" />
    <glyph glyph-name="udieresis" unicode="&#xfc;" horiz-adv-x="598" 
d="M224 -12c-84 0 -135 46 -135 131v294c0 37 -4 38 -27 48l-41 18v27l153 17l15 -10v-371c0 -58 26 -89 86 -89c49 0 101 21 138 37v323c0 37 -3 38 -27 48l-40 18v27l153 17l14 -10v-398c0 -45 6 -51 30 -62l37 -17v-27l-156 -21l-11 8l5 60h-4c-53 -35 -120 -68 -190 -68
zM205 616c-36 0 -66 31 -66 63c0 34 30 63 66 63s66 -29 66 -63c0 -32 -30 -63 -66 -63zM406 616c-37 0 -66 31 -66 63c0 34 29 63 66 63c36 0 65 -29 65 -63c0 -32 -29 -63 -65 -63z" />
    <glyph glyph-name="dagger" unicode="&#x2020;" horiz-adv-x="433" 
d="M199 485c-60 -3 -97 -30 -126 -30c-30 0 -46 20 -46 45c0 26 16 46 46 46c29 0 66 -27 126 -31c-4 58 -38 114 -38 134c0 31 29 53 54 53c26 0 54 -22 54 -53c0 -20 -33 -76 -37 -134c62 3 99 31 128 31c30 0 46 -20 46 -46c0 -25 -16 -45 -46 -45c-29 0 -66 27 -128 30
c3 -39 20 -88 39 -117l-39 -435h-33l-38 435c21 29 36 78 38 117z" />
    <glyph glyph-name="degree" unicode="&#xb0;" horiz-adv-x="357" 
d="M179 428c-79 0 -139 65 -139 139c0 72 60 136 139 136s138 -64 138 -136c0 -74 -59 -139 -138 -139zM179 469c53 0 89 45 89 98c0 51 -36 96 -89 96c-54 0 -90 -45 -90 -96c0 -53 36 -98 90 -98z" />
    <glyph glyph-name="cent" unicode="&#xa2;" horiz-adv-x="488" 
d="M260 -140v128c-142 4 -226 107 -226 255c0 182 115 256 226 276v77h50v-72c5 0 10 1 16 1c99 0 151 -34 151 -85c0 -31 -19 -66 -57 -66c-37 0 -47 17 -52 54c-7 41 -20 52 -58 54v-430c67 0 126 25 159 43v-40c-27 -23 -84 -55 -159 -64v-131h-50zM140 280
c0 -131 42 -202 120 -222v420c-69 -15 -120 -71 -120 -198z" />
    <glyph glyph-name="sterling" unicode="&#xa3;" horiz-adv-x="530" 
d="M54 334v45h68c-8 42 -15 85 -15 121c0 123 98 205 235 205c85 0 152 -29 152 -84c0 -38 -26 -59 -53 -59c-33 0 -49 18 -62 57c-13 42 -16 45 -54 45c-64 0 -110 -37 -110 -147c0 -35 2 -88 4 -138h172v-45h-170c1 -25 2 -47 2 -61c0 -79 -41 -130 -109 -180v-5h266
c42 0 51 6 87 78h28l-28 -166h-443v72c83 48 119 93 119 171c0 23 -6 55 -12 91h-77z" />
    <glyph glyph-name="section" unicode="&#xa7;" horiz-adv-x="553" 
d="M247 -204c-97 0 -154 38 -154 88c0 34 17 54 51 54c33 0 51 -15 57 -55s13 -49 62 -49c60 0 88 38 88 88c0 64 -35 94 -152 187c-109 87 -171 137 -171 219c0 62 46 111 109 148c-12 22 -16 36 -16 62c0 96 73 164 193 164c88 0 144 -33 144 -82c0 -33 -25 -52 -56 -52
c-33 0 -45 13 -52 59c-4 26 -13 37 -53 37c-61 0 -89 -37 -89 -87c0 -66 30 -95 148 -188c109 -86 168 -137 168 -219c0 -60 -38 -109 -100 -148c7 -20 12 -37 12 -62c0 -96 -69 -164 -189 -164zM406 53c27 19 40 46 40 86c0 52 -40 82 -148 168c-63 50 -116 93 -147 138
c-31 -17 -43 -44 -43 -86c0 -52 40 -82 148 -168c63 -50 118 -93 150 -138z" />
    <glyph glyph-name="bullet" unicode="&#x2022;" horiz-adv-x="426" 
d="M212 190c-84 0 -151 68 -151 151c0 85 67 151 151 151c82 0 153 -66 153 -151c0 -83 -71 -151 -153 -151z" />
    <glyph glyph-name="paragraph" unicode="&#xb6;" horiz-adv-x="571" 
d="M259 -100v446c-9 -1 -20 -2 -35 -2c-131 0 -196 70 -196 179c0 104 72 170 205 170h308v-30l-46 -9c-24 -5 -32 -10 -32 -60v-694h-55v751h-94v-751h-55z" />
    <glyph glyph-name="germandbls" unicode="&#xdf;" horiz-adv-x="615" 
d="M434 31c54 0 85 33 85 73c0 49 -28 71 -103 117c-85 51 -126 82 -126 136c0 86 115 157 115 272c0 56 -24 103 -96 103c-69 0 -116 -46 -116 -137v-502c0 -42 1 -51 24 -57l26 -6v-30h-218v30l41 11c20 5 27 13 27 52v363h-71v30l71 24v31c0 174 136 226 221 226
c133 0 197 -59 197 -123c0 -106 -151 -181 -151 -238c0 -24 23 -48 116 -106c93 -57 122 -93 122 -160c0 -97 -86 -147 -177 -147c-99 0 -152 36 -152 88c0 28 19 50 51 50c36 0 49 -17 53 -49c7 -40 27 -51 61 -51z" />
    <glyph glyph-name="registered" unicode="&#xae;" horiz-adv-x="586" 
d="M291 187c-145 0 -255 115 -255 256c0 144 110 258 255 258c146 0 259 -114 259 -258c0 -141 -113 -256 -259 -256zM291 223c126 0 214 99 214 220c0 124 -88 222 -214 222c-127 0 -210 -98 -210 -222c0 -121 83 -220 210 -220zM170 319v24l21 6c7 3 8 4 8 20v159
c0 15 -1 16 -8 21l-20 5v23h119c76 0 106 -23 106 -68c0 -31 -18 -56 -51 -66v-4c16 -32 29 -54 43 -75c7 -10 12 -13 25 -17l15 -4v-24h-74c-28 38 -47 70 -63 106h-32v-56c0 -16 1 -17 12 -20l20 -6v-24h-121zM259 455h24c38 0 53 17 53 50c0 35 -16 42 -51 42h-26v-92z
" />
    <glyph glyph-name="copyright" unicode="&#xa9;" horiz-adv-x="814" 
d="M406 -14c-205 0 -361 161 -361 358s156 356 361 356c204 0 363 -159 363 -356s-159 -358 -363 -358zM406 26c184 0 316 143 316 318s-132 316 -316 316c-185 0 -313 -141 -313 -316s128 -318 313 -318zM408 141c-107 0 -193 61 -193 198c0 152 93 210 204 210
c58 0 88 -7 114 -14l5 -113h-28c-10 29 -20 45 -31 64c-15 22 -28 26 -69 26c-73 0 -107 -44 -107 -157c0 -132 40 -177 114 -177c31 0 49 5 66 29c10 18 20 36 32 68h27l-7 -111c-27 -11 -68 -23 -127 -23z" />
    <glyph glyph-name="trademark" unicode="&#x2122;" horiz-adv-x="873" 
d="M391 355v29l23 6c16 4 21 17 21 49v191c0 19 -4 22 -19 27l-22 7v29h145l78 -219h2l74 219h146v-29l-24 -7c-15 -5 -19 -8 -19 -27v-206c0 -26 2 -30 17 -34l26 -6v-29h-161v29l27 8c13 3 15 6 15 32v230h-4l-97 -290h-35l-105 290h-3v-215c0 -35 4 -44 24 -49l24 -6v-29
h-133zM109 355v29l31 8c14 3 16 6 16 32v239h-5c-35 0 -41 -5 -55 -25c-12 -21 -16 -33 -31 -72h-29l7 127h307l5 -127h-27c-14 36 -19 51 -31 72c-14 20 -21 25 -56 25h-5v-239c0 -26 3 -29 17 -32l31 -8v-29h-175z" />
    <glyph glyph-name="acute" unicode="&#xb4;" horiz-adv-x="510" 
d="M148 593l-11 24l162 114c15 10 27 15 39 15c23 0 41 -22 41 -43c0 -17 -9 -37 -37 -46z" />
    <glyph glyph-name="dieresis" unicode="&#xa8;" horiz-adv-x="510" 
d="M155 616c-36 0 -66 31 -66 63c0 34 30 63 66 63s66 -29 66 -63c0 -32 -30 -63 -66 -63zM356 616c-37 0 -66 31 -66 63c0 34 29 63 66 63c36 0 65 -29 65 -63c0 -32 -29 -63 -65 -63z" />
    <glyph glyph-name="notequal" unicode="&#x2260;" horiz-adv-x="500" 
d="M41 369v57h237l67 130h56l-67 -130h125v-57h-155l-54 -106h209v-56h-238l-67 -130h-55l67 130h-125v56h153l55 106h-208z" />
    <glyph glyph-name="AE" unicode="&#xc6;" horiz-adv-x="941" 
d="M366 0v31l45 9c24 4 32 10 32 60v121h-220l-46 -82c-18 -33 -29 -56 -29 -72s9 -25 28 -29l36 -7v-31h-211v31l23 7c28 7 45 15 96 103l294 511h-1l-57 11v30h516l13 -177h-36c-20 49 -35 77 -48 94c-27 38 -46 39 -135 39c-69 0 -94 -4 -115 -9v-257h30
c78 0 106 3 121 31c11 22 18 37 25 69h36v-246h-36c-8 33 -14 43 -25 69c-14 30 -32 31 -121 31h-30v-185c0 -107 13 -108 124 -108c93 0 109 2 136 37c17 21 40 73 61 128h36l-15 -209h-527zM440 610l-192 -344h195v344h-3z" />
    <glyph glyph-name="Oslash" unicode="&#xd8;" horiz-adv-x="714" 
d="M33 -54l96 130c-56 59 -90 146 -90 261c0 259 157 368 323 368c70 0 134 -20 186 -59l55 74h59l-78 -106c56 -60 91 -149 91 -263c0 -259 -157 -363 -323 -363c-71 0 -136 19 -188 58l-73 -100h-58zM153 354c0 -82 7 -152 29 -206l324 440c-32 44 -81 69 -153 69
c-138 0 -200 -89 -200 -303zM360 37c138 0 201 83 201 297c0 82 -8 154 -30 208l-324 -439c31 -42 80 -66 153 -66z" />
    <glyph glyph-name="plusminus" unicode="&#xb1;" horiz-adv-x="469" 
d="M41 0v56h387v-56h-387zM202 171v159h-161v56h161v159h65v-159h161v-56h-161v-159h-65z" />
    <glyph glyph-name="lessequal" unicode="&#x2264;" horiz-adv-x="469" 
d="M45 0v56h379v-56h-379zM424 129l-379 161v66l379 160v-61l-324 -132l324 -132v-62z" />
    <glyph glyph-name="greaterequal" unicode="&#x2265;" horiz-adv-x="469" 
d="M424 56v-56h-379v56h379zM424 290l-379 -161v62l324 132l-324 132v61l379 -160v-66z" />
    <glyph glyph-name="yen" unicode="&#xa5;" horiz-adv-x="591" 
d="M62 302v45h161l-123 220c-35 62 -47 82 -73 89l-25 7v30h261v-30l-28 -6c-33 -7 -39 -18 -39 -36c0 -13 7 -30 20 -54l108 -207h4l98 207c12 26 18 40 18 55c0 18 -12 26 -40 34l-24 7v30h198v-30l-22 -7c-29 -9 -42 -28 -80 -103l-105 -206h165v-45h-182v-95h182v-45
h-182v-62c0 -50 4 -55 31 -60l49 -9v-31h-270v31l49 9c25 5 32 10 32 60v62h-183v45h183v95h-183z" />
    <glyph glyph-name="ordfeminine" unicode="&#xaa;" horiz-adv-x="450" 
d="M163 242c-79 0 -127 41 -127 114c0 69 58 104 123 121l122 30v63c0 55 -11 94 -82 94c-32 0 -41 -17 -45 -36c-6 -30 -12 -57 -49 -57c-34 0 -51 19 -51 47c0 56 87 82 162 82c102 0 158 -45 158 -124v-231c0 -25 3 -37 20 -45c11 -5 26 -7 44 -8v-26
c-17 -10 -47 -22 -82 -22c-51 0 -65 22 -69 50h-6c-20 -26 -68 -52 -118 -52zM201 296c39 0 68 20 80 39v122l-68 -8c-55 -6 -84 -29 -84 -88c0 -44 28 -65 72 -65z" />
    <glyph glyph-name="ordmasculine" unicode="&#xba;" horiz-adv-x="508" 
d="M254 245c-121 0 -215 76 -215 226c0 149 103 229 215 229c121 0 215 -74 215 -223s-102 -232 -215 -232zM258 287c76 0 114 57 114 178c0 138 -38 194 -121 194c-77 0 -115 -56 -115 -176c0 -137 38 -196 122 -196z" />
    <glyph glyph-name="ae" unicode="&#xe6;" horiz-adv-x="786" 
d="M547 -12c-89 0 -149 32 -186 87h-1c-43 -55 -96 -88 -181 -88c-93 0 -152 47 -152 133c0 82 77 127 146 142l144 32v95c0 67 -10 97 -92 97c-44 0 -54 -10 -58 -40c-5 -38 -15 -67 -60 -67c-40 0 -53 24 -53 50c0 66 108 96 192 96c85 0 130 -23 149 -69
c38 45 92 69 155 69c127 0 202 -76 202 -261h-335c4 -148 63 -212 164 -212c77 0 123 24 161 42v-40c-27 -22 -99 -66 -195 -66zM222 44c46 0 87 18 120 68c-16 37 -24 81 -25 130v1l-75 -8c-67 -7 -113 -32 -113 -107c0 -58 35 -84 93 -84zM546 483
c-69 0 -121 -54 -128 -176l222 12c0 113 -17 164 -94 164z" />
    <glyph glyph-name="oslash" unicode="&#xf8;" horiz-adv-x="573" 
d="M33 -54l77 105c-47 45 -76 113 -76 204c0 175 122 270 253 270c54 0 104 -13 144 -39l53 72h52l-72 -97c47 -44 75 -111 75 -200c0 -175 -122 -274 -252 -274c-54 0 -103 13 -144 38l-58 -79h-52zM144 269c0 -67 4 -116 15 -152l237 321c-23 34 -59 45 -113 45
c-90 0 -139 -64 -139 -214zM291 30c90 0 138 67 138 217c0 64 -4 112 -14 147l-236 -320c23 -33 59 -44 112 -44z" />
    <glyph glyph-name="questiondown" unicode="&#xbf;" horiz-adv-x="449" 
d="M300 415v-165c-79 -25 -166 -78 -166 -180c0 -79 55 -117 111 -117c38 0 49 6 54 41c6 42 23 61 58 61c38 0 53 -27 53 -53c0 -60 -72 -90 -147 -90c-131 0 -217 63 -217 191c0 112 88 184 202 220v92h52zM273 623c40 0 72 -31 72 -70s-32 -71 -72 -71
c-41 0 -73 32 -73 71s32 70 73 70z" />
    <glyph glyph-name="exclamdown" unicode="&#xa1;" horiz-adv-x="281" 
d="M159 408l47 -414c6 -54 -28 -79 -65 -79c-36 0 -71 25 -65 79l47 414h36zM141 623c40 0 72 -31 72 -70s-32 -71 -72 -71c-41 0 -73 32 -73 71s32 70 73 70z" />
    <glyph glyph-name="florin" unicode="&#x192;" horiz-adv-x="430" 
d="M42 349v45h87l17 113c20 136 107 195 202 195c78 0 112 -36 112 -71c0 -32 -21 -53 -51 -53s-44 10 -52 58c-2 22 -7 29 -28 29c-31 0 -59 -20 -72 -104l-25 -167h109v-45h-116l-49 -326c-23 -159 -100 -219 -180 -219c-66 0 -99 30 -99 65c0 23 17 42 45 42
c24 0 37 -13 46 -43c6 -23 9 -30 21 -30c25 0 39 9 48 72l65 439h-80z" />
    <glyph glyph-name="approxequal" unicode="&#x2248;" horiz-adv-x="500" 
d="M423 468l44 -20c-24 -52 -55 -97 -113 -97c-57 0 -145 44 -192 44c-30 0 -52 -30 -64 -61l-46 17c18 49 56 98 113 98c56 0 142 -44 192 -44c31 0 50 29 66 63zM423 315l44 -20c-24 -52 -55 -97 -113 -97c-57 0 -145 44 -192 44c-30 0 -52 -30 -64 -61l-46 17
c18 49 56 98 113 98c56 0 142 -44 192 -44c31 0 50 29 66 63z" />
    <glyph glyph-name="guillemotleft" unicode="&#xab;" horiz-adv-x="466" 
d="M389 45l-157 193v29l157 193h42l-105 -207l105 -208h-42zM200 45l-156 193v29l156 193h43l-105 -207l105 -208h-43z" />
    <glyph glyph-name="guillemotright" unicode="&#xbb;" horiz-adv-x="474" 
d="M78 461l156 -193v-29l-156 -193h-43l105 207l-105 208h43zM274 461l156 -193v-29l-156 -193h-43l105 207l-105 208h43z" />
    <glyph glyph-name="ellipsis" unicode="&#x2026;" horiz-adv-x="851" 
d="M702 -6c-40 0 -72 31 -72 70s32 71 72 71c41 0 73 -32 73 -71s-32 -70 -73 -70zM425 -6c-40 0 -72 31 -72 70s32 71 72 71c41 0 73 -32 73 -71s-32 -70 -73 -70zM148 -6c-40 0 -72 31 -72 70s32 71 72 71c41 0 73 -32 73 -71s-32 -70 -73 -70z" />
    <glyph glyph-name="uni00A0" unicode="&#xa0;" horiz-adv-x="251" 
 />
    <glyph glyph-name="Agrave" unicode="&#xc0;" horiz-adv-x="667" 
d="M1 0v31l30 7c28 7 39 13 67 90l203 565h60l213 -576c26 -67 39 -72 64 -79l28 -7v-31h-251v31l28 7c27 7 35 13 35 29c0 15 -7 33 -16 59l-39 107h-232l-36 -107c-9 -27 -13 -40 -13 -54c0 -21 12 -29 36 -34l34 -7v-31h-211zM302 560l-96 -282h201l-100 282h-5zM429 748
l-195 64c-28 9 -37 29 -37 46c0 21 18 43 41 43c12 0 24 -5 39 -15l163 -114z" />
    <glyph glyph-name="Atilde" unicode="&#xc3;" horiz-adv-x="667" 
d="M1 0v31l30 7c28 7 39 13 67 90l203 565h60l213 -576c26 -67 39 -72 64 -79l28 -7v-31h-251v31l28 7c27 7 35 13 35 29c0 15 -7 33 -16 59l-39 107h-232l-36 -107c-9 -27 -13 -40 -13 -54c0 -21 12 -29 36 -34l34 -7v-31h-211zM302 560l-96 -282h201l-100 282h-5zM201 763
l-34 14c29 78 56 114 98 114c41 0 111 -41 136 -41c21 0 36 12 60 56l32 -13c-29 -79 -56 -114 -98 -114c-41 0 -108 41 -136 41c-21 0 -34 -12 -58 -57z" />
    <glyph glyph-name="Otilde" unicode="&#xd5;" horiz-adv-x="714" 
d="M352 -12c-176 0 -313 120 -313 349c0 259 157 368 323 368c175 0 313 -125 313 -354c0 -259 -157 -363 -323 -363zM360 37c138 0 201 83 201 297c0 160 -45 323 -208 323c-138 0 -200 -89 -200 -303c0 -160 45 -317 207 -317zM228 763l-34 14c29 78 56 114 98 114
c41 0 111 -41 136 -41c21 0 36 12 60 56l32 -13c-29 -79 -56 -114 -98 -114c-41 0 -108 41 -136 41c-21 0 -34 -12 -58 -57z" />
    <glyph glyph-name="OE" unicode="&#x152;" horiz-adv-x="980" 
d="M383 651c-177 0 -230 -119 -230 -292c0 -221 67 -317 232 -317c67 0 96 9 96 106v407c0 80 -6 96 -98 96zM370 0c-181 0 -331 85 -331 340c0 234 143 353 337 353h535l13 -177h-36c-21 49 -36 77 -48 94c-28 38 -46 39 -136 39c-75 0 -94 -4 -114 -9v-257h34
c78 0 106 3 121 31c11 22 18 37 25 69h35v-246h-35c-8 33 -14 43 -25 69c-14 30 -32 31 -121 31h-34v-185c0 -107 6 -108 123 -108c93 0 109 2 137 37c16 21 40 73 60 128h37l-15 -209h-562z" />
    <glyph glyph-name="oe" unicode="&#x153;" horiz-adv-x="903" 
d="M665 -12c-97 0 -160 37 -195 101c-42 -67 -110 -102 -188 -102c-143 0 -248 91 -248 268c0 175 117 270 248 270c88 0 156 -34 195 -102c42 64 109 102 188 102c127 0 204 -69 204 -255h-345c3 -152 72 -218 174 -218c77 0 123 24 161 42v-40c-27 -22 -98 -66 -194 -66z
M286 30c90 0 132 67 132 217c0 170 -42 236 -140 236c-90 0 -134 -64 -134 -214c0 -170 44 -239 142 -239zM661 483c-73 0 -128 -53 -136 -171l232 12c0 115 -19 159 -96 159z" />
    <glyph glyph-name="endash" unicode="&#x2013;" horiz-adv-x="413" 
d="M48 261v51h317v-51h-317z" />
    <glyph glyph-name="emdash" unicode="&#x2014;" horiz-adv-x="652" 
d="M48 261v51h556v-51h-556z" />
    <glyph glyph-name="quotedblleft" unicode="&#x201c;" horiz-adv-x="498" 
d="M222 709l11 -28c-65 -32 -98 -72 -98 -120c4 4 13 7 27 7c33 0 56 -26 56 -60c0 -36 -28 -60 -67 -60c-43 0 -81 35 -81 88c0 79 56 149 152 173zM428 709l11 -28c-65 -32 -99 -72 -99 -120c4 4 13 7 27 7c33 0 57 -26 57 -60c0 -36 -29 -60 -67 -60c-43 0 -81 35 -81 88
c0 79 56 149 152 173z" />
    <glyph glyph-name="quotedblright" unicode="&#x201d;" horiz-adv-x="498" 
d="M276 445l-10 28c64 32 98 72 98 120c-5 -3 -14 -7 -27 -7c-34 0 -57 26 -57 60c0 36 29 60 67 60c43 0 81 -35 81 -88c0 -79 -56 -149 -152 -173zM70 445l-10 28c65 32 98 72 98 120c-4 -3 -13 -7 -27 -7c-33 0 -57 26 -57 60c0 36 29 60 67 60c43 0 81 -35 81 -88
c0 -79 -56 -149 -152 -173z" />
    <glyph glyph-name="quoteleft" unicode="&#x2018;" horiz-adv-x="292" 
d="M222 709l11 -28c-65 -32 -98 -72 -98 -120c4 4 13 7 27 7c33 0 56 -26 56 -60c0 -36 -28 -60 -67 -60c-43 0 -81 35 -81 88c0 79 56 149 152 173z" />
    <glyph glyph-name="quoteright" unicode="&#x2019;" horiz-adv-x="291" 
d="M70 445l-10 28c65 32 98 72 98 120c-4 -3 -13 -7 -27 -7c-33 0 -57 26 -57 60c0 36 29 60 67 60c43 0 81 -35 81 -88c0 -79 -56 -149 -152 -173z" />
    <glyph glyph-name="divide" unicode="&#xf7;" horiz-adv-x="469" 
d="M233 439c-38 0 -67 29 -67 66s29 67 67 67s69 -30 69 -67s-31 -66 -69 -66zM41 310v56h387v-56h-387zM233 103c-38 0 -67 30 -67 67c0 36 29 66 67 66s69 -30 69 -66c0 -37 -31 -67 -69 -67z" />
    <glyph glyph-name="ydieresis" unicode="&#xff;" horiz-adv-x="532" 
d="M103 -226c-62 0 -86 32 -86 65c0 31 18 54 49 54c32 0 47 -18 54 -41c5 -15 7 -18 16 -18c23 0 55 32 85 105l24 57l-168 409c-22 53 -25 58 -52 67l-24 8v29h228v-29l-27 -7c-23 -6 -29 -12 -29 -30c0 -13 5 -30 15 -54l108 -268h4l98 268c9 26 12 46 12 58
c0 17 -10 21 -28 26l-28 7v29h181v-29l-28 -8c-24 -7 -29 -20 -51 -77l-181 -454c-39 -98 -86 -167 -172 -167zM195 616c-36 0 -66 31 -66 63c0 34 30 63 66 63s66 -29 66 -63c0 -32 -30 -63 -66 -63zM396 616c-37 0 -66 31 -66 63c0 34 29 63 66 63c36 0 65 -29 65 -63
c0 -32 -29 -63 -65 -63z" />
    <glyph glyph-name="Ydieresis" unicode="&#x178;" horiz-adv-x="630" 
d="M186 0v31l49 9c24 5 31 10 31 60v180l-157 287c-36 64 -51 81 -79 89l-25 7v30h263v-30l-25 -6c-32 -7 -42 -18 -42 -36c0 -13 9 -29 22 -54l120 -230h4l116 230c12 25 17 41 17 54c0 19 -11 29 -36 35l-32 7v30h214v-30l-22 -7c-34 -11 -51 -25 -90 -103l-139 -265v-188
c0 -50 4 -55 32 -60l49 -9v-31h-270zM234 751c-36 0 -66 31 -66 63c0 34 30 63 66 63s66 -29 66 -63c0 -32 -30 -63 -66 -63zM451 752c-37 0 -66 31 -66 63c0 34 29 63 66 63c36 0 65 -29 65 -63c0 -32 -29 -63 -65 -63z" />
    <glyph glyph-name="fraction" unicode="&#x2044;" horiz-adv-x="272" 
d="M-146 -50l506 764h58l-506 -764h-58z" />
    <glyph glyph-name="Euro" unicode="&#x20ac;" horiz-adv-x="602" 
d="M13 394v46h97c32 185 154 265 283 265c104 0 179 -41 179 -106c0 -29 -17 -55 -55 -55c-35 0 -57 14 -65 71c-6 42 -22 48 -78 48c-87 0 -148 -70 -163 -223h231l-8 -46h-226v-31c0 -23 1 -44 2 -63h207l-7 -46h-196c18 -145 79 -203 188 -203c74 0 121 23 161 48v-41
c-37 -33 -99 -70 -193 -70c-139 0 -239 87 -263 266h-94v46h90c0 12 -1 25 -1 39c0 19 1 37 2 55h-91z" />
    <glyph glyph-name="guilsinglleft" unicode="&#x2039;" horiz-adv-x="282" 
d="M210 45l-161 193v29l161 193h43l-110 -207l110 -208h-43z" />
    <glyph glyph-name="guilsinglright" unicode="&#x203a;" horiz-adv-x="282" 
d="M25 46l110 207l-110 208h43l161 -193v-29l-161 -193h-43z" />
    <glyph glyph-name="daggerdbl" unicode="&#x2021;" horiz-adv-x="433" 
d="M201 316l-38 101c21 20 34 41 36 72c-60 -3 -97 -30 -126 -30c-30 0 -46 20 -46 45c0 26 16 46 46 46c29 0 66 -27 126 -31c-4 52 -37 103 -37 133c0 31 28 50 53 50c26 0 53 -19 53 -50c0 -30 -32 -81 -36 -133c62 3 99 31 128 31c30 0 46 -20 46 -46
c0 -25 -16 -45 -46 -45c-29 0 -66 27 -128 30c3 -31 17 -52 36 -72l-38 -101h-29zM201 289h29l38 -102c-19 -20 -33 -41 -36 -72c62 3 99 30 128 30c30 0 46 -20 46 -45c0 -26 -16 -46 -46 -46c-29 0 -66 28 -128 31c4 -52 36 -103 36 -133c0 -31 -27 -50 -53 -50
c-25 0 -53 19 -53 50c0 30 33 81 37 133c-60 -4 -97 -31 -126 -31c-30 0 -46 20 -46 46c0 25 16 45 46 45c29 0 66 -27 126 -30c-2 31 -15 52 -36 72z" />
    <glyph glyph-name="periodcentered" unicode="&#xb7;" horiz-adv-x="297" 
d="M148 271c-40 0 -72 31 -72 70s32 71 72 71c41 0 73 -32 73 -71s-32 -70 -73 -70z" />
    <glyph glyph-name="quotesinglbase" unicode="&#x201a;" horiz-adv-x="291" 
d="M70 -124l-10 28c65 32 98 72 98 120c-4 -3 -13 -7 -27 -7c-33 0 -57 26 -57 60c0 36 29 60 67 60c43 0 81 -35 81 -88c0 -79 -56 -149 -152 -173z" />
    <glyph glyph-name="quotedblbase" unicode="&#x201e;" horiz-adv-x="498" 
d="M276 -124l-10 28c64 32 98 72 98 120c-5 -3 -14 -7 -27 -7c-34 0 -57 26 -57 60c0 36 29 60 67 60c43 0 81 -35 81 -88c0 -79 -56 -149 -152 -173zM70 -124l-10 28c65 32 98 72 98 120c-4 -3 -13 -7 -27 -7c-33 0 -57 26 -57 60c0 36 29 60 67 60c43 0 81 -35 81 -88
c0 -79 -56 -149 -152 -173z" />
    <glyph glyph-name="perthousand" unicode="&#x2030;" horiz-adv-x="1165" 
d="M195 348c-71 0 -161 53 -161 171c0 126 95 184 164 184s161 -54 161 -174c0 -124 -97 -181 -164 -181zM104 -50l505 764h59l-505 -764h-59zM590 -14c-71 0 -161 53 -161 171c0 126 95 184 164 184s161 -54 161 -174c0 -124 -97 -181 -164 -181zM196 383
c49 0 78 40 78 136c0 105 -29 149 -78 149c-48 0 -76 -41 -76 -138c0 -102 28 -147 76 -147zM591 21c49 0 77 40 77 136c0 105 -28 149 -77 149c-48 0 -76 -41 -76 -138c0 -102 28 -147 76 -147zM967 -14c-71 0 -161 53 -161 171c0 126 95 184 164 184s161 -54 161 -174
c0 -124 -97 -181 -164 -181zM968 21c49 0 77 40 77 136c0 105 -28 149 -77 149c-48 0 -76 -41 -76 -138c0 -102 28 -147 76 -147z" />
    <glyph glyph-name="Acircumflex" unicode="&#xc2;" horiz-adv-x="667" 
d="M1 0v31l30 7c28 7 39 13 67 90l203 565h60l213 -576c26 -67 39 -72 64 -79l28 -7v-31h-251v31l28 7c27 7 35 13 35 29c0 15 -7 33 -16 59l-39 107h-232l-36 -107c-9 -27 -13 -40 -13 -54c0 -21 12 -29 36 -34l34 -7v-31h-211zM302 560l-96 -282h201l-100 282h-5zM355 897
l134 -127l-18 -24l-141 70l-141 -70l-17 24l132 127h51z" />
    <glyph glyph-name="Ecircumflex" unicode="&#xca;" horiz-adv-x="617" 
d="M31 0v31l45 9c24 4 32 10 32 60v494c0 50 -8 55 -32 60l-45 9v30h517l13 -177h-36c-21 49 -36 77 -48 94c-28 38 -46 39 -136 39c-73 0 -104 -4 -124 -9v-257h44c78 0 106 3 121 31c11 22 17 39 25 69h35v-246h-35c-10 30 -14 43 -25 69c-14 30 -32 31 -121 31h-44v-185
c0 -107 3 -108 133 -108c93 0 109 2 137 37c16 21 40 73 60 128h37l-15 -209h-538zM339 897l134 -127l-18 -24l-141 70l-141 -70l-17 24l132 127h51z" />
    <glyph glyph-name="Aacute" unicode="&#xc1;" horiz-adv-x="667" 
d="M1 0v31l30 7c28 7 39 13 67 90l203 565h60l213 -576c26 -67 39 -72 64 -79l28 -7v-31h-251v31l28 7c27 7 35 13 35 29c0 15 -7 33 -16 59l-39 107h-232l-36 -107c-9 -27 -13 -40 -13 -54c0 -21 12 -29 36 -34l34 -7v-31h-211zM302 560l-96 -282h201l-100 282h-5zM238 748
l-11 24l162 114c15 10 27 15 39 15c23 0 41 -22 41 -43c0 -17 -9 -37 -37 -46z" />
    <glyph glyph-name="Edieresis" unicode="&#xcb;" horiz-adv-x="617" 
d="M31 0v31l45 9c24 4 32 10 32 60v494c0 50 -8 55 -32 60l-45 9v30h517l13 -177h-36c-21 49 -36 77 -48 94c-28 38 -46 39 -136 39c-73 0 -104 -4 -124 -9v-257h44c78 0 106 3 121 31c11 22 17 39 25 69h35v-246h-35c-10 30 -14 43 -25 69c-14 30 -32 31 -121 31h-44v-185
c0 -107 3 -108 133 -108c93 0 109 2 137 37c16 21 40 73 60 128h37l-15 -209h-538zM206 751c-36 0 -66 31 -66 63c0 34 30 63 66 63s66 -29 66 -63c0 -32 -30 -63 -66 -63zM423 752c-37 0 -66 31 -66 63c0 34 29 63 66 63c36 0 65 -29 65 -63c0 -32 -29 -63 -65 -63z" />
    <glyph glyph-name="Egrave" unicode="&#xc8;" horiz-adv-x="617" 
d="M31 0v31l45 9c24 4 32 10 32 60v494c0 50 -8 55 -32 60l-45 9v30h517l13 -177h-36c-21 49 -36 77 -48 94c-28 38 -46 39 -136 39c-73 0 -104 -4 -124 -9v-257h44c78 0 106 3 121 31c11 22 17 39 25 69h35v-246h-35c-10 30 -14 43 -25 69c-14 30 -32 31 -121 31h-44v-185
c0 -107 3 -108 133 -108c93 0 109 2 137 37c16 21 40 73 60 128h37l-15 -209h-538zM413 748l-195 64c-28 9 -37 29 -37 46c0 21 18 43 41 43c12 0 24 -5 39 -15l163 -114z" />
    <glyph glyph-name="Iacute" unicode="&#xcd;" horiz-adv-x="333" 
d="M31 0v31l49 9c25 4 32 10 32 60v494c0 50 -7 56 -32 60l-49 9v30h272v-30l-50 -9c-27 -5 -32 -10 -32 -60v-494c0 -50 5 -55 32 -60l50 -9v-31h-272zM75 748l-11 24l162 114c15 10 27 15 39 15c23 0 41 -22 41 -43c0 -17 -9 -37 -37 -46z" />
    <glyph glyph-name="Icircumflex" unicode="&#xce;" horiz-adv-x="333" 
d="M31 0v31l49 9c25 4 32 10 32 60v494c0 50 -7 56 -32 60l-49 9v30h272v-30l-50 -9c-27 -5 -32 -10 -32 -60v-494c0 -50 5 -55 32 -60l50 -9v-31h-272zM192 897l134 -127l-18 -24l-141 70l-141 -70l-17 24l132 127h51z" />
    <glyph glyph-name="Idieresis" unicode="&#xcf;" horiz-adv-x="333" 
d="M31 0v31l49 9c25 4 32 10 32 60v494c0 50 -7 56 -32 60l-49 9v30h272v-30l-50 -9c-27 -5 -32 -10 -32 -60v-494c0 -50 5 -55 32 -60l50 -9v-31h-272zM59 751c-36 0 -66 31 -66 63c0 34 30 63 66 63s66 -29 66 -63c0 -32 -30 -63 -66 -63zM276 752c-37 0 -66 31 -66 63
c0 34 29 63 66 63c36 0 65 -29 65 -63c0 -32 -29 -63 -65 -63z" />
    <glyph glyph-name="Igrave" unicode="&#xcc;" horiz-adv-x="333" 
d="M31 0v31l49 9c25 4 32 10 32 60v494c0 50 -7 56 -32 60l-49 9v30h272v-30l-50 -9c-27 -5 -32 -10 -32 -60v-494c0 -50 5 -55 32 -60l50 -9v-31h-272zM266 748l-195 64c-28 9 -37 29 -37 46c0 21 18 43 41 43c12 0 24 -5 39 -15l163 -114z" />
    <glyph glyph-name="Oacute" unicode="&#xd3;" horiz-adv-x="714" 
d="M352 -12c-176 0 -313 120 -313 349c0 259 157 368 323 368c175 0 313 -125 313 -354c0 -259 -157 -363 -323 -363zM360 37c138 0 201 83 201 297c0 160 -45 323 -208 323c-138 0 -200 -89 -200 -303c0 -160 45 -317 207 -317zM265 748l-11 24l162 114c15 10 27 15 39 15
c23 0 41 -22 41 -43c0 -17 -9 -37 -37 -46z" />
    <glyph glyph-name="Ocircumflex" unicode="&#xd4;" horiz-adv-x="714" 
d="M352 -12c-176 0 -313 120 -313 349c0 259 157 368 323 368c175 0 313 -125 313 -354c0 -259 -157 -363 -323 -363zM360 37c138 0 201 83 201 297c0 160 -45 323 -208 323c-138 0 -200 -89 -200 -303c0 -160 45 -317 207 -317zM382 897l134 -127l-18 -24l-141 70l-141 -70
l-17 24l132 127h51z" />
    <glyph glyph-name="Ograve" unicode="&#xd2;" horiz-adv-x="714" 
d="M352 -12c-176 0 -313 120 -313 349c0 259 157 368 323 368c175 0 313 -125 313 -354c0 -259 -157 -363 -323 -363zM360 37c138 0 201 83 201 297c0 160 -45 323 -208 323c-138 0 -200 -89 -200 -303c0 -160 45 -317 207 -317zM456 748l-195 64c-28 9 -37 29 -37 46
c0 21 18 43 41 43c12 0 24 -5 39 -15l163 -114z" />
    <glyph glyph-name="Uacute" unicode="&#xda;" horiz-adv-x="701" 
d="M356 -12c-160 0 -262 70 -262 237v369c0 50 -7 55 -32 60l-46 9v30h262v-30l-43 -9c-28 -6 -32 -10 -32 -60v-379c0 -116 49 -169 179 -169c120 0 172 65 172 178v360c0 60 -8 67 -42 72l-50 7v30h222v-30l-35 -7c-29 -6 -42 -12 -42 -72v-367c0 -123 -72 -229 -251 -229
zM280 748l-11 24l162 114c15 10 27 15 39 15c23 0 41 -22 41 -43c0 -17 -9 -37 -37 -46z" />
    <glyph glyph-name="Ucircumflex" unicode="&#xdb;" horiz-adv-x="701" 
d="M356 -12c-160 0 -262 70 -262 237v369c0 50 -7 55 -32 60l-46 9v30h262v-30l-43 -9c-28 -6 -32 -10 -32 -60v-379c0 -116 49 -169 179 -169c120 0 172 65 172 178v360c0 60 -8 67 -42 72l-50 7v30h222v-30l-35 -7c-29 -6 -42 -12 -42 -72v-367c0 -123 -72 -229 -251 -229
zM397 897l134 -127l-18 -24l-141 70l-141 -70l-17 24l132 127h51z" />
    <glyph glyph-name="Ugrave" unicode="&#xd9;" horiz-adv-x="701" 
d="M356 -12c-160 0 -262 70 -262 237v369c0 50 -7 55 -32 60l-46 9v30h262v-30l-43 -9c-28 -6 -32 -10 -32 -60v-379c0 -116 49 -169 179 -169c120 0 172 65 172 178v360c0 60 -8 67 -42 72l-50 7v30h222v-30l-35 -7c-29 -6 -42 -12 -42 -72v-367c0 -123 -72 -229 -251 -229
zM471 748l-195 64c-28 9 -37 29 -37 46c0 21 18 43 41 43c12 0 24 -5 39 -15l163 -114z" />
    <glyph glyph-name="dotlessi" unicode="&#x131;" horiz-adv-x="279" 
d="M25 0v28l41 12c22 5 27 14 27 59v299c0 45 -5 46 -30 58l-38 20v26l165 21l10 -6c-1 -5 -7 -46 -7 -117v-301c0 -48 5 -54 26 -59l41 -12v-28h-235zM201 517h-1c1 1 1 1 1 0z" />
    <glyph glyph-name="circumflex" unicode="&#x2c6;" horiz-adv-x="510" 
d="M280 751l134 -141l-18 -24l-141 84l-141 -84l-17 24l132 141h51z" />
    <glyph glyph-name="tilde" unicode="&#x2dc;" horiz-adv-x="510" 
d="M120 583l-34 14c29 83 56 124 98 124c41 0 111 -41 136 -41c21 0 36 20 60 66l32 -13c-29 -83 -56 -124 -98 -124c-41 0 -108 41 -136 41c-21 0 -34 -20 -58 -67z" />
    <glyph glyph-name="macron" unicode="&#xaf;" horiz-adv-x="510" 
d="M113 628v65h284v-65h-284z" />
    <glyph glyph-name="breve" unicode="&#x2d8;" horiz-adv-x="510" 
d="M256 594c-75 0 -130 63 -137 146l29 8c14 -47 51 -84 107 -84s93 37 107 84l28 -8c-6 -83 -59 -146 -134 -146z" />
    <glyph glyph-name="dotaccent" unicode="&#x2d9;" horiz-adv-x="510" 
d="M255 614c-38 0 -68 32 -68 65c0 36 30 65 68 65c37 0 67 -29 67 -65c0 -33 -30 -65 -67 -65z" />
    <glyph glyph-name="ring" unicode="&#x2da;" horiz-adv-x="510" 
d="M255 588c-58 0 -102 45 -102 98c0 55 44 99 102 99s102 -44 102 -99c0 -53 -44 -98 -102 -98zM255 626c35 0 58 25 58 60s-23 61 -58 61s-58 -26 -58 -61s23 -60 58 -60z" />
    <glyph glyph-name="cedilla" unicode="&#xb8;" horiz-adv-x="510" 
d="M153 -239v27c83 19 109 43 109 70c0 21 -23 35 -70 39l-9 9l49 94h49l-42 -57c66 -5 100 -32 100 -71c0 -45 -56 -99 -186 -111z" />
    <glyph glyph-name="hungarumlaut" unicode="&#x2dd;" horiz-adv-x="510" 
d="M315 592l-17 20l96 123c11 14 21 21 34 21c17 0 44 -18 44 -40c0 -14 -4 -27 -25 -40zM141 592l-18 20l95 123c11 15 22 21 35 21c16 0 44 -18 44 -40c0 -14 -4 -26 -26 -40z" />
    <glyph glyph-name="ogonek" unicode="&#x2db;" horiz-adv-x="510" 
d="M242 -223c-56 0 -96 31 -96 84c0 59 57 107 102 139h44c-35 -39 -57 -78 -57 -119c0 -27 8 -44 31 -49c15 -3 32 -4 59 -3v-28c-16 -11 -40 -24 -83 -24z" />
    <glyph glyph-name="caron" unicode="&#x2c7;" horiz-adv-x="510" 
d="M230 598l-133 141l17 24l141 -84l141 84l18 -24l-133 -141h-51z" />
    <glyph glyph-name="space_uni0326" horiz-adv-x="510" 
d="M182 -284l-8 27c70 23 85 57 85 89c-4 -3 -13 -7 -25 -7c-36 0 -53 23 -53 52c0 30 28 56 64 56c42 0 78 -24 78 -79c0 -61 -45 -119 -141 -138z" />
    <glyph glyph-name="caron.alt" horiz-adv-x="510" 
d="M307 565l-25 7l8 143c1 25 11 50 46 50c22 0 41 -14 41 -39c0 -9 -1 -19 -7 -31z" />
    <glyph glyph-name="space_uni0326.alt" horiz-adv-x="510" 
d="M322 823l8 -27c-70 -23 -85 -57 -85 -89c4 3 13 7 25 7c36 0 53 -23 53 -52c0 -30 -28 -56 -64 -56c-42 0 -78 24 -78 79c0 61 45 119 141 138z" />
    <glyph glyph-name="acute.pl" horiz-adv-x="510" 
d="M224 574l-22 16l75 157c10 20 24 35 47 35c22 0 43 -18 43 -42c0 -12 -4 -25 -16 -38z" />
    <glyph glyph-name="grave.uc" horiz-adv-x="510" 
d="M363 748l-195 64c-28 9 -37 29 -37 46c0 21 18 43 41 43c12 0 24 -5 39 -15l163 -114z" />
    <glyph glyph-name="dieresis.uc" horiz-adv-x="510" 
d="M147 751c-36 0 -66 31 -66 63c0 34 30 63 66 63s66 -29 66 -63c0 -32 -30 -63 -66 -63zM364 752c-37 0 -66 31 -66 63c0 34 29 63 66 63c36 0 65 -29 65 -63c0 -32 -29 -63 -65 -63z" />
    <glyph glyph-name="macron.uc" horiz-adv-x="510" 
d="M113 777v65h284v-65h-284z" />
    <glyph glyph-name="acute.uc" horiz-adv-x="510" 
d="M148 748l-11 24l162 114c15 10 27 15 39 15c23 0 41 -22 41 -43c0 -17 -9 -37 -37 -46z" />
    <glyph glyph-name="circumflex.uc" horiz-adv-x="510" 
d="M280 897l134 -127l-18 -24l-141 70l-141 -70l-17 24l132 127h51z" />
    <glyph glyph-name="caron.uc" horiz-adv-x="510" 
d="M230 758l-133 127l17 24l141 -70l141 70l18 -24l-133 -127h-51z" />
    <glyph glyph-name="breve.uc" horiz-adv-x="510" 
d="M256 755c-75 0 -130 61 -137 130l29 8c14 -37 51 -66 107 -66s93 29 107 66l28 -8c-6 -69 -59 -130 -134 -130z" />
    <glyph glyph-name="dotaccent.uc" horiz-adv-x="510" 
d="M255 750c-38 0 -68 32 -68 65c0 36 30 65 68 65c37 0 67 -29 67 -65c0 -33 -30 -65 -67 -65z" />
    <glyph glyph-name="ring.uc" horiz-adv-x="510" 
d="M255 738c-58 0 -102 45 -102 98c0 55 44 99 102 99s102 -44 102 -99c0 -53 -44 -98 -102 -98zM255 776c35 0 58 25 58 60s-23 61 -58 61s-58 -26 -58 -61s23 -60 58 -60z" />
    <glyph glyph-name="tilde.uc" horiz-adv-x="510" 
d="M120 763l-34 14c29 78 56 114 98 114c41 0 111 -41 136 -41c21 0 36 12 60 56l32 -13c-29 -79 -56 -114 -98 -114c-41 0 -108 41 -136 41c-21 0 -34 -12 -58 -57z" />
    <glyph glyph-name="hungarumlaut.uc" horiz-adv-x="510" 
d="M315 762l-17 20l96 123c11 14 21 21 34 21c17 0 44 -18 44 -40c0 -14 -4 -27 -25 -40zM141 762l-18 20l95 123c11 15 22 21 35 21c16 0 44 -18 44 -40c0 -14 -4 -26 -26 -40z" />
    <glyph glyph-name="acute.ucpl" horiz-adv-x="510" 
d="M234 749l-21 17l70 133c11 20 24 32 45 32c23 0 44 -16 44 -42c0 -15 -6 -29 -20 -41z" />
    <glyph glyph-name="Dcroat" unicode="&#x110;" horiz-adv-x="705" 
d="M34 329v43h74v222c0 50 -8 55 -32 60l-45 9v30h297c191 0 341 -85 341 -340c0 -234 -143 -353 -347 -353h-291v31l45 9c24 4 32 10 32 60v229h-74zM315 42c187 0 240 119 240 292c0 221 -67 317 -242 317c-49 0 -78 -4 -96 -9v-270h184v-43h-184v-190c0 -80 6 -97 98 -97
z" />
    <glyph glyph-name="Eng" unicode="&#x14a;" horiz-adv-x="705" 
d="M451 -188c35 0 102 50 102 178l-387 613h-4v-493c0 -60 8 -66 42 -72l42 -7v-31h-215v31l35 7c29 6 42 12 42 72v484c0 50 -8 55 -32 60l-45 9v30h203l315 -505h4v396c0 60 -8 67 -42 72l-47 7v30h219v-30l-35 -7c-29 -6 -42 -12 -42 -72v-591c0 -129 -65 -222 -186 -222
c-76 0 -115 32 -115 74c0 27 18 50 55 50c41 0 53 -22 63 -59c7 -20 8 -24 28 -24z" />
    <glyph glyph-name="IJ" unicode="&#x132;" horiz-adv-x="644" 
d="M31 0v31l49 9c25 4 32 10 32 60v494c0 50 -7 56 -32 60l-49 9v30h272v-30l-50 -9c-27 -5 -32 -10 -32 -60v-494c0 -50 5 -55 32 -60l50 -9v-31h-272zM354 -163c-76 0 -115 32 -115 74c0 27 18 50 55 50c41 0 53 -22 63 -59c7 -20 8 -24 28 -24c34 0 56 23 56 96v620
c0 50 -5 54 -32 60l-48 9v30h267v-30l-46 -9c-25 -5 -32 -10 -32 -60v-535c0 -129 -65 -222 -196 -222z" />
    <glyph glyph-name="uni0237" unicode="&#x237;" horiz-adv-x="271" 
d="M11 -228c-62 0 -93 34 -93 69c0 27 22 47 53 47c39 0 49 -22 52 -45c4 -31 9 -34 19 -34c31 0 51 27 51 64v530c0 40 -5 42 -30 54l-38 19v26l165 21l10 -6s-7 -41 -7 -117v-422c0 -151 -82 -206 -182 -206z" />
    <glyph glyph-name="dcroat" unicode="&#x111;" horiz-adv-x="597" 
d="M227 598v41h185v9c0 40 -7 42 -30 53l-42 20v28l168 16l10 -8s-6 -40 -6 -117v-1h91v-41h-91v-483c0 -45 6 -51 30 -62l37 -17v-27l-159 -21l-7 6l5 53h-4c-43 -32 -109 -59 -175 -59c-97 0 -201 61 -201 251c0 195 137 285 282 285c42 0 75 -6 95 -12c0 0 -3 40 -3 76
v10h-185zM294 56c61 0 95 22 118 33v349c-22 21 -53 42 -99 42c-105 0 -170 -59 -170 -221c0 -144 54 -203 151 -203z" />
    <glyph glyph-name="eng" unicode="&#x14b;" horiz-adv-x="588" 
d="M335 -228c-62 0 -93 34 -93 69c0 27 22 47 53 47c39 0 49 -22 52 -45c4 -31 9 -34 19 -34c31 0 51 27 51 64v490c0 70 -23 95 -87 95c-49 0 -108 -20 -137 -31v-334c0 -42 6 -47 26 -52l41 -11v-30h-235v30l41 11c20 5 27 13 27 52v310c0 40 -5 42 -30 54l-38 19v26
l158 21l10 -6l-5 -56h4c50 32 125 63 189 63c101 0 136 -43 136 -133v-413c0 -151 -82 -206 -182 -206z" />
    <glyph glyph-name="ij" unicode="&#x133;" horiz-adv-x="550" 
d="M139 614c-38 0 -68 32 -68 65c0 36 30 65 68 65c37 0 67 -29 67 -65c0 -33 -30 -65 -67 -65zM25 0v30l41 11c20 5 27 13 27 52v310c0 40 -5 42 -30 54l-38 19v26l165 21l10 -6s-7 -41 -7 -112v-312c0 -42 6 -47 26 -52l41 -11v-30h-235zM416 614c-38 0 -68 32 -68 65
c0 36 30 65 68 65c37 0 67 -29 67 -65c0 -33 -30 -65 -67 -65zM290 -228c-62 0 -93 34 -93 69c0 27 22 47 53 47c39 0 49 -22 52 -45c4 -31 9 -34 19 -34c31 0 51 27 51 64v530c0 40 -5 42 -30 54l-38 19v26l165 21l10 -6s-7 -41 -7 -117v-422c0 -151 -82 -206 -182 -206z
" />
    <glyph glyph-name="Abreve" unicode="&#x102;" horiz-adv-x="667" 
d="M1 0v31l30 7c28 7 39 13 67 90l203 565h60l213 -576c26 -67 39 -72 64 -79l28 -7v-31h-251v31l28 7c27 7 35 13 35 29c0 15 -7 33 -16 59l-39 107h-232l-36 -107c-9 -27 -13 -40 -13 -54c0 -21 12 -29 36 -34l34 -7v-31h-211zM302 560l-96 -282h201l-100 282h-5zM332 755
c-75 0 -130 61 -137 130l29 8c14 -37 51 -66 107 -66s93 29 107 66l28 -8c-6 -69 -59 -130 -134 -130z" />
    <glyph glyph-name="Amacron" unicode="&#x100;" horiz-adv-x="667" 
d="M1 0v31l30 7c28 7 39 13 67 90l203 565h60l213 -576c26 -67 39 -72 64 -79l28 -7v-31h-251v31l28 7c27 7 35 13 35 29c0 15 -7 33 -16 59l-39 107h-232l-36 -107c-9 -27 -13 -40 -13 -54c0 -21 12 -29 36 -34l34 -7v-31h-211zM302 560l-96 -282h201l-100 282h-5zM188 777
v65h284v-65h-284z" />
    <glyph glyph-name="Aogonek" unicode="&#x104;" horiz-adv-x="667" 
d="M500 18l-77 215h-232l-36 -107c-9 -27 -13 -40 -13 -54c0 -21 12 -29 36 -34l34 -7v-31h-211v31l30 7c28 7 39 13 67 90l203 565h60l213 -576c25 -67 39 -72 64 -79l28 -7v-31h-62c-92 0 -143 -62 -143 -119c0 -27 8 -44 31 -49c15 -3 32 -4 59 -3v-28
c-16 -11 -40 -24 -83 -24c-56 0 -96 31 -96 84s53 102 128 157zM302 560l-96 -282h201l-100 282h-5z" />
    <glyph glyph-name="Aringacute" unicode="&#x1fa;" horiz-adv-x="667" 
d="M1 0v31l30 7c28 7 39 13 67 90l203 565h60l213 -576c26 -67 39 -72 64 -79l28 -7v-31h-251v31l28 7c27 7 35 13 35 29c0 15 -7 33 -16 59l-39 107h-232l-36 -107c-9 -27 -13 -40 -13 -54c0 -21 12 -29 36 -34l34 -7v-31h-211zM330 738c-58 0 -102 45 -102 98
c0 55 44 99 102 99s102 -44 102 -99c0 -53 -44 -98 -102 -98zM302 560l-96 -282h201l-100 282h-5zM238 950l-11 24l162 114c15 10 27 15 39 15c23 0 41 -22 41 -43c0 -17 -9 -37 -37 -46zM330 776c35 0 58 25 58 60s-23 61 -58 61s-58 -26 -58 -61s23 -60 58 -60z" />
    <glyph glyph-name="AEacute" unicode="&#x1fc;" horiz-adv-x="941" 
d="M366 0v31l45 9c24 4 32 10 32 60v121h-220l-46 -82c-18 -33 -29 -56 -29 -72s9 -25 28 -29l36 -7v-31h-211v31l23 7c28 7 45 15 96 103l294 511h-1l-57 11v30h516l13 -177h-36c-20 49 -35 77 -48 94c-27 38 -46 39 -135 39c-69 0 -94 -4 -115 -9v-257h30
c78 0 106 3 121 31c11 22 18 37 25 69h36v-246h-36c-8 33 -14 43 -25 69c-14 30 -32 31 -121 31h-30v-185c0 -107 13 -108 124 -108c93 0 109 2 136 37c17 21 40 73 61 128h36l-15 -209h-527zM440 610l-192 -344h195v344h-3zM538 748l-11 24l162 114c15 10 27 15 39 15
c23 0 41 -22 41 -43c0 -17 -9 -37 -37 -46z" />
    <glyph glyph-name="Cacute" unicode="&#x106;" horiz-adv-x="630" 
d="M365 -12c-189 0 -326 102 -326 353c0 267 159 364 349 364c77 0 145 -11 189 -24l9 -198h-35c-19 50 -42 105 -65 139c-21 31 -41 37 -110 37c-144 0 -221 -71 -221 -299c0 -244 70 -326 207 -326c91 0 113 22 137 57c28 43 39 68 58 121h32l-10 -180
c-46 -22 -128 -44 -214 -44zM275 748l-11 24l162 114c15 10 27 15 39 15c23 0 41 -22 41 -43c0 -17 -9 -37 -37 -46z" />
    <glyph glyph-name="Ccaron" unicode="&#x10c;" horiz-adv-x="630" 
d="M365 -12c-189 0 -326 102 -326 353c0 267 159 364 349 364c77 0 145 -11 189 -24l9 -198h-35c-19 50 -42 105 -65 139c-21 31 -41 37 -110 37c-144 0 -221 -71 -221 -299c0 -244 70 -326 207 -326c91 0 113 22 137 57c28 43 39 68 58 121h32l-10 -180
c-46 -22 -128 -44 -214 -44zM342 758l-133 127l17 24l141 -70l141 70l18 -24l-133 -127h-51z" />
    <glyph glyph-name="Ccircumflex" unicode="&#x108;" horiz-adv-x="630" 
d="M365 -12c-189 0 -326 102 -326 353c0 267 159 364 349 364c77 0 145 -11 189 -24l9 -198h-35c-19 50 -42 105 -65 139c-21 31 -41 37 -110 37c-144 0 -221 -71 -221 -299c0 -244 70 -326 207 -326c91 0 113 22 137 57c28 43 39 68 58 121h32l-10 -180
c-46 -22 -128 -44 -214 -44zM392 897l134 -127l-18 -24l-141 70l-141 -70l-17 24l132 127h51z" />
    <glyph glyph-name="Cdotaccent" unicode="&#x10a;" horiz-adv-x="630" 
d="M365 -12c-189 0 -326 102 -326 353c0 267 159 364 349 364c77 0 145 -11 189 -24l9 -198h-35c-19 50 -42 105 -65 139c-21 31 -41 37 -110 37c-144 0 -221 -71 -221 -299c0 -244 70 -326 207 -326c91 0 113 22 137 57c28 43 39 68 58 121h32l-10 -180
c-46 -22 -128 -44 -214 -44zM368 750c-38 0 -68 32 -68 65c0 36 30 65 68 65c37 0 67 -29 67 -65c0 -33 -30 -65 -67 -65z" />
    <glyph glyph-name="Cacute.pl" horiz-adv-x="630" 
d="M365 -12c-189 0 -326 102 -326 353c0 267 159 364 349 364c77 0 145 -11 189 -24l9 -198h-35c-19 50 -42 105 -65 139c-21 31 -41 37 -110 37c-144 0 -221 -71 -221 -299c0 -244 70 -326 207 -326c91 0 113 22 137 57c28 43 39 68 58 121h32l-10 -180
c-46 -22 -128 -44 -214 -44zM340 749l-21 17l70 133c11 20 24 32 45 32c23 0 44 -16 44 -42c0 -15 -6 -29 -20 -41z" />
    <glyph glyph-name="Dcaron" unicode="&#x10e;" horiz-adv-x="705" 
d="M31 0v31l45 9c24 4 32 10 32 60v494c0 50 -8 55 -32 60l-45 9v30h297c191 0 341 -85 341 -340c0 -234 -143 -353 -347 -353h-291zM315 42c187 0 240 119 240 292c0 221 -67 317 -242 317c-49 0 -78 -4 -96 -9v-503c0 -80 6 -97 98 -97zM315 758l-133 127l17 24l141 -70
l141 70l18 -24l-133 -127h-51z" />
    <glyph glyph-name="Ebreve" unicode="&#x114;" horiz-adv-x="617" 
d="M31 0v31l45 9c24 4 32 10 32 60v494c0 50 -8 55 -32 60l-45 9v30h517l13 -177h-36c-21 49 -36 77 -48 94c-28 38 -46 39 -136 39c-73 0 -104 -4 -124 -9v-257h44c78 0 106 3 121 31c11 22 17 39 25 69h35v-246h-35c-10 30 -14 43 -25 69c-14 30 -32 31 -121 31h-44v-185
c0 -107 3 -108 133 -108c93 0 109 2 137 37c16 21 40 73 60 128h37l-15 -209h-538zM316 755c-75 0 -130 61 -137 130l29 8c14 -37 51 -66 107 -66s93 29 107 66l28 -8c-6 -69 -59 -130 -134 -130z" />
    <glyph glyph-name="Ecaron" unicode="&#x11a;" horiz-adv-x="617" 
d="M31 0v31l45 9c24 4 32 10 32 60v494c0 50 -8 55 -32 60l-45 9v30h517l13 -177h-36c-21 49 -36 77 -48 94c-28 38 -46 39 -136 39c-73 0 -104 -4 -124 -9v-257h44c78 0 106 3 121 31c11 22 17 39 25 69h35v-246h-35c-10 30 -14 43 -25 69c-14 30 -32 31 -121 31h-44v-185
c0 -107 3 -108 133 -108c93 0 109 2 137 37c16 21 40 73 60 128h37l-15 -209h-538zM289 758l-133 127l17 24l141 -70l141 70l18 -24l-133 -127h-51z" />
    <glyph glyph-name="Edotaccent" unicode="&#x116;" horiz-adv-x="617" 
d="M31 0v31l45 9c24 4 32 10 32 60v494c0 50 -8 55 -32 60l-45 9v30h517l13 -177h-36c-21 49 -36 77 -48 94c-28 38 -46 39 -136 39c-73 0 -104 -4 -124 -9v-257h44c78 0 106 3 121 31c11 22 17 39 25 69h35v-246h-35c-10 30 -14 43 -25 69c-14 30 -32 31 -121 31h-44v-185
c0 -107 3 -108 133 -108c93 0 109 2 137 37c16 21 40 73 60 128h37l-15 -209h-538zM315 750c-38 0 -68 32 -68 65c0 36 30 65 68 65c37 0 67 -29 67 -65c0 -33 -30 -65 -67 -65z" />
    <glyph glyph-name="Emacron" unicode="&#x112;" horiz-adv-x="617" 
d="M31 0v31l45 9c24 4 32 10 32 60v494c0 50 -8 55 -32 60l-45 9v30h517l13 -177h-36c-21 49 -36 77 -48 94c-28 38 -46 39 -136 39c-73 0 -104 -4 -124 -9v-257h44c78 0 106 3 121 31c11 22 17 39 25 69h35v-246h-35c-10 30 -14 43 -25 69c-14 30 -32 31 -121 31h-44v-185
c0 -107 3 -108 133 -108c93 0 109 2 137 37c16 21 40 73 60 128h37l-15 -209h-538zM172 777v65h284v-65h-284z" />
    <glyph glyph-name="Eogonek" unicode="&#x118;" horiz-adv-x="617" 
d="M31 0v31l45 9c24 4 32 10 32 60v494c0 50 -8 55 -32 60l-45 9v30h517l13 -177h-36c-21 49 -36 77 -48 94c-28 38 -46 39 -136 39c-73 0 -104 -4 -124 -9v-257h44c78 0 106 3 121 31c11 22 17 39 25 69h35v-246h-35c-10 30 -14 43 -25 69c-14 30 -32 31 -121 31h-44v-185
c0 -107 3 -108 133 -108c93 0 109 2 137 37c16 21 40 73 60 128h37l-15 -209h-84c-35 -39 -57 -78 -57 -119c0 -27 8 -44 31 -49c15 -3 32 -4 59 -3v-28c-16 -11 -40 -24 -83 -24c-56 0 -96 31 -96 84c0 57 52 105 96 139h-404z" />
    <glyph glyph-name="Gbreve" unicode="&#x11e;" horiz-adv-x="690" 
d="M381 -12c-209 0 -342 111 -342 353c0 268 164 364 349 364c92 0 149 -7 200 -19l14 -199h-36c-22 65 -46 103 -60 124c-23 35 -32 46 -124 46c-150 0 -229 -79 -229 -292c0 -232 64 -328 226 -328c57 0 95 10 122 23v138c0 50 -7 54 -32 59l-48 10v31h255v-31l-35 -8
c-24 -6 -31 -11 -31 -61v-175c-53 -15 -133 -35 -229 -35zM367 755c-75 0 -130 61 -137 130l29 8c14 -37 51 -66 107 -66s93 29 107 66l28 -8c-6 -69 -59 -130 -134 -130z" />
    <glyph glyph-name="Gcircumflex" unicode="&#x11c;" horiz-adv-x="690" 
d="M381 -12c-209 0 -342 111 -342 353c0 268 164 364 349 364c92 0 149 -7 200 -19l14 -199h-36c-22 65 -46 103 -60 124c-23 35 -32 46 -124 46c-150 0 -229 -79 -229 -292c0 -232 64 -328 226 -328c57 0 95 10 122 23v138c0 50 -7 54 -32 59l-48 10v31h255v-31l-35 -8
c-24 -6 -31 -11 -31 -61v-175c-53 -15 -133 -35 -229 -35zM390 897l134 -127l-18 -24l-141 70l-141 -70l-17 24l132 127h51z" />
    <glyph glyph-name="Gcommaaccent" unicode="&#x122;" horiz-adv-x="690" 
d="M381 -12c-209 0 -342 111 -342 353c0 268 164 364 349 364c92 0 149 -7 200 -19l14 -199h-36c-22 65 -46 103 -60 124c-23 35 -32 46 -124 46c-150 0 -229 -79 -229 -292c0 -232 64 -328 226 -328c57 0 95 10 122 23v138c0 50 -7 54 -32 59l-48 10v31h255v-31l-35 -8
c-24 -6 -31 -11 -31 -61v-175c-53 -15 -133 -35 -229 -35zM292 -284l-8 27c70 23 85 57 85 89c-4 -3 -13 -7 -25 -7c-36 0 -53 23 -53 52c0 30 28 56 64 56c42 0 78 -24 78 -79c0 -61 -45 -119 -141 -138z" />
    <glyph glyph-name="Gdotaccent" unicode="&#x120;" horiz-adv-x="690" 
d="M381 -12c-209 0 -342 111 -342 353c0 268 164 364 349 364c92 0 149 -7 200 -19l14 -199h-36c-22 65 -46 103 -60 124c-23 35 -32 46 -124 46c-150 0 -229 -79 -229 -292c0 -232 64 -328 226 -328c57 0 95 10 122 23v138c0 50 -7 54 -32 59l-48 10v31h255v-31l-35 -8
c-24 -6 -31 -11 -31 -61v-175c-53 -15 -133 -35 -229 -35zM366 750c-38 0 -68 32 -68 65c0 36 30 65 68 65c37 0 67 -29 67 -65c0 -33 -30 -65 -67 -65z" />
    <glyph glyph-name="Hbar" unicode="&#x126;" horiz-adv-x="741" 
d="M27 493v45h81v56c0 50 -8 55 -32 60l-45 9v30h266v-30l-48 -9c-27 -6 -32 -10 -32 -60v-56h306v56c0 50 -5 54 -31 60l-48 9v30h266v-30l-46 -9c-25 -5 -32 -10 -32 -60v-56h82v-45h-82v-393c0 -50 6 -55 32 -60l46 -9v-31h-266v31l48 9c27 5 31 10 31 60v230h-306v-230
c0 -50 4 -55 32 -60l48 -9v-31h-266v31l45 9c24 4 32 10 32 60v393h-81zM217 376h306v117h-306v-117z" />
    <glyph glyph-name="Hcircumflex" unicode="&#x124;" horiz-adv-x="741" 
d="M31 0v31l45 9c24 4 32 10 32 60v494c0 50 -8 55 -32 60l-45 9v30h266v-30l-48 -9c-27 -6 -32 -10 -32 -60v-218h306v218c0 50 -5 54 -31 60l-48 9v30h266v-30l-46 -9c-25 -5 -32 -10 -32 -60v-494c0 -50 6 -55 32 -60l46 -9v-31h-266v31l48 9c27 5 31 10 31 60v230h-306
v-230c0 -50 4 -55 32 -60l48 -9v-31h-266zM395 897l134 -127l-18 -24l-141 70l-141 -70l-17 24l132 127h51z" />
    <glyph glyph-name="Idotaccent" unicode="&#x130;" horiz-adv-x="333" 
d="M31 0v31l49 9c25 4 32 10 32 60v494c0 50 -7 56 -32 60l-49 9v30h272v-30l-50 -9c-27 -5 -32 -10 -32 -60v-494c0 -50 5 -55 32 -60l50 -9v-31h-272zM168 750c-38 0 -68 32 -68 65c0 36 30 65 68 65c37 0 67 -29 67 -65c0 -33 -30 -65 -67 -65z" />
    <glyph glyph-name="Ibreve" unicode="&#x12c;" horiz-adv-x="333" 
d="M31 0v31l49 9c25 4 32 10 32 60v494c0 50 -7 56 -32 60l-49 9v30h272v-30l-50 -9c-27 -5 -32 -10 -32 -60v-494c0 -50 5 -55 32 -60l50 -9v-31h-272zM169 755c-75 0 -130 61 -137 130l29 8c14 -37 51 -66 107 -66s93 29 107 66l28 -8c-6 -69 -59 -130 -134 -130z" />
    <glyph glyph-name="Imacron" unicode="&#x12a;" horiz-adv-x="333" 
d="M31 0v31l49 9c25 4 32 10 32 60v494c0 50 -7 56 -32 60l-49 9v30h272v-30l-50 -9c-27 -5 -32 -10 -32 -60v-494c0 -50 5 -55 32 -60l50 -9v-31h-272zM25 777v65h284v-65h-284z" />
    <glyph glyph-name="Iogonek" unicode="&#x12e;" horiz-adv-x="333" 
d="M31 0v31l49 9c25 4 32 10 32 60v494c0 50 -7 56 -32 60l-49 9v30h272v-30l-50 -9c-27 -5 -32 -10 -32 -60v-494c0 -50 5 -55 32 -60l50 -9v-31h-85c-27 -39 -42 -78 -42 -119c0 -27 8 -44 31 -49c15 -3 32 -4 59 -3v-28c-16 -11 -40 -24 -83 -24c-56 0 -96 31 -96 84
c0 54 49 107 83 139h-139z" />
    <glyph glyph-name="Itilde" unicode="&#x128;" horiz-adv-x="333" 
d="M31 0v31l49 9c25 4 32 10 32 60v494c0 50 -7 56 -32 60l-49 9v30h272v-30l-50 -9c-27 -5 -32 -10 -32 -60v-494c0 -50 5 -55 32 -60l50 -9v-31h-272zM38 763l-34 14c29 78 56 114 98 114c41 0 111 -41 136 -41c21 0 36 12 60 56l32 -13c-29 -79 -56 -114 -98 -114
c-41 0 -108 41 -136 41c-21 0 -34 -12 -58 -57z" />
    <glyph glyph-name="Jcircumflex" unicode="&#x134;" horiz-adv-x="311" 
d="M21 -163c-76 0 -115 32 -115 74c0 27 18 50 55 50c41 0 53 -22 63 -59c7 -20 8 -24 28 -24c34 0 56 23 56 96v620c0 50 -5 54 -32 60l-48 9v30h267v-30l-46 -9c-25 -5 -32 -10 -32 -60v-535c0 -129 -65 -222 -196 -222zM188 897l134 -127l-18 -24l-141 70l-141 -70
l-17 24l132 127h51z" />
    <glyph glyph-name="Kcommaaccent" unicode="&#x136;" horiz-adv-x="658" 
d="M494 0c-87 96 -179 227 -244 344v13l183 210c27 29 36 48 36 59c0 14 -18 24 -38 29l-34 8v30h231v-30l-16 -5c-35 -8 -51 -24 -99 -76l-175 -190c61 -106 162 -245 238 -330c15 -16 20 -18 33 -21l47 -10v-31h-162zM31 0v31l45 9c24 4 32 10 32 60v494
c0 50 -8 55 -32 60l-45 9v30h266v-30l-48 -9c-27 -6 -32 -10 -32 -60v-494c0 -50 4 -55 32 -60l48 -9v-31h-266zM285 -284l-8 27c70 23 85 57 85 89c-4 -3 -13 -7 -25 -7c-36 0 -53 23 -53 52c0 30 28 56 64 56c42 0 78 -24 78 -79c0 -61 -45 -119 -141 -138z" />
    <glyph glyph-name="Lacute" unicode="&#x139;" horiz-adv-x="584" 
d="M31 0v31l45 9c24 4 32 10 32 60v494c0 50 -8 55 -32 60l-45 9v30h270v-30l-52 -10c-26 -5 -32 -9 -32 -59v-452c0 -92 3 -98 111 -98c90 0 111 10 139 50c15 21 40 60 60 126h38l-13 -220h-521zM87 748l-11 24l162 114c15 10 27 15 39 15c23 0 41 -22 41 -43
c0 -17 -9 -37 -37 -46z" />
    <glyph glyph-name="Lcaron" unicode="&#x13d;" horiz-adv-x="584" 
d="M397 501l-25 7l8 155c2 25 11 50 46 50c22 0 41 -14 41 -39c0 -9 -2 -19 -7 -31zM31 0v31l45 9c24 4 32 10 32 60v494c0 50 -8 55 -32 60l-45 9v30h270v-30l-52 -10c-26 -5 -32 -9 -32 -59v-452c0 -92 3 -98 111 -98c90 0 111 10 139 50c15 21 40 60 60 126h38l-13 -220
h-521z" />
    <glyph glyph-name="Lcommaaccent" unicode="&#x13b;" horiz-adv-x="584" 
d="M31 0v31l45 9c24 4 32 10 32 60v494c0 50 -8 55 -32 60l-45 9v30h270v-30l-52 -10c-26 -5 -32 -9 -32 -59v-452c0 -92 3 -98 111 -98c90 0 111 10 139 50c15 21 40 60 60 126h38l-13 -220h-521zM236 -284l-8 27c70 23 85 57 85 89c-4 -3 -13 -7 -25 -7
c-36 0 -53 23 -53 52c0 30 28 56 64 56c42 0 78 -24 78 -79c0 -61 -45 -119 -141 -138z" />
    <glyph glyph-name="Ldot" unicode="&#x13f;" horiz-adv-x="584" 
d="M31 0v31l45 9c24 4 32 10 32 60v494c0 50 -8 55 -32 60l-45 9v30h270v-30l-52 -10c-26 -5 -32 -9 -32 -59v-452c0 -92 3 -98 111 -98c90 0 111 10 139 50c15 21 40 60 60 126h38l-13 -220h-521zM477 335c-36 0 -64 28 -64 63s28 63 64 63s65 -28 65 -63s-29 -63 -65 -63z
" />
    <glyph glyph-name="Nacute" unicode="&#x143;" horiz-adv-x="705" 
d="M549 -4l-383 607h-4v-493c0 -60 8 -66 42 -72l42 -7v-31h-215v31l35 7c29 6 42 12 42 72v484c0 50 -8 55 -32 60l-45 9v30h203l314 -504h4v395c0 60 -8 67 -42 72l-47 7v30h220v-30l-35 -7c-29 -6 -42 -12 -42 -72v-588h-57zM282 748l-11 24l162 114c15 10 27 15 39 15
c23 0 41 -22 41 -43c0 -17 -9 -37 -37 -46z" />
    <glyph glyph-name="Ncaron" unicode="&#x147;" horiz-adv-x="705" 
d="M549 -4l-383 607h-4v-493c0 -60 8 -66 42 -72l42 -7v-31h-215v31l35 7c29 6 42 12 42 72v484c0 50 -8 55 -32 60l-45 9v30h203l314 -504h4v395c0 60 -8 67 -42 72l-47 7v30h220v-30l-35 -7c-29 -6 -42 -12 -42 -72v-588h-57zM349 758l-133 127l17 24l141 -70l141 70
l18 -24l-133 -127h-51z" />
    <glyph glyph-name="Ncommaaccent" unicode="&#x145;" horiz-adv-x="705" 
d="M549 -4l-383 607h-4v-493c0 -60 8 -66 42 -72l42 -7v-31h-215v31l35 7c29 6 42 12 42 72v484c0 50 -8 55 -32 60l-45 9v30h203l314 -504h4v395c0 60 -8 67 -42 72l-47 7v30h220v-30l-35 -7c-29 -6 -42 -12 -42 -72v-588h-57zM290 -284l-8 27c70 23 85 57 85 89
c-4 -3 -13 -7 -25 -7c-36 0 -53 23 -53 52c0 30 28 56 64 56c42 0 78 -24 78 -79c0 -61 -45 -119 -141 -138z" />
    <glyph glyph-name="Nacute.pl" horiz-adv-x="705" 
d="M549 -4l-383 607h-4v-493c0 -60 8 -66 42 -72l42 -7v-31h-215v31l35 7c29 6 42 12 42 72v484c0 50 -8 55 -32 60l-45 9v30h203l314 -504h4v395c0 60 -8 67 -42 72l-47 7v30h220v-30l-35 -7c-29 -6 -42 -12 -42 -72v-588h-57zM347 749l-21 17l70 133c11 20 24 32 45 32
c23 0 44 -16 44 -42c0 -15 -6 -29 -20 -41z" />
    <glyph glyph-name="Obreve" unicode="&#x14e;" horiz-adv-x="714" 
d="M352 -12c-176 0 -313 120 -313 349c0 259 157 368 323 368c175 0 313 -125 313 -354c0 -259 -157 -363 -323 -363zM360 37c138 0 201 83 201 297c0 160 -45 323 -208 323c-138 0 -200 -89 -200 -303c0 -160 45 -317 207 -317zM359 755c-75 0 -130 61 -137 130l29 8
c14 -37 51 -66 107 -66s93 29 107 66l28 -8c-6 -69 -59 -130 -134 -130z" />
    <glyph glyph-name="Ohungarumlaut" unicode="&#x150;" horiz-adv-x="714" 
d="M352 -12c-176 0 -313 120 -313 349c0 259 157 368 323 368c175 0 313 -125 313 -354c0 -259 -157 -363 -323 -363zM360 37c138 0 201 83 201 297c0 160 -45 323 -208 323c-138 0 -200 -89 -200 -303c0 -160 45 -317 207 -317zM438 762l-17 20l96 123c11 14 21 21 34 21
c17 0 44 -18 44 -40c0 -14 -4 -27 -25 -40zM264 762l-18 20l95 123c11 15 22 21 35 21c16 0 44 -18 44 -40c0 -14 -4 -26 -26 -40z" />
    <glyph glyph-name="Omacron" unicode="&#x14c;" horiz-adv-x="714" 
d="M352 -12c-176 0 -313 120 -313 349c0 259 157 368 323 368c175 0 313 -125 313 -354c0 -259 -157 -363 -323 -363zM360 37c138 0 201 83 201 297c0 160 -45 323 -208 323c-138 0 -200 -89 -200 -303c0 -160 45 -317 207 -317zM215 777v65h284v-65h-284z" />
    <glyph glyph-name="Oacute.pl" horiz-adv-x="714" 
d="M352 -12c-176 0 -313 120 -313 349c0 259 157 368 323 368c175 0 313 -125 313 -354c0 -259 -157 -363 -323 -363zM360 37c138 0 201 83 201 297c0 160 -45 323 -208 323c-138 0 -200 -89 -200 -303c0 -160 45 -317 207 -317zM330 749l-21 17l70 133c11 20 24 32 45 32
c23 0 44 -16 44 -42c0 -15 -6 -29 -20 -41z" />
    <glyph glyph-name="Oslashacute" unicode="&#x1fe;" horiz-adv-x="714" 
d="M33 -54l96 130c-56 59 -90 146 -90 261c0 259 157 368 323 368c70 0 134 -20 186 -59l55 74h59l-78 -106c56 -60 91 -149 91 -263c0 -259 -157 -363 -323 -363c-71 0 -136 19 -188 58l-73 -100h-58zM153 354c0 -82 7 -152 29 -206l324 440c-32 44 -81 69 -153 69
c-138 0 -200 -89 -200 -303zM360 37c138 0 201 83 201 297c0 82 -8 154 -30 208l-324 -439c31 -42 80 -66 153 -66zM265 748l-11 24l162 114c15 10 27 15 39 15c23 0 41 -22 41 -43c0 -17 -9 -37 -37 -46z" />
    <glyph glyph-name="Racute" unicode="&#x154;" horiz-adv-x="652" 
d="M31 0v31l45 9c24 4 32 10 32 60v494c0 50 -8 55 -32 60l-45 9v30h291c161 0 234 -60 234 -176c0 -74 -56 -143 -159 -173v-3c54 -93 125 -204 181 -276c11 -14 21 -20 52 -28l22 -6v-31h-152c-75 96 -144 206 -198 313h-87v-213c0 -50 6 -55 34 -60l48 -9v-31h-266z
M275 359c119 0 168 44 168 148c0 122 -42 142 -134 142c-44 0 -76 -3 -94 -7v-279s32 -4 60 -4zM219 748l-11 24l162 114c15 10 27 15 39 15c23 0 41 -22 41 -43c0 -17 -9 -37 -37 -46z" />
    <glyph glyph-name="Rcaron" unicode="&#x158;" horiz-adv-x="652" 
d="M31 0v31l45 9c24 4 32 10 32 60v494c0 50 -8 55 -32 60l-45 9v30h291c161 0 234 -60 234 -176c0 -74 -56 -143 -159 -173v-3c54 -93 125 -204 181 -276c11 -14 21 -20 52 -28l22 -6v-31h-152c-75 96 -144 206 -198 313h-87v-213c0 -50 6 -55 34 -60l48 -9v-31h-266z
M275 359c119 0 168 44 168 148c0 122 -42 142 -134 142c-44 0 -76 -3 -94 -7v-279s32 -4 60 -4zM286 758l-133 127l17 24l141 -70l141 70l18 -24l-133 -127h-51z" />
    <glyph glyph-name="Rcommaaccent" unicode="&#x156;" horiz-adv-x="652" 
d="M31 0v31l45 9c24 4 32 10 32 60v494c0 50 -8 55 -32 60l-45 9v30h291c161 0 234 -60 234 -176c0 -74 -56 -143 -159 -173v-3c54 -93 125 -204 181 -276c11 -14 21 -20 52 -28l22 -6v-31h-152c-75 96 -144 206 -198 313h-87v-213c0 -50 6 -55 34 -60l48 -9v-31h-266z
M275 359c119 0 168 44 168 148c0 122 -42 142 -134 142c-44 0 -76 -3 -94 -7v-279s32 -4 60 -4zM282 -284l-8 27c70 23 85 57 85 89c-4 -3 -13 -7 -25 -7c-36 0 -53 23 -53 52c0 30 28 56 64 56c42 0 78 -24 78 -79c0 -61 -45 -119 -141 -138z" />
    <glyph glyph-name="Sacute" unicode="&#x15a;" horiz-adv-x="526" 
d="M242 -13c-82 0 -151 16 -196 30l-11 187h37c20 -47 33 -80 60 -118c26 -38 52 -50 120 -50c91 0 142 54 142 117c0 65 -42 102 -167 158c-122 55 -179 105 -179 206c0 107 88 189 222 189c77 0 130 -8 165 -18l13 -168h-36c-24 54 -31 71 -52 99c-19 22 -39 39 -97 39
c-75 0 -133 -45 -133 -110c0 -59 28 -87 142 -138c150 -67 212 -120 212 -206c0 -121 -81 -217 -242 -217zM179 748l-11 24l162 114c15 10 27 15 39 15c23 0 41 -22 41 -43c0 -17 -9 -37 -37 -46z" />
    <glyph glyph-name="Scedilla" unicode="&#x15e;" horiz-adv-x="526" 
d="M140 -239v27c83 19 109 43 109 70c0 21 -23 35 -70 39l-9 9l42 82c-69 3 -127 16 -166 29l-11 187h37c20 -47 33 -80 60 -118c26 -38 52 -50 120 -50c91 0 142 54 142 117c0 65 -42 102 -167 158c-122 55 -179 105 -179 206c0 107 88 189 222 189c77 0 130 -8 165 -18
l13 -168h-36c-24 54 -31 71 -52 99c-19 22 -39 39 -97 39c-75 0 -133 -45 -133 -110c0 -59 28 -87 142 -138c150 -67 212 -120 212 -206c0 -117 -76 -210 -226 -217l-32 -44c66 -5 100 -32 100 -71c0 -45 -56 -99 -186 -111z" />
    <glyph glyph-name="Scircumflex" unicode="&#x15c;" horiz-adv-x="526" 
d="M242 -13c-82 0 -151 16 -196 30l-11 187h37c20 -47 33 -80 60 -118c26 -38 52 -50 120 -50c91 0 142 54 142 117c0 65 -42 102 -167 158c-122 55 -179 105 -179 206c0 107 88 189 222 189c77 0 130 -8 165 -18l13 -168h-36c-24 54 -31 71 -52 99c-19 22 -39 39 -97 39
c-75 0 -133 -45 -133 -110c0 -59 28 -87 142 -138c150 -67 212 -120 212 -206c0 -121 -81 -217 -242 -217zM296 897l134 -127l-18 -24l-141 70l-141 -70l-17 24l132 127h51z" />
    <glyph glyph-name="Scommaaccent" unicode="&#x218;" horiz-adv-x="526" 
d="M242 -13c-82 0 -151 16 -196 30l-11 187h37c20 -47 33 -80 60 -118c26 -38 52 -50 120 -50c91 0 142 54 142 117c0 65 -42 102 -167 158c-122 55 -179 105 -179 206c0 107 88 189 222 189c77 0 130 -8 165 -18l13 -168h-36c-24 54 -31 71 -52 99c-19 22 -39 39 -97 39
c-75 0 -133 -45 -133 -110c0 -59 28 -87 142 -138c150 -67 212 -120 212 -206c0 -121 -81 -217 -242 -217zM183 -284l-8 27c70 23 85 57 85 89c-4 -3 -13 -7 -25 -7c-36 0 -53 23 -53 52c0 30 28 56 64 56c42 0 78 -24 78 -79c0 -61 -45 -119 -141 -138z" />
    <glyph glyph-name="Sacute.pl" horiz-adv-x="526" 
d="M242 -13c-82 0 -151 16 -196 30l-11 187h37c20 -47 33 -80 60 -118c26 -38 52 -50 120 -50c91 0 142 54 142 117c0 65 -42 102 -167 158c-122 55 -179 105 -179 206c0 107 88 189 222 189c77 0 130 -8 165 -18l13 -168h-36c-24 54 -31 71 -52 99c-19 22 -39 39 -97 39
c-75 0 -133 -45 -133 -110c0 -59 28 -87 142 -138c150 -67 212 -120 212 -206c0 -121 -81 -217 -242 -217zM244 749l-21 17l70 133c11 20 24 32 45 32c23 0 44 -16 44 -42c0 -15 -6 -29 -20 -41z" />
    <glyph glyph-name="Tcaron" unicode="&#x164;" horiz-adv-x="619" 
d="M174 0v31l49 9c25 5 32 10 32 60v551h-7c-103 0 -114 0 -144 -52c-20 -35 -28 -62 -46 -118h-37l10 212h557l10 -212h-37c-18 56 -26 83 -46 118c-30 52 -41 52 -144 52h-7v-551c0 -50 4 -55 32 -60l49 -9v-31h-271zM284 758l-133 127l17 24l141 -70l141 70l18 -24
l-133 -127h-51z" />
    <glyph glyph-name="Tcommaaccent" unicode="&#x162;" horiz-adv-x="619" 
d="M174 0v31l49 9c25 5 32 10 32 60v551h-7c-103 0 -114 0 -144 -52c-20 -35 -28 -62 -46 -118h-37l10 212h557l10 -212h-37c-18 56 -26 83 -46 118c-30 52 -41 52 -144 52h-7v-551c0 -50 4 -55 32 -60l49 -9v-31h-271zM243 -284l-8 27c70 23 85 57 85 89
c-4 -3 -13 -7 -25 -7c-36 0 -53 23 -53 52c0 30 28 56 64 56c42 0 78 -24 78 -79c0 -61 -45 -119 -141 -138z" />
    <glyph glyph-name="Tbar" unicode="&#x166;" horiz-adv-x="619" 
d="M97 359v45h158v247h-7c-103 0 -114 0 -144 -52c-20 -35 -28 -62 -46 -118h-37l10 212h557l10 -212h-37c-18 56 -26 83 -46 118c-30 52 -41 52 -144 52h-7v-247h158v-45h-158v-259c0 -50 4 -55 32 -60l49 -9v-31h-271v31l49 9c25 5 32 10 32 60v259h-158z" />
    <glyph glyph-name="Ubreve" unicode="&#x16c;" horiz-adv-x="701" 
d="M356 -12c-160 0 -262 70 -262 237v369c0 50 -7 55 -32 60l-46 9v30h262v-30l-43 -9c-28 -6 -32 -10 -32 -60v-379c0 -116 49 -169 179 -169c120 0 172 65 172 178v360c0 60 -8 67 -42 72l-50 7v30h222v-30l-35 -7c-29 -6 -42 -12 -42 -72v-367c0 -123 -72 -229 -251 -229
zM374 755c-75 0 -130 61 -137 130l29 8c14 -37 51 -66 107 -66s93 29 107 66l28 -8c-6 -69 -59 -130 -134 -130z" />
    <glyph glyph-name="Uhungarumlaut" unicode="&#x170;" horiz-adv-x="701" 
d="M356 -12c-160 0 -262 70 -262 237v369c0 50 -7 55 -32 60l-46 9v30h262v-30l-43 -9c-28 -6 -32 -10 -32 -60v-379c0 -116 49 -169 179 -169c120 0 172 65 172 178v360c0 60 -8 67 -42 72l-50 7v30h222v-30l-35 -7c-29 -6 -42 -12 -42 -72v-367c0 -123 -72 -229 -251 -229
zM453 762l-17 20l96 123c11 14 21 21 34 21c17 0 44 -18 44 -40c0 -14 -4 -27 -25 -40zM279 762l-18 20l95 123c11 15 22 21 35 21c16 0 44 -18 44 -40c0 -14 -4 -26 -26 -40z" />
    <glyph glyph-name="Umacron" unicode="&#x16a;" horiz-adv-x="701" 
d="M356 -12c-160 0 -262 70 -262 237v369c0 50 -7 55 -32 60l-46 9v30h262v-30l-43 -9c-28 -6 -32 -10 -32 -60v-379c0 -116 49 -169 179 -169c120 0 172 65 172 178v360c0 60 -8 67 -42 72l-50 7v30h222v-30l-35 -7c-29 -6 -42 -12 -42 -72v-367c0 -123 -72 -229 -251 -229
zM230 777v65h284v-65h-284z" />
    <glyph glyph-name="Uogonek" unicode="&#x172;" horiz-adv-x="701" 
d="M389 -223c-56 0 -96 31 -96 84s45 97 86 128c-11 -1 -15 -1 -23 -1c-160 0 -262 70 -262 237v369c0 50 -7 55 -32 60l-46 9v30h262v-30l-43 -9c-28 -6 -32 -10 -32 -60v-379c0 -116 49 -169 179 -169c120 0 172 65 172 178v360c0 60 -8 67 -42 72l-50 7v30h222v-30
l-35 -7c-29 -6 -42 -12 -42 -72v-367c0 -84 -33 -156 -110 -197c-62 -33 -115 -68 -115 -139c0 -27 8 -44 31 -49c15 -3 32 -4 59 -3v-28c-16 -11 -40 -24 -83 -24z" />
    <glyph glyph-name="Uring" unicode="&#x16e;" horiz-adv-x="701" 
d="M356 -12c-160 0 -262 70 -262 237v369c0 50 -7 55 -32 60l-46 9v30h262v-30l-43 -9c-28 -6 -32 -10 -32 -60v-379c0 -116 49 -169 179 -169c120 0 172 65 172 178v360c0 60 -8 67 -42 72l-50 7v30h222v-30l-35 -7c-29 -6 -42 -12 -42 -72v-367c0 -123 -72 -229 -251 -229
zM377 717c-58 0 -102 45 -102 98c0 55 44 99 102 99s102 -44 102 -99c0 -53 -44 -98 -102 -98zM377 755c35 0 58 25 58 60s-23 61 -58 61s-58 -26 -58 -61s23 -60 58 -60z" />
    <glyph glyph-name="Utilde" unicode="&#x168;" horiz-adv-x="701" 
d="M356 -12c-160 0 -262 70 -262 237v369c0 50 -7 55 -32 60l-46 9v30h262v-30l-43 -9c-28 -6 -32 -10 -32 -60v-379c0 -116 49 -169 179 -169c120 0 172 65 172 178v360c0 60 -8 67 -42 72l-50 7v30h222v-30l-35 -7c-29 -6 -42 -12 -42 -72v-367c0 -123 -72 -229 -251 -229
zM243 763l-34 14c29 78 56 114 98 114c41 0 111 -41 136 -41c21 0 36 12 60 56l32 -13c-29 -79 -56 -114 -98 -114c-41 0 -108 41 -136 41c-21 0 -34 -12 -58 -57z" />
    <glyph glyph-name="Wacute" unicode="&#x1e82;" horiz-adv-x="962" 
d="M276 0l-177 564c-25 73 -33 85 -62 92l-27 7v30h252v-30l-32 -7c-23 -5 -32 -17 -32 -37c0 -16 7 -40 14 -64l123 -412h5l124 366l-18 55c-24 72 -34 85 -63 92l-27 7v30h251v-30l-32 -7c-20 -4 -34 -17 -34 -37c0 -16 6 -42 13 -64l134 -412h5l111 412c6 22 12 49 12 66
s-8 30 -31 35l-34 7v30h202v-30l-31 -7c-32 -7 -41 -35 -63 -110l-159 -546h-70l-138 430h-4l-146 -430h-66zM399 748l-11 24l162 114c15 10 27 15 39 15c23 0 41 -22 41 -43c0 -17 -9 -37 -37 -46z" />
    <glyph glyph-name="Wcircumflex" unicode="&#x174;" horiz-adv-x="962" 
d="M276 0l-177 564c-25 73 -33 85 -62 92l-27 7v30h252v-30l-32 -7c-23 -5 -32 -17 -32 -37c0 -16 7 -40 14 -64l123 -412h5l124 366l-18 55c-24 72 -34 85 -63 92l-27 7v30h251v-30l-32 -7c-20 -4 -34 -17 -34 -37c0 -16 6 -42 13 -64l134 -412h5l111 412c6 22 12 49 12 66
s-8 30 -31 35l-34 7v30h202v-30l-31 -7c-32 -7 -41 -35 -63 -110l-159 -546h-70l-138 430h-4l-146 -430h-66zM516 897l134 -127l-18 -24l-141 70l-141 -70l-17 24l132 127h51z" />
    <glyph glyph-name="Wdieresis" unicode="&#x1e84;" horiz-adv-x="962" 
d="M276 0l-177 564c-25 73 -33 85 -62 92l-27 7v30h252v-30l-32 -7c-23 -5 -32 -17 -32 -37c0 -16 7 -40 14 -64l123 -412h5l124 366l-18 55c-24 72 -34 85 -63 92l-27 7v30h251v-30l-32 -7c-20 -4 -34 -17 -34 -37c0 -16 6 -42 13 -64l134 -412h5l111 412c6 22 12 49 12 66
s-8 30 -31 35l-34 7v30h202v-30l-31 -7c-32 -7 -41 -35 -63 -110l-159 -546h-70l-138 430h-4l-146 -430h-66zM383 751c-36 0 -66 31 -66 63c0 34 30 63 66 63s66 -29 66 -63c0 -32 -30 -63 -66 -63zM600 752c-37 0 -66 31 -66 63c0 34 29 63 66 63c36 0 65 -29 65 -63
c0 -32 -29 -63 -65 -63z" />
    <glyph glyph-name="Wgrave" unicode="&#x1e80;" horiz-adv-x="962" 
d="M276 0l-177 564c-25 73 -33 85 -62 92l-27 7v30h252v-30l-32 -7c-23 -5 -32 -17 -32 -37c0 -16 7 -40 14 -64l123 -412h5l124 366l-18 55c-24 72 -34 85 -63 92l-27 7v30h251v-30l-32 -7c-20 -4 -34 -17 -34 -37c0 -16 6 -42 13 -64l134 -412h5l111 412c6 22 12 49 12 66
s-8 30 -31 35l-34 7v30h202v-30l-31 -7c-32 -7 -41 -35 -63 -110l-159 -546h-70l-138 430h-4l-146 -430h-66zM590 748l-195 64c-28 9 -37 29 -37 46c0 21 18 43 41 43c12 0 24 -5 39 -15l163 -114z" />
    <glyph glyph-name="Ycircumflex" unicode="&#x176;" horiz-adv-x="630" 
d="M186 0v31l49 9c24 5 31 10 31 60v180l-157 287c-36 64 -51 81 -79 89l-25 7v30h263v-30l-25 -6c-32 -7 -42 -18 -42 -36c0 -13 9 -29 22 -54l120 -230h4l116 230c12 25 17 41 17 54c0 19 -11 29 -36 35l-32 7v30h214v-30l-22 -7c-34 -11 -51 -25 -90 -103l-139 -265v-188
c0 -50 4 -55 32 -60l49 -9v-31h-270zM367 897l134 -127l-18 -24l-141 70l-141 -70l-17 24l132 127h51z" />
    <glyph glyph-name="Ygrave" unicode="&#x1ef2;" horiz-adv-x="630" 
d="M186 0v31l49 9c24 5 31 10 31 60v180l-157 287c-36 64 -51 81 -79 89l-25 7v30h263v-30l-25 -6c-32 -7 -42 -18 -42 -36c0 -13 9 -29 22 -54l120 -230h4l116 230c12 25 17 41 17 54c0 19 -11 29 -36 35l-32 7v30h214v-30l-22 -7c-34 -11 -51 -25 -90 -103l-139 -265v-188
c0 -50 4 -55 32 -60l49 -9v-31h-270zM441 748l-195 64c-28 9 -37 29 -37 46c0 21 18 43 41 43c12 0 24 -5 39 -15l163 -114z" />
    <glyph glyph-name="Zacute" unicode="&#x179;" horiz-adv-x="571" 
d="M24 0v44l386 602v4h-70c-163 0 -185 -3 -212 -44c-20 -30 -33 -58 -53 -109h-32l10 196h470v-43l-382 -603v-4h54c171 0 208 6 235 42c20 28 33 61 60 128h32l-13 -213h-485zM190 748l-11 24l162 114c15 10 27 15 39 15c23 0 41 -22 41 -43c0 -17 -9 -37 -37 -46z" />
    <glyph glyph-name="Zacute.pl" horiz-adv-x="571" 
d="M24 0v44l386 602v4h-70c-163 0 -185 -3 -212 -44c-20 -30 -33 -58 -53 -109h-32l10 196h470v-43l-382 -603v-4h54c171 0 208 6 235 42c20 28 33 61 60 128h32l-13 -213h-485zM278 749l-21 17l70 133c11 20 24 32 45 32c23 0 44 -16 44 -42c0 -15 -6 -29 -20 -41z" />
    <glyph glyph-name="Zdotaccent" unicode="&#x17b;" horiz-adv-x="571" 
d="M24 0v44l386 602v4h-70c-163 0 -185 -3 -212 -44c-20 -30 -33 -58 -53 -109h-32l10 196h470v-43l-382 -603v-4h54c171 0 208 6 235 42c20 28 33 61 60 128h32l-13 -213h-485zM283 750c-38 0 -68 32 -68 65c0 36 30 65 68 65c37 0 67 -29 67 -65c0 -33 -30 -65 -67 -65z
" />
    <glyph glyph-name="abreve" unicode="&#x103;" horiz-adv-x="510" 
d="M179 -13c-93 0 -152 47 -152 133c0 82 59 123 175 150l117 26v93c0 67 -10 97 -95 97c-44 0 -51 -10 -55 -40c-5 -38 -15 -67 -60 -67c-40 0 -53 24 -53 50c0 66 105 96 189 96c120 0 174 -44 174 -130v-295c0 -26 7 -42 27 -52c11 -6 27 -8 49 -9v-28
c-16 -11 -53 -23 -88 -23c-51 0 -78 25 -84 58h-5c-24 -33 -80 -59 -139 -59zM222 44c48 0 83 22 97 47v154l-77 -8c-72 -7 -113 -34 -113 -109c0 -58 35 -84 93 -84zM249 594c-75 0 -130 63 -137 146l29 8c14 -47 51 -84 107 -84s93 37 107 84l28 -8
c-6 -83 -59 -146 -134 -146z" />
    <glyph glyph-name="amacron" unicode="&#x101;" horiz-adv-x="510" 
d="M179 -13c-93 0 -152 47 -152 133c0 82 59 123 175 150l117 26v93c0 67 -10 97 -95 97c-44 0 -51 -10 -55 -40c-5 -38 -15 -67 -60 -67c-40 0 -53 24 -53 50c0 66 105 96 189 96c120 0 174 -44 174 -130v-295c0 -26 7 -42 27 -52c11 -6 27 -8 49 -9v-28
c-16 -11 -53 -23 -88 -23c-51 0 -78 25 -84 58h-5c-24 -33 -80 -59 -139 -59zM222 44c48 0 83 22 97 47v154l-77 -8c-72 -7 -113 -34 -113 -109c0 -58 35 -84 93 -84zM105 628v65h284v-65h-284z" />
    <glyph glyph-name="aogonek" unicode="&#x105;" horiz-adv-x="510" 
d="M392 -223c-56 0 -96 31 -96 84s51 94 101 128c-48 5 -69 28 -74 57h-5c-24 -33 -80 -59 -139 -59c-93 0 -152 47 -152 133c0 82 59 123 175 150l117 26v93c0 67 -10 97 -95 97c-44 0 -51 -10 -55 -40c-5 -38 -15 -67 -60 -67c-40 0 -53 24 -53 50c0 66 105 96 189 96
c120 0 174 -44 174 -130v-295c0 -26 7 -42 27 -52c11 -6 27 -8 49 -9v-28c-70 -35 -110 -84 -110 -130c0 -27 8 -44 31 -49c15 -3 32 -4 59 -3v-28c-16 -11 -40 -24 -83 -24zM222 44c48 0 83 22 97 47v154l-77 -8c-72 -7 -113 -34 -113 -109c0 -58 35 -84 93 -84z" />
    <glyph glyph-name="aringacute" unicode="&#x1fb;" horiz-adv-x="510" 
d="M179 -13c-93 0 -152 47 -152 133c0 82 59 123 175 150l117 26v93c0 67 -10 97 -95 97c-44 0 -51 -10 -55 -40c-5 -38 -15 -67 -60 -67c-40 0 -53 24 -53 50c0 66 105 96 189 96c120 0 174 -44 174 -130v-295c0 -26 7 -42 27 -52c11 -6 27 -8 49 -9v-28
c-16 -11 -53 -23 -88 -23c-51 0 -78 25 -84 58h-5c-24 -33 -80 -59 -139 -59zM222 44c48 0 83 22 97 47v154l-77 -8c-72 -7 -113 -34 -113 -109c0 -58 35 -84 93 -84zM247 588c-58 0 -102 45 -102 98c0 55 44 99 102 99s102 -44 102 -99c0 -53 -44 -98 -102 -98zM247 626
c35 0 58 25 58 60s-23 61 -58 61s-58 -26 -58 -61s23 -60 58 -60zM155 813l-11 24l162 114c15 10 27 15 39 15c23 0 41 -22 41 -43c0 -17 -9 -37 -37 -46z" />
    <glyph glyph-name="aeacute" unicode="&#x1fd;" horiz-adv-x="786" 
d="M547 -12c-89 0 -149 32 -186 87h-1c-43 -55 -96 -88 -181 -88c-93 0 -152 47 -152 133c0 82 77 127 146 142l144 32v95c0 67 -10 97 -92 97c-44 0 -54 -10 -58 -40c-5 -38 -15 -67 -60 -67c-40 0 -53 24 -53 50c0 66 108 96 192 96c85 0 130 -23 149 -69
c38 45 92 69 155 69c127 0 202 -76 202 -261h-335c4 -148 63 -212 164 -212c77 0 123 24 161 42v-40c-27 -22 -99 -66 -195 -66zM222 44c46 0 87 18 120 68c-16 37 -24 81 -25 130v1l-75 -8c-67 -7 -113 -32 -113 -107c0 -58 35 -84 93 -84zM546 483
c-69 0 -121 -54 -128 -176l222 12c0 113 -17 164 -94 164zM319 593l-11 24l162 114c15 10 27 15 39 15c23 0 41 -22 41 -43c0 -17 -9 -37 -37 -46z" />
    <glyph glyph-name="cacute" unicode="&#x107;" horiz-adv-x="486" 
d="M270 -12c-154 0 -236 109 -236 260c0 215 162 277 285 277c96 0 141 -33 141 -84c0 -31 -24 -65 -59 -65c-39 0 -51 21 -56 54c-7 45 -17 52 -52 52c-83 0 -153 -54 -153 -198c0 -150 60 -232 172 -232c67 0 121 25 154 43v-40c-31 -27 -102 -67 -196 -67zM185 593
l-11 24l162 114c15 10 27 15 39 15c23 0 41 -22 41 -43c0 -17 -9 -37 -37 -46z" />
    <glyph glyph-name="ccaron" unicode="&#x10d;" horiz-adv-x="486" 
d="M270 -12c-154 0 -236 109 -236 260c0 215 162 277 285 277c96 0 141 -33 141 -84c0 -31 -24 -65 -59 -65c-39 0 -51 21 -56 54c-7 45 -17 52 -52 52c-83 0 -153 -54 -153 -198c0 -150 60 -232 172 -232c67 0 121 25 154 43v-40c-31 -27 -102 -67 -196 -67zM261 598
l-133 141l17 24l141 -84l141 84l18 -24l-133 -141h-51z" />
    <glyph glyph-name="ccircumflex" unicode="&#x109;" horiz-adv-x="486" 
d="M270 -12c-154 0 -236 109 -236 260c0 215 162 277 285 277c96 0 141 -33 141 -84c0 -31 -24 -65 -59 -65c-39 0 -51 21 -56 54c-7 45 -17 52 -52 52c-83 0 -153 -54 -153 -198c0 -150 60 -232 172 -232c67 0 121 25 154 43v-40c-31 -27 -102 -67 -196 -67zM311 751
l134 -141l-18 -24l-141 84l-141 -84l-17 24l132 141h51z" />
    <glyph glyph-name="cdotaccent" unicode="&#x10b;" horiz-adv-x="486" 
d="M270 -12c-154 0 -236 109 -236 260c0 215 162 277 285 277c96 0 141 -33 141 -84c0 -31 -24 -65 -59 -65c-39 0 -51 21 -56 54c-7 45 -17 52 -52 52c-83 0 -153 -54 -153 -198c0 -150 60 -232 172 -232c67 0 121 25 154 43v-40c-31 -27 -102 -67 -196 -67zM287 614
c-38 0 -68 32 -68 65c0 36 30 65 68 65c37 0 67 -29 67 -65c0 -33 -30 -65 -67 -65z" />
    <glyph glyph-name="cacute.pl" horiz-adv-x="486" 
d="M270 -12c-154 0 -236 109 -236 260c0 215 162 277 285 277c96 0 141 -33 141 -84c0 -31 -24 -65 -59 -65c-39 0 -51 21 -56 54c-7 45 -17 52 -52 52c-83 0 -153 -54 -153 -198c0 -150 60 -232 172 -232c67 0 121 25 154 43v-40c-31 -27 -102 -67 -196 -67zM276 574
l-22 16l75 157c10 20 24 35 47 35c22 0 43 -18 43 -42c0 -12 -4 -25 -16 -38z" />
    <glyph glyph-name="dcaron" unicode="&#x10f;" horiz-adv-x="597" 
d="M239 -12c-97 0 -201 61 -201 251c0 195 137 285 282 285c42 0 75 -6 95 -12c0 0 -3 40 -3 76v60c0 40 -7 42 -30 53l-42 20v28l168 16l10 -8s-6 -40 -6 -117v-525c0 -45 6 -51 30 -62l37 -17v-27l-159 -21l-7 6l5 53h-4c-43 -32 -109 -59 -175 -59zM294 56
c61 0 95 22 118 33v349c-22 21 -53 42 -99 42c-105 0 -170 -59 -170 -221c0 -144 54 -203 151 -203zM610 565l-25 7l8 143c1 25 11 50 46 50c22 0 41 -14 41 -39c0 -9 -1 -19 -7 -31z" />
    <glyph glyph-name="ebreve" unicode="&#x115;" horiz-adv-x="519" 
d="M281 -12c-166 0 -247 110 -247 272c0 160 115 265 247 265c127 0 204 -69 204 -255h-345c3 -152 72 -218 174 -218c77 0 123 24 161 42v-40c-27 -22 -98 -66 -194 -66zM277 483c-73 0 -128 -53 -136 -171l232 12c0 115 -19 159 -96 159zM282 594c-75 0 -130 63 -137 146
l29 8c14 -47 51 -84 107 -84s93 37 107 84l28 -8c-6 -83 -59 -146 -134 -146z" />
    <glyph glyph-name="ecaron" unicode="&#x11b;" horiz-adv-x="519" 
d="M281 -12c-166 0 -247 110 -247 272c0 160 115 265 247 265c127 0 204 -69 204 -255h-345c3 -152 72 -218 174 -218c77 0 123 24 161 42v-40c-27 -22 -98 -66 -194 -66zM277 483c-73 0 -128 -53 -136 -171l232 12c0 115 -19 159 -96 159zM255 598l-133 141l17 24l141 -84
l141 84l18 -24l-133 -141h-51z" />
    <glyph glyph-name="edotaccent" unicode="&#x117;" horiz-adv-x="519" 
d="M281 -12c-166 0 -247 110 -247 272c0 160 115 265 247 265c127 0 204 -69 204 -255h-345c3 -152 72 -218 174 -218c77 0 123 24 161 42v-40c-27 -22 -98 -66 -194 -66zM277 483c-73 0 -128 -53 -136 -171l232 12c0 115 -19 159 -96 159zM281 614c-38 0 -68 32 -68 65
c0 36 30 65 68 65c37 0 67 -29 67 -65c0 -33 -30 -65 -67 -65z" />
    <glyph glyph-name="emacron" unicode="&#x113;" horiz-adv-x="519" 
d="M281 -12c-166 0 -247 110 -247 272c0 160 115 265 247 265c127 0 204 -69 204 -255h-345c3 -152 72 -218 174 -218c77 0 123 24 161 42v-40c-27 -22 -98 -66 -194 -66zM277 483c-73 0 -128 -53 -136 -171l232 12c0 115 -19 159 -96 159zM138 628v65h284v-65h-284z" />
    <glyph glyph-name="eogonek" unicode="&#x119;" horiz-adv-x="519" 
d="M281 -12c-166 0 -247 110 -247 272c0 160 115 265 247 265c127 0 204 -69 204 -255h-345c3 -152 72 -218 174 -218c77 0 123 24 161 42v-40c-34 -26 -69 -43 -104 -65c-36 -23 -64 -61 -64 -108c0 -27 8 -44 31 -49c15 -3 32 -4 59 -3v-28c-16 -11 -40 -24 -83 -24
c-56 0 -96 31 -96 84c0 52 43 97 92 129c-14 -2 -21 -2 -29 -2zM277 483c-73 0 -128 -53 -136 -171l232 12c0 115 -19 159 -96 159z" />
    <glyph glyph-name="gbreve" unicode="&#x11f;" horiz-adv-x="508" 
d="M210 -224c-135 0 -217 49 -217 120c0 49 44 93 115 118v4c-34 12 -67 37 -67 83c0 55 44 90 77 113v4c-41 18 -85 70 -85 132c0 118 103 174 198 174c40 0 71 -6 106 -20c35 29 80 54 125 54c31 0 55 -16 55 -47c0 -25 -15 -49 -42 -49c-26 0 -37 12 -45 30
c-6 15 -42 3 -68 -11v-3c41 -24 68 -63 68 -119c0 -118 -103 -170 -199 -170c-33 0 -53 4 -78 15c-16 -10 -35 -31 -35 -55c0 -25 20 -46 63 -46h158c86 0 145 -28 145 -127c0 -78 -65 -200 -274 -200zM231 230c63 0 97 31 97 117c0 98 -34 137 -97 137
c-62 0 -96 -35 -96 -122c0 -97 34 -132 96 -132zM227 -182c99 0 183 51 183 117c0 45 -18 77 -90 77h-154c-32 -8 -80 -47 -80 -100c0 -61 45 -94 141 -94zM262 594c-75 0 -130 63 -137 146l29 8c14 -47 51 -84 107 -84s93 37 107 84l28 -8c-6 -83 -59 -146 -134 -146z" />
    <glyph glyph-name="gcircumflex" unicode="&#x11d;" horiz-adv-x="508" 
d="M210 -224c-135 0 -217 49 -217 120c0 49 44 93 115 118v4c-34 12 -67 37 -67 83c0 55 44 90 77 113v4c-41 18 -85 70 -85 132c0 118 103 174 198 174c40 0 71 -6 106 -20c35 29 80 54 125 54c31 0 55 -16 55 -47c0 -25 -15 -49 -42 -49c-26 0 -37 12 -45 30
c-6 15 -42 3 -68 -11v-3c41 -24 68 -63 68 -119c0 -118 -103 -170 -199 -170c-33 0 -53 4 -78 15c-16 -10 -35 -31 -35 -55c0 -25 20 -46 63 -46h158c86 0 145 -28 145 -127c0 -78 -65 -200 -274 -200zM231 230c63 0 97 31 97 117c0 98 -34 137 -97 137
c-62 0 -96 -35 -96 -122c0 -97 34 -132 96 -132zM227 -182c99 0 183 51 183 117c0 45 -18 77 -90 77h-154c-32 -8 -80 -47 -80 -100c0 -61 45 -94 141 -94zM285 751l134 -141l-18 -24l-141 84l-141 -84l-17 24l132 141h51z" />
    <glyph glyph-name="gcommaaccent" unicode="&#x123;" horiz-adv-x="508" 
d="M210 -224c-135 0 -217 49 -217 120c0 49 44 93 115 118v4c-34 12 -67 37 -67 83c0 55 44 90 77 113v4c-41 18 -85 70 -85 132c0 118 103 174 198 174c40 0 71 -6 106 -20c35 29 80 54 125 54c31 0 55 -16 55 -47c0 -25 -15 -49 -42 -49c-26 0 -37 12 -45 30
c-6 15 -42 3 -68 -11v-3c41 -24 68 -63 68 -119c0 -118 -103 -170 -199 -170c-33 0 -53 4 -78 15c-16 -10 -35 -31 -35 -55c0 -25 20 -46 63 -46h158c86 0 145 -28 145 -127c0 -78 -65 -200 -274 -200zM231 230c63 0 97 31 97 117c0 98 -34 137 -97 137
c-62 0 -96 -35 -96 -122c0 -97 34 -132 96 -132zM227 -182c99 0 183 51 183 117c0 45 -18 77 -90 77h-154c-32 -8 -80 -47 -80 -100c0 -61 45 -94 141 -94zM325 823l8 -27c-70 -23 -85 -57 -85 -89c4 3 13 7 25 7c36 0 53 -23 53 -52c0 -30 -28 -56 -64 -56
c-42 0 -78 24 -78 79c0 61 45 119 141 138z" />
    <glyph glyph-name="gdotaccent" unicode="&#x121;" horiz-adv-x="508" 
d="M210 -224c-135 0 -217 49 -217 120c0 49 44 93 115 118v4c-34 12 -67 37 -67 83c0 55 44 90 77 113v4c-41 18 -85 70 -85 132c0 118 103 174 198 174c40 0 71 -6 106 -20c35 29 80 54 125 54c31 0 55 -16 55 -47c0 -25 -15 -49 -42 -49c-26 0 -37 12 -45 30
c-6 15 -42 3 -68 -11v-3c41 -24 68 -63 68 -119c0 -118 -103 -170 -199 -170c-33 0 -53 4 -78 15c-16 -10 -35 -31 -35 -55c0 -25 20 -46 63 -46h158c86 0 145 -28 145 -127c0 -78 -65 -200 -274 -200zM231 230c63 0 97 31 97 117c0 98 -34 137 -97 137
c-62 0 -96 -35 -96 -122c0 -97 34 -132 96 -132zM227 -182c99 0 183 51 183 117c0 45 -18 77 -90 77h-154c-32 -8 -80 -47 -80 -100c0 -61 45 -94 141 -94zM261 614c-38 0 -68 32 -68 65c0 36 30 65 68 65c37 0 67 -29 67 -65c0 -33 -30 -65 -67 -65z" />
    <glyph glyph-name="hbar" unicode="&#x127;" horiz-adv-x="604" 
d="M-4 598v41h97v9c0 40 -7 42 -30 53l-43 20v28l170 16l10 -8s-7 -50 -7 -117v-1h179v-41h-179v-49c0 -45 -5 -88 -5 -88h4c50 32 125 63 189 63c101 0 136 -43 136 -133v-298c0 -39 8 -47 27 -52l40 -11v-30h-234v30l41 11c20 5 26 10 26 52v270c0 70 -23 95 -87 95
c-49 0 -108 -20 -137 -31v-334c0 -42 6 -47 26 -52l41 -11v-30h-235v30l41 11c20 5 27 13 27 52v505h-97z" />
    <glyph glyph-name="hcircumflex" unicode="&#x125;" horiz-adv-x="604" 
d="M25 0v30l41 11c20 5 27 13 27 52v555c0 40 -7 42 -30 53l-43 20v28l170 16l10 -8s-7 -50 -7 -117v-91c0 -45 -5 -88 -5 -88h4c50 32 125 63 189 63c101 0 136 -43 136 -133v-298c0 -39 8 -47 27 -52l40 -11v-30h-234v30l41 11c20 5 26 10 26 52v270c0 70 -23 95 -87 95
c-49 0 -108 -20 -137 -31v-334c0 -42 6 -47 26 -52l41 -11v-30h-235zM327 967l134 -127l-18 -24l-141 70l-141 -70l-17 24l132 127h51z" />
    <glyph glyph-name="ibreve" unicode="&#x12d;" horiz-adv-x="279" 
d="M25 0v28l41 12c22 5 27 14 27 59v299c0 45 -5 46 -30 58l-38 20v26l165 21l10 -6c-1 -5 -7 -46 -7 -117v-301c0 -48 5 -54 26 -59l41 -12v-28h-235zM144 594c-75 0 -130 63 -137 146l29 8c14 -47 51 -84 107 -84s93 37 107 84l28 -8c-6 -83 -59 -146 -134 -146zM201 517
h-1c1 1 1 1 1 0z" />
    <glyph glyph-name="imacron" unicode="&#x12b;" horiz-adv-x="279" 
d="M25 0v28l41 12c22 5 27 14 27 59v299c0 45 -5 46 -30 58l-38 20v26l165 21l10 -6c-1 -5 -7 -46 -7 -117v-301c0 -48 5 -54 26 -59l41 -12v-28h-235zM10 628v65h244v-65h-244zM201 517h-1c1 1 1 1 1 0z" />
    <glyph glyph-name="iogonek" unicode="&#x12f;" horiz-adv-x="279" 
d="M25 0v30l41 11c20 5 27 13 27 52v310c0 40 -5 42 -30 54l-38 19v26l165 21l10 -6s-7 -41 -7 -112v-312c0 -42 6 -47 26 -52l41 -11v-30h-65c-34 -39 -50 -78 -50 -119c0 -27 8 -44 31 -49c15 -3 32 -4 59 -3v-28c-16 -11 -40 -24 -83 -24c-56 0 -96 31 -96 84
c0 59 49 107 90 139h-121zM139 614c-38 0 -68 32 -68 65c0 36 30 65 68 65c37 0 67 -29 67 -65c0 -33 -30 -65 -67 -65z" />
    <glyph glyph-name="itilde" unicode="&#x129;" horiz-adv-x="279" 
d="M25 0v28l41 12c22 5 27 14 27 59v299c0 45 -5 46 -30 58l-38 20v26l165 21l10 -6c-1 -5 -7 -46 -7 -117v-301c0 -48 5 -54 26 -59l41 -12v-28h-235zM13 583l-34 14c29 83 56 124 98 124c41 0 111 -41 136 -41c21 0 36 20 60 66l32 -13c-29 -83 -56 -124 -98 -124
c-41 0 -108 41 -136 41c-21 0 -34 -20 -58 -67zM201 517h-1c1 1 1 1 1 0z" />
    <glyph glyph-name="idotaccent" horiz-adv-x="279" 
d="M139 614c-38 0 -68 32 -68 65c0 36 30 65 68 65c37 0 67 -29 67 -65c0 -33 -30 -65 -67 -65zM25 0v30l41 11c20 5 27 13 27 52v310c0 40 -5 42 -30 54l-38 19v26l165 21l10 -6s-7 -41 -7 -112v-312c0 -42 6 -47 26 -52l41 -11v-30h-235z" />
    <glyph glyph-name="jcircumflex" unicode="&#x135;" horiz-adv-x="271" 
d="M11 -228c-62 0 -93 34 -93 69c0 27 22 47 53 47c39 0 49 -22 52 -45c4 -31 9 -34 19 -34c31 0 51 27 51 64v530c0 40 -5 42 -30 54l-38 19v26l165 21l10 -6s-7 -41 -7 -117v-422c0 -151 -82 -206 -182 -206zM167 751l134 -141l-18 -24l-141 84l-141 -84l-17 24l132 141
h51z" />
    <glyph glyph-name="kcommaaccent" unicode="&#x137;" horiz-adv-x="542" 
d="M25 0v30l41 11c20 5 27 13 27 52v555c0 40 -7 42 -30 53l-43 20v28l170 16l10 -8s-7 -50 -7 -117v-547c0 -42 6 -47 26 -52l41 -11v-30h-235zM408 0c-78 83 -133 157 -198 252v15l103 112c41 47 55 63 55 75c0 10 -7 17 -24 22l-15 5v28h187v-29l-31 -10
c-28 -9 -51 -22 -91 -62l-102 -110c58 -86 120 -167 189 -240c9 -10 16 -14 27 -17l34 -11v-30h-134zM227 -284l-8 27c70 23 85 57 85 89c-4 -3 -13 -7 -25 -7c-36 0 -53 23 -53 52c0 30 28 56 64 56c42 0 78 -24 78 -79c0 -61 -45 -119 -141 -138z" />
    <glyph glyph-name="lacute" unicode="&#x13a;" horiz-adv-x="280" 
d="M25 0v30l41 11c20 5 27 13 27 52v555c0 40 -7 42 -30 53l-43 20v28l170 16l10 -8s-7 -50 -7 -117v-547c0 -42 6 -47 26 -52l41 -11v-30h-235zM48 818l-11 24l162 114c15 10 27 15 39 15c23 0 41 -22 41 -43c0 -17 -9 -37 -37 -46z" />
    <glyph glyph-name="lcaron" unicode="&#x13e;" horiz-adv-x="280" 
d="M25 0v30l41 11c20 5 27 13 27 52v555c0 40 -7 42 -30 53l-43 20v28l170 16l10 -8s-7 -50 -7 -117v-547c0 -42 6 -47 26 -52l41 -11v-30h-235zM291 565l-25 7l8 143c1 25 11 50 46 50c22 0 41 -14 41 -39c0 -9 -1 -19 -7 -31z" />
    <glyph glyph-name="lcommaaccent" unicode="&#x13c;" horiz-adv-x="280" 
d="M25 0v30l41 11c20 5 27 13 27 52v555c0 40 -7 42 -30 53l-43 20v28l170 16l10 -8s-7 -50 -7 -117v-547c0 -42 6 -47 26 -52l41 -11v-30h-235zM74 -284l-8 27c70 23 85 57 85 89c-4 -3 -13 -7 -25 -7c-36 0 -53 23 -53 52c0 30 28 56 64 56c42 0 78 -24 78 -79
c0 -61 -45 -119 -141 -138z" />
    <glyph glyph-name="ldot" unicode="&#x140;" horiz-adv-x="405" 
d="M25 0v30l41 11c20 5 27 13 27 52v555c0 40 -7 42 -30 53l-43 20v28l170 16l10 -8s-7 -50 -7 -117v-547c0 -42 6 -47 26 -52l41 -11v-30h-235zM345 316c-36 0 -64 28 -64 63s28 63 64 63s65 -28 65 -63s-29 -63 -65 -63z" />
    <glyph glyph-name="nacute" unicode="&#x144;" horiz-adv-x="605" 
d="M25 0v30l41 11c20 5 27 13 27 52v310c0 40 -5 42 -30 54l-38 19v26l158 21l10 -6l-5 -56h4c50 32 125 63 189 63c101 0 136 -43 136 -133v-298c0 -39 8 -47 27 -52l40 -11v-30h-234v30l41 11c20 5 26 10 26 52v270c0 70 -23 95 -87 95c-49 0 -108 -20 -137 -31v-334
c0 -42 6 -47 26 -52l41 -11v-30h-235zM205 593l-11 24l162 114c15 10 27 15 39 15c23 0 41 -22 41 -43c0 -17 -9 -37 -37 -46z" />
    <glyph glyph-name="napostrophe" unicode="&#x149;" horiz-adv-x="685" 
d="M-60 445l-10 28c65 32 98 72 98 120c-4 -3 -13 -7 -27 -7c-33 0 -57 26 -57 60c0 36 29 60 67 60c43 0 81 -35 81 -88c0 -79 -56 -149 -152 -173zM105 0v30l41 11c20 5 27 13 27 52v310c0 40 -5 42 -30 54l-38 19v26l158 21l10 -6l-5 -56h4c50 32 125 63 189 63
c101 0 136 -43 136 -133v-298c0 -39 8 -47 27 -52l40 -11v-30h-234v30l41 11c20 5 26 10 26 52v270c0 70 -23 95 -87 95c-49 0 -108 -20 -137 -31v-334c0 -42 6 -47 26 -52l41 -11v-30h-235z" />
    <glyph glyph-name="ncaron" unicode="&#x148;" horiz-adv-x="605" 
d="M25 0v30l41 11c20 5 27 13 27 52v310c0 40 -5 42 -30 54l-38 19v26l158 21l10 -6l-5 -56h4c50 32 125 63 189 63c101 0 136 -43 136 -133v-298c0 -39 8 -47 27 -52l40 -11v-30h-234v30l41 11c20 5 26 10 26 52v270c0 70 -23 95 -87 95c-49 0 -108 -20 -137 -31v-334
c0 -42 6 -47 26 -52l41 -11v-30h-235zM281 598l-133 141l17 24l141 -84l141 84l18 -24l-133 -141h-51z" />
    <glyph glyph-name="ncommaaccent" unicode="&#x146;" horiz-adv-x="605" 
d="M25 0v30l41 11c20 5 27 13 27 52v310c0 40 -5 42 -30 54l-38 19v26l158 21l10 -6l-5 -56h4c50 32 125 63 189 63c101 0 136 -43 136 -133v-298c0 -39 8 -47 27 -52l40 -11v-30h-234v30l41 11c20 5 26 10 26 52v270c0 70 -23 95 -87 95c-49 0 -108 -20 -137 -31v-334
c0 -42 6 -47 26 -52l41 -11v-30h-235zM236 -284l-8 27c70 23 85 57 85 89c-4 -3 -13 -7 -25 -7c-36 0 -53 23 -53 52c0 30 28 56 64 56c42 0 78 -24 78 -79c0 -61 -45 -119 -141 -138z" />
    <glyph glyph-name="nacute.pl" horiz-adv-x="605" 
d="M25 0v30l41 11c20 5 27 13 27 52v310c0 40 -5 42 -30 54l-38 19v26l158 21l10 -6l-5 -56h4c50 32 125 63 189 63c101 0 136 -43 136 -133v-298c0 -39 8 -47 27 -52l40 -11v-30h-234v30l41 11c20 5 26 10 26 52v270c0 70 -23 95 -87 95c-49 0 -108 -20 -137 -31v-334
c0 -42 6 -47 26 -52l41 -11v-30h-235zM296 574l-22 16l75 157c10 20 24 35 47 35c22 0 43 -18 43 -42c0 -12 -4 -25 -16 -38z" />
    <glyph glyph-name="obreve" unicode="&#x14f;" horiz-adv-x="573" 
d="M287 -13c-143 0 -253 91 -253 268c0 175 122 270 253 270c142 0 252 -87 252 -264c0 -175 -122 -274 -252 -274zM291 30c90 0 138 67 138 217c0 170 -48 236 -146 236c-90 0 -139 -64 -139 -214c0 -170 49 -239 147 -239zM288 594c-75 0 -130 63 -137 146l29 8
c14 -47 51 -84 107 -84s93 37 107 84l28 -8c-6 -83 -59 -146 -134 -146z" />
    <glyph glyph-name="ohungarumlaut" unicode="&#x151;" horiz-adv-x="573" 
d="M287 -13c-143 0 -253 91 -253 268c0 175 122 270 253 270c142 0 252 -87 252 -264c0 -175 -122 -274 -252 -274zM291 30c90 0 138 67 138 217c0 170 -48 236 -146 236c-90 0 -139 -64 -139 -214c0 -170 49 -239 147 -239zM353 592l-17 20l96 123c11 14 21 21 34 21
c17 0 44 -18 44 -40c0 -14 -4 -27 -25 -40zM179 592l-18 20l95 123c11 15 22 21 35 21c16 0 44 -18 44 -40c0 -14 -4 -26 -26 -40z" />
    <glyph glyph-name="omacron" unicode="&#x14d;" horiz-adv-x="573" 
d="M287 -13c-143 0 -253 91 -253 268c0 175 122 270 253 270c142 0 252 -87 252 -264c0 -175 -122 -274 -252 -274zM291 30c90 0 138 67 138 217c0 170 -48 236 -146 236c-90 0 -139 -64 -139 -214c0 -170 49 -239 147 -239zM144 628v65h284v-65h-284z" />
    <glyph glyph-name="oacute.pl" horiz-adv-x="573" 
d="M287 -13c-143 0 -253 91 -253 268c0 175 122 270 253 270c142 0 252 -87 252 -264c0 -175 -122 -274 -252 -274zM291 30c90 0 138 67 138 217c0 170 -48 236 -146 236c-90 0 -139 -64 -139 -214c0 -170 49 -239 147 -239zM276 574l-22 16l75 157c10 20 24 35 47 35
c22 0 43 -18 43 -42c0 -12 -4 -25 -16 -38z" />
    <glyph glyph-name="oslashacute" unicode="&#x1ff;" horiz-adv-x="573" 
d="M33 -54l77 105c-47 45 -76 113 -76 204c0 175 122 270 253 270c54 0 104 -13 144 -39l53 72h52l-72 -97c47 -44 75 -111 75 -200c0 -175 -122 -274 -252 -274c-54 0 -103 13 -144 38l-58 -79h-52zM144 269c0 -67 4 -116 15 -152l237 321c-23 34 -59 45 -113 45
c-90 0 -139 -64 -139 -214zM291 30c90 0 138 67 138 217c0 64 -4 112 -14 147l-236 -320c23 -33 59 -44 112 -44zM185 593l-11 24l162 114c15 10 27 15 39 15c23 0 41 -22 41 -43c0 -17 -9 -37 -37 -46z" />
    <glyph glyph-name="racute" unicode="&#x155;" horiz-adv-x="421" 
d="M25 0v30l41 11c20 5 27 13 27 52v310c0 40 -5 42 -30 54l-38 19v26l158 21l10 -8l-5 -58h4c35 35 97 68 147 68c41 0 66 -22 66 -60c0 -37 -25 -56 -54 -56c-37 0 -48 10 -57 32c-6 14 -13 17 -23 17c-20 0 -60 -24 -78 -44v-321c0 -42 6 -48 26 -52l51 -11v-30h-245z
M133 593l-11 24l162 114c15 10 27 15 39 15c23 0 41 -22 41 -43c0 -17 -9 -37 -37 -46z" />
    <glyph glyph-name="rcaron" unicode="&#x159;" horiz-adv-x="421" 
d="M25 0v30l41 11c20 5 27 13 27 52v310c0 40 -5 42 -30 54l-38 19v26l158 21l10 -8l-5 -58h4c35 35 97 68 147 68c41 0 66 -22 66 -60c0 -37 -25 -56 -54 -56c-37 0 -48 10 -57 32c-6 14 -13 17 -23 17c-20 0 -60 -24 -78 -44v-321c0 -42 6 -48 26 -52l51 -11v-30h-245z
M209 598l-133 141l17 24l141 -84l141 84l18 -24l-133 -141h-51z" />
    <glyph glyph-name="rcommaaccent" unicode="&#x157;" horiz-adv-x="421" 
d="M25 0v30l41 11c20 5 27 13 27 52v310c0 40 -5 42 -30 54l-38 19v26l158 21l10 -8l-5 -58h4c35 35 97 68 147 68c41 0 66 -22 66 -60c0 -37 -25 -56 -54 -56c-37 0 -48 10 -57 32c-6 14 -13 17 -23 17c-20 0 -60 -24 -78 -44v-321c0 -42 6 -48 26 -52l51 -11v-30h-245z
M74 -284l-8 27c70 23 85 57 85 89c-4 -3 -13 -7 -25 -7c-36 0 -53 23 -53 52c0 30 28 56 64 56c42 0 78 -24 78 -79c0 -61 -45 -119 -141 -138z" />
    <glyph glyph-name="sacute" unicode="&#x15b;" horiz-adv-x="425" 
d="M190 -12c-57 0 -112 7 -152 22l-5 149h32c17 -39 24 -60 48 -90c19 -22 39 -38 87 -38c61 0 104 30 104 82c0 54 -36 75 -118 108c-87 34 -148 76 -148 154c0 93 83 150 188 150c55 0 96 -5 131 -18l4 -134h-30c-17 34 -32 58 -51 83c-15 18 -30 27 -66 27
c-66 0 -95 -29 -95 -80c0 -38 33 -65 117 -97c94 -36 156 -75 156 -152c0 -94 -77 -166 -202 -166zM120 593l-11 24l162 114c15 10 27 15 39 15c23 0 41 -22 41 -43c0 -17 -9 -37 -37 -46z" />
    <glyph glyph-name="scedilla" unicode="&#x15f;" horiz-adv-x="425" 
d="M81 -239v27c83 19 109 43 109 70c0 21 -23 35 -70 39l-9 9l43 83c-44 3 -85 9 -116 21l-5 149h32c17 -39 24 -60 48 -90c19 -22 39 -38 87 -38c61 0 104 30 104 82c0 54 -36 75 -118 108c-87 34 -148 76 -148 154c0 93 83 150 188 150c55 0 96 -5 131 -18l4 -134h-30
c-17 34 -32 58 -51 83c-15 18 -30 27 -66 27c-66 0 -95 -29 -95 -80c0 -38 33 -65 117 -97c94 -36 156 -75 156 -152c0 -92 -73 -162 -192 -166l-33 -45c66 -5 100 -32 100 -71c0 -45 -56 -99 -186 -111z" />
    <glyph glyph-name="scircumflex" unicode="&#x15d;" horiz-adv-x="425" 
d="M190 -12c-57 0 -112 7 -152 22l-5 149h32c17 -39 24 -60 48 -90c19 -22 39 -38 87 -38c61 0 104 30 104 82c0 54 -36 75 -118 108c-87 34 -148 76 -148 154c0 93 83 150 188 150c55 0 96 -5 131 -18l4 -134h-30c-17 34 -32 58 -51 83c-15 18 -30 27 -66 27
c-66 0 -95 -29 -95 -80c0 -38 33 -65 117 -97c94 -36 156 -75 156 -152c0 -94 -77 -166 -202 -166zM246 751l134 -141l-18 -24l-141 84l-141 -84l-17 24l132 141h51z" />
    <glyph glyph-name="scommaaccent" unicode="&#x219;" horiz-adv-x="425" 
d="M190 -12c-57 0 -112 7 -152 22l-5 149h32c17 -39 24 -60 48 -90c19 -22 39 -38 87 -38c61 0 104 30 104 82c0 54 -36 75 -118 108c-87 34 -148 76 -148 154c0 93 83 150 188 150c55 0 96 -5 131 -18l4 -134h-30c-17 34 -32 58 -51 83c-15 18 -30 27 -66 27
c-66 0 -95 -29 -95 -80c0 -38 33 -65 117 -97c94 -36 156 -75 156 -152c0 -94 -77 -166 -202 -166zM131 -284l-8 27c70 23 85 57 85 89c-4 -3 -13 -7 -25 -7c-36 0 -53 23 -53 52c0 30 28 56 64 56c42 0 78 -24 78 -79c0 -61 -45 -119 -141 -138z" />
    <glyph glyph-name="sacute.pl" horiz-adv-x="425" 
d="M190 -12c-57 0 -112 7 -152 22l-5 149h32c17 -39 24 -60 48 -90c19 -22 39 -38 87 -38c61 0 104 30 104 82c0 54 -36 75 -118 108c-87 34 -148 76 -148 154c0 93 83 150 188 150c55 0 96 -5 131 -18l4 -134h-30c-17 34 -32 58 -51 83c-15 18 -30 27 -66 27
c-66 0 -95 -29 -95 -80c0 -38 33 -65 117 -97c94 -36 156 -75 156 -152c0 -94 -77 -166 -202 -166zM211 574l-22 16l75 157c10 20 24 35 47 35c22 0 43 -18 43 -42c0 -12 -4 -25 -16 -38z" />
    <glyph glyph-name="tbar" unicode="&#x167;" horiz-adv-x="339" 
d="M10 317v44h70v95h-70v29c69 19 104 66 131 147h39v-123h144l-13 -53h-131v-95h138v-44h-138v-209c0 -43 22 -62 68 -62c29 0 59 8 79 14v-32c-18 -17 -64 -40 -131 -40c-63 0 -116 29 -116 105v224h-70z" />
    <glyph glyph-name="tcaron" unicode="&#x165;" horiz-adv-x="339" 
d="M196 -12c-63 0 -116 29 -116 105v363h-70v29c69 19 104 66 131 147h39v-123h144l-13 -53h-131v-348c0 -43 22 -62 68 -62c29 0 59 8 79 14v-32c-18 -17 -64 -40 -131 -40zM270 565l-25 7l8 143c1 25 11 50 46 50c22 0 41 -14 41 -39c0 -9 -1 -19 -7 -31z" />
    <glyph glyph-name="tcommaaccent" unicode="&#x163;" horiz-adv-x="339" 
d="M196 -12c-63 0 -116 29 -116 105v363h-70v29c69 19 104 66 131 147h39v-123h144l-13 -53h-131v-348c0 -43 22 -62 68 -62c29 0 59 8 79 14v-32c-18 -17 -64 -40 -131 -40zM109 -284l-8 27c70 23 85 57 85 89c-4 -3 -13 -7 -25 -7c-36 0 -53 23 -53 52c0 30 28 56 64 56
c42 0 78 -24 78 -79c0 -61 -45 -119 -141 -138z" />
    <glyph glyph-name="ubreve" unicode="&#x16d;" horiz-adv-x="598" 
d="M224 -12c-84 0 -135 46 -135 131v294c0 37 -4 38 -27 48l-41 18v27l153 17l15 -10v-371c0 -58 26 -89 86 -89c49 0 101 21 138 37v323c0 37 -3 38 -27 48l-40 18v27l153 17l14 -10v-398c0 -45 6 -51 30 -62l37 -17v-27l-156 -21l-11 8l5 60h-4c-53 -35 -120 -68 -190 -68
zM307 594c-75 0 -130 63 -137 146l29 8c14 -47 51 -84 107 -84s93 37 107 84l28 -8c-6 -83 -59 -146 -134 -146z" />
    <glyph glyph-name="uhungarumlaut" unicode="&#x171;" horiz-adv-x="598" 
d="M224 -12c-84 0 -135 46 -135 131v294c0 37 -4 38 -27 48l-41 18v27l153 17l15 -10v-371c0 -58 26 -89 86 -89c49 0 101 21 138 37v323c0 37 -3 38 -27 48l-40 18v27l153 17l14 -10v-398c0 -45 6 -51 30 -62l37 -17v-27l-156 -21l-11 8l5 60h-4c-53 -35 -120 -68 -190 -68
zM372 592l-17 20l96 123c11 14 21 21 34 21c17 0 44 -18 44 -40c0 -14 -4 -27 -25 -40zM198 592l-18 20l95 123c11 15 22 21 35 21c16 0 44 -18 44 -40c0 -14 -4 -26 -26 -40z" />
    <glyph glyph-name="umacron" unicode="&#x16b;" horiz-adv-x="598" 
d="M224 -12c-84 0 -135 46 -135 131v294c0 37 -4 38 -27 48l-41 18v27l153 17l15 -10v-371c0 -58 26 -89 86 -89c49 0 101 21 138 37v323c0 37 -3 38 -27 48l-40 18v27l153 17l14 -10v-398c0 -45 6 -51 30 -62l37 -17v-27l-156 -21l-11 8l5 60h-4c-53 -35 -120 -68 -190 -68
zM163 628v65h284v-65h-284z" />
    <glyph glyph-name="uogonek" unicode="&#x173;" horiz-adv-x="598" 
d="M411 -223c-56 0 -96 31 -96 84c0 58 56 103 101 135l2 60h-4c-53 -35 -120 -68 -190 -68c-84 0 -135 46 -135 131v294c0 37 -4 38 -27 48l-41 18v27l153 17l15 -10v-371c0 -58 26 -89 86 -89c49 0 101 21 138 37v323c0 37 -3 38 -27 48l-40 18v27l153 17l14 -10v-398
c0 -45 6 -51 30 -62l37 -17v-27l-44 -5c-98 -11 -132 -68 -132 -123c0 -27 8 -44 31 -49c15 -3 32 -4 59 -3v-28c-16 -11 -40 -24 -83 -24z" />
    <glyph glyph-name="uring" unicode="&#x16f;" horiz-adv-x="598" 
d="M224 -12c-84 0 -135 46 -135 131v294c0 37 -4 38 -27 48l-41 18v27l153 17l15 -10v-371c0 -58 26 -89 86 -89c49 0 101 21 138 37v323c0 37 -3 38 -27 48l-40 18v27l153 17l14 -10v-398c0 -45 6 -51 30 -62l37 -17v-27l-156 -21l-11 8l5 60h-4c-53 -35 -120 -68 -190 -68
zM305 588c-58 0 -102 45 -102 98c0 55 44 99 102 99s102 -44 102 -99c0 -53 -44 -98 -102 -98zM305 626c35 0 58 25 58 60s-23 61 -58 61s-58 -26 -58 -61s23 -60 58 -60z" />
    <glyph glyph-name="utilde" unicode="&#x169;" horiz-adv-x="598" 
d="M224 -12c-84 0 -135 46 -135 131v294c0 37 -4 38 -27 48l-41 18v27l153 17l15 -10v-371c0 -58 26 -89 86 -89c49 0 101 21 138 37v323c0 37 -3 38 -27 48l-40 18v27l153 17l14 -10v-398c0 -45 6 -51 30 -62l37 -17v-27l-156 -21l-11 8l5 60h-4c-53 -35 -120 -68 -190 -68
zM176 583l-34 14c29 83 56 124 98 124c41 0 111 -41 136 -41c21 0 36 20 60 66l32 -13c-29 -83 -56 -124 -98 -124c-41 0 -108 41 -136 41c-21 0 -34 -20 -58 -67z" />
    <glyph glyph-name="wacute" unicode="&#x1e83;" horiz-adv-x="790" 
d="M222 0l-144 405c-16 44 -24 57 -54 67l-25 8v29h228v-29l-27 -7c-23 -6 -28 -16 -28 -32c0 -12 6 -29 14 -52l89 -272h5l93 266l-7 22c-12 39 -26 60 -49 67l-24 8v29h213v-29l-28 -7c-19 -5 -22 -16 -22 -32c0 -12 5 -30 13 -52l94 -272h4l87 272c9 27 12 43 12 54
c0 15 -6 25 -26 30l-28 7v29h178v-29l-28 -8c-27 -7 -33 -27 -51 -77l-141 -395h-60l-111 321h-3l-114 -321h-60zM309 593l-11 24l162 114c15 10 27 15 39 15c23 0 41 -22 41 -43c0 -17 -9 -37 -37 -46z" />
    <glyph glyph-name="wcircumflex" unicode="&#x175;" horiz-adv-x="790" 
d="M222 0l-144 405c-16 44 -24 57 -54 67l-25 8v29h228v-29l-27 -7c-23 -6 -28 -16 -28 -32c0 -12 6 -29 14 -52l89 -272h5l93 266l-7 22c-12 39 -26 60 -49 67l-24 8v29h213v-29l-28 -7c-19 -5 -22 -16 -22 -32c0 -12 5 -30 13 -52l94 -272h4l87 272c9 27 12 43 12 54
c0 15 -6 25 -26 30l-28 7v29h178v-29l-28 -8c-27 -7 -33 -27 -51 -77l-141 -395h-60l-111 321h-3l-114 -321h-60zM435 751l134 -141l-18 -24l-141 84l-141 -84l-17 24l132 141h51z" />
    <glyph glyph-name="wdieresis" unicode="&#x1e85;" horiz-adv-x="790" 
d="M222 0l-144 405c-16 44 -24 57 -54 67l-25 8v29h228v-29l-27 -7c-23 -6 -28 -16 -28 -32c0 -12 6 -29 14 -52l89 -272h5l93 266l-7 22c-12 39 -26 60 -49 67l-24 8v29h213v-29l-28 -7c-19 -5 -22 -16 -22 -32c0 -12 5 -30 13 -52l94 -272h4l87 272c9 27 12 43 12 54
c0 15 -6 25 -26 30l-28 7v29h178v-29l-28 -8c-27 -7 -33 -27 -51 -77l-141 -395h-60l-111 321h-3l-114 -321h-60zM310 616c-36 0 -66 31 -66 63c0 34 30 63 66 63s66 -29 66 -63c0 -32 -30 -63 -66 -63zM511 616c-37 0 -66 31 -66 63c0 34 29 63 66 63c36 0 65 -29 65 -63
c0 -32 -29 -63 -65 -63z" />
    <glyph glyph-name="wgrave" unicode="&#x1e81;" horiz-adv-x="790" 
d="M222 0l-144 405c-16 44 -24 57 -54 67l-25 8v29h228v-29l-27 -7c-23 -6 -28 -16 -28 -32c0 -12 6 -29 14 -52l89 -272h5l93 266l-7 22c-12 39 -26 60 -49 67l-24 8v29h213v-29l-28 -7c-19 -5 -22 -16 -22 -32c0 -12 5 -30 13 -52l94 -272h4l87 272c9 27 12 43 12 54
c0 15 -6 25 -26 30l-28 7v29h178v-29l-28 -8c-27 -7 -33 -27 -51 -77l-141 -395h-60l-111 321h-3l-114 -321h-60zM493 593l-195 64c-28 9 -37 29 -37 46c0 21 18 43 41 43c12 0 24 -5 39 -15l163 -114z" />
    <glyph glyph-name="ycircumflex" unicode="&#x177;" horiz-adv-x="532" 
d="M103 -226c-62 0 -86 32 -86 65c0 31 18 54 49 54c32 0 47 -18 54 -41c5 -15 7 -18 16 -18c23 0 55 32 85 105l24 57l-168 409c-22 53 -25 58 -52 67l-24 8v29h228v-29l-27 -7c-23 -6 -29 -12 -29 -30c0 -13 5 -30 15 -54l108 -268h4l98 268c9 26 12 46 12 58
c0 17 -10 21 -28 26l-28 7v29h181v-29l-28 -8c-24 -7 -29 -20 -51 -77l-181 -454c-39 -98 -86 -167 -172 -167zM320 751l134 -141l-18 -24l-141 84l-141 -84l-17 24l132 141h51z" />
    <glyph glyph-name="ygrave" unicode="&#x1ef3;" horiz-adv-x="532" 
d="M103 -226c-62 0 -86 32 -86 65c0 31 18 54 49 54c32 0 47 -18 54 -41c5 -15 7 -18 16 -18c23 0 55 32 85 105l24 57l-168 409c-22 53 -25 58 -52 67l-24 8v29h228v-29l-27 -7c-23 -6 -29 -12 -29 -30c0 -13 5 -30 15 -54l108 -268h4l98 268c9 26 12 46 12 58
c0 17 -10 21 -28 26l-28 7v29h181v-29l-28 -8c-24 -7 -29 -20 -51 -77l-181 -454c-39 -98 -86 -167 -172 -167zM378 593l-195 64c-28 9 -37 29 -37 46c0 21 18 43 41 43c12 0 24 -5 39 -15l163 -114z" />
    <glyph glyph-name="zacute" unicode="&#x17a;" horiz-adv-x="476" 
d="M25 0v33l310 433v4h-83c-81 0 -98 -6 -114 -30c-21 -31 -33 -55 -53 -98h-31l7 167h393v-31l-312 -435v-4h73c110 0 127 12 148 44c24 35 37 63 50 96h32l-12 -179h-408zM152 593l-11 24l162 114c15 10 27 15 39 15c23 0 41 -22 41 -43c0 -17 -9 -37 -37 -46z" />
    <glyph glyph-name="zacute.pl" horiz-adv-x="476" 
d="M25 0v33l310 433v4h-83c-81 0 -98 -6 -114 -30c-21 -31 -33 -55 -53 -98h-31l7 167h393v-31l-312 -435v-4h73c110 0 127 12 148 44c24 35 37 63 50 96h32l-12 -179h-408zM239 574l-22 16l75 157c10 20 24 35 47 35c22 0 43 -18 43 -42c0 -12 -4 -25 -16 -38z" />
    <glyph glyph-name="zdotaccent" unicode="&#x17c;" horiz-adv-x="476" 
d="M25 0v33l310 433v4h-83c-81 0 -98 -6 -114 -30c-21 -31 -33 -55 -53 -98h-31l7 167h393v-31l-312 -435v-4h73c110 0 127 12 148 44c24 35 37 63 50 96h32l-12 -179h-408zM254 614c-38 0 -68 32 -68 65c0 36 30 65 68 65c37 0 67 -29 67 -65c0 -33 -30 -65 -67 -65z" />
    <glyph glyph-name="oneeighth" unicode="&#x215b;" horiz-adv-x="800" 
d="M24 271v26l31 5c26 4 29 7 29 42v257h-61v30c65 12 104 36 136 72l17 -6v-353c0 -35 4 -38 29 -42l29 -5v-26h-210zM117 -50l506 764h58l-506 -764h-58zM613 -112c-89 0 -166 40 -166 110c0 46 41 83 95 108v3c-47 21 -73 55 -73 101c0 70 66 116 147 116
c76 0 144 -35 144 -101c0 -40 -37 -76 -81 -97v-4c65 -29 95 -59 95 -111c0 -68 -64 -125 -161 -125zM652 140c17 17 37 42 37 83c0 51 -32 70 -77 70s-75 -23 -75 -61c0 -37 32 -59 115 -92zM619 -79c53 0 85 27 85 68c0 43 -42 65 -137 104c-24 -21 -44 -49 -44 -86
c0 -61 35 -86 96 -86z" />
    <glyph glyph-name="onethird" unicode="&#x2153;" horiz-adv-x="800" 
d="M24 271v26l31 5c26 4 29 7 29 42v257h-61v30c65 12 104 36 136 72l17 -6v-353c0 -35 4 -38 29 -42l29 -5v-26h-210zM123 -50l506 764h58l-506 -764h-58zM598 -111c-78 0 -133 32 -133 75c0 20 15 42 40 42c27 0 43 -13 50 -46c7 -30 11 -37 47 -37c53 0 77 30 77 91
c0 66 -24 82 -83 82h-33v37h30c54 0 77 19 77 84c0 60 -26 75 -65 75c-28 0 -35 -7 -38 -27c-5 -32 -14 -49 -46 -49c-25 0 -40 17 -40 39c0 44 62 71 137 71c89 0 135 -40 135 -101c0 -46 -32 -91 -106 -106v-2c71 -7 123 -39 123 -105c0 -67 -49 -123 -172 -123z" />
    <glyph glyph-name="threeeighths" unicode="&#x215c;" horiz-adv-x="800" 
d="M150 264c-78 0 -133 32 -133 75c0 20 15 42 40 42c27 0 43 -13 50 -46c7 -29 11 -37 47 -37c53 0 77 30 77 91c0 66 -24 82 -83 82h-33v37h30c54 0 77 19 77 84c0 60 -26 75 -65 75c-28 0 -35 -7 -38 -27c-5 -32 -14 -49 -46 -49c-25 0 -40 17 -40 39c0 44 62 71 137 71
c89 0 135 -40 135 -101c0 -46 -32 -91 -106 -106v-2c71 -7 123 -39 123 -105c0 -67 -49 -123 -172 -123zM137 -50l506 764h58l-506 -764h-58zM613 -112c-89 0 -166 40 -166 110c0 46 41 83 95 108v3c-47 21 -73 55 -73 101c0 70 66 116 147 116c76 0 144 -35 144 -101
c0 -40 -37 -76 -81 -97v-4c65 -29 95 -59 95 -111c0 -68 -64 -125 -161 -125zM652 140c17 17 37 42 37 83c0 51 -32 70 -77 70s-75 -23 -75 -61c0 -37 32 -59 115 -92zM619 -79c53 0 85 27 85 68c0 43 -42 65 -137 104c-24 -21 -44 -49 -44 -86c0 -61 35 -86 96 -86z" />
    <glyph glyph-name="fiveeighths" unicode="&#x215d;" horiz-adv-x="820" 
d="M145 264c-77 0 -123 31 -123 74c0 23 19 39 43 39c30 0 44 -12 49 -50c4 -24 9 -29 40 -29c59 0 88 31 88 83c0 68 -47 93 -113 93c-31 0 -53 -6 -68 -11l-8 7l24 223h167c20 0 23 3 38 34h26l-13 -101h-186l-12 -95c15 6 33 11 66 11c86 0 153 -40 153 -132
c0 -84 -69 -146 -171 -146zM141 -50l506 764h58l-506 -764h-58zM633 -112c-89 0 -166 40 -166 110c0 46 41 83 95 108v3c-47 21 -73 55 -73 101c0 70 66 116 147 116c76 0 144 -35 144 -101c0 -40 -37 -76 -81 -97v-4c65 -29 95 -59 95 -111c0 -68 -64 -125 -161 -125z
M672 140c17 17 37 42 37 83c0 51 -32 70 -77 70s-75 -23 -75 -61c0 -37 32 -59 115 -92zM639 -79c53 0 85 27 85 68c0 43 -42 65 -137 104c-24 -21 -44 -49 -44 -86c0 -61 35 -86 96 -86z" />
    <glyph glyph-name="twothirds" unicode="&#x2154;" horiz-adv-x="840" 
d="M22 271v45c54 42 98 80 133 117c45 47 77 86 77 155c0 68 -27 79 -73 79c-29 0 -33 -9 -37 -31c-5 -38 -16 -54 -48 -54c-27 0 -44 24 -44 44c0 37 53 75 138 75c93 0 154 -40 154 -122c0 -83 -101 -162 -221 -238v-3h142c32 0 38 8 57 52h23l-9 -119h-292zM170 -50
l506 764h58l-506 -764h-58zM638 -111c-78 0 -133 32 -133 75c0 20 15 42 40 42c27 0 43 -13 50 -46c7 -30 11 -37 47 -37c53 0 77 30 77 91c0 66 -24 82 -83 82h-33v37h30c54 0 77 19 77 84c0 60 -26 75 -65 75c-28 0 -35 -7 -38 -27c-5 -32 -14 -49 -46 -49
c-25 0 -40 17 -40 39c0 44 62 71 137 71c89 0 135 -40 135 -101c0 -46 -32 -91 -106 -106v-2c71 -7 123 -39 123 -105c0 -67 -49 -123 -172 -123z" />
    <glyph glyph-name="seveneighths" unicode="&#x215e;" horiz-adv-x="800" 
d="M102 -50l506 764h58l-506 -764h-58zM613 -112c-89 0 -166 40 -166 110c0 46 41 83 95 108v3c-47 21 -73 55 -73 101c0 70 66 116 147 116c76 0 144 -35 144 -101c0 -40 -37 -76 -81 -97v-4c65 -29 95 -59 95 -111c0 -68 -64 -125 -161 -125zM652 140c17 17 37 42 37 83
c0 51 -32 70 -77 70s-75 -23 -75 -61c0 -37 32 -59 115 -92zM619 -79c53 0 85 27 85 68c0 43 -42 65 -137 104c-24 -21 -44 -49 -44 -86c0 -61 35 -86 96 -86zM85 271c34 152 109 263 178 354h-171c-24 0 -27 -5 -44 -49h-27l15 117h284v-39c-80 -115 -120 -231 -140 -383
h-95z" />
    <glyph glyph-name="uni24C5" unicode="&#x24c5;" horiz-adv-x="814" 
d="M406 -14c-205 0 -361 161 -361 358s156 356 361 356c204 0 363 -159 363 -356s-159 -358 -363 -358zM406 26c184 0 316 143 316 318s-132 316 -316 316c-185 0 -313 -141 -313 -316s128 -318 313 -318zM372 493v-266c0 -31 4 -35 23 -37l33 -4v-29h-179v29l25 3
c18 2 22 7 22 38v235c0 32 -4 35 -21 38l-26 5v27h172c99 0 152 -36 152 -115c0 -77 -59 -116 -131 -116c-26 0 -37 4 -42 7v26c65 -3 96 19 96 81c0 66 -26 82 -78 82c-23 0 -46 -4 -46 -4z" />
    <glyph glyph-name="dollar.old" horiz-adv-x="486" 
d="M216 -133v122c-139 5 -200 59 -200 120c0 29 23 47 49 47c37 0 52 -11 58 -71c3 -35 14 -52 93 -55v265c-128 55 -178 106 -178 198c0 89 75 161 178 171v81h45v-80c121 -5 175 -58 175 -104c0 -28 -21 -49 -51 -49c-40 0 -50 19 -54 67c-4 33 -17 43 -70 45v-243
c134 -61 188 -112 188 -204c0 -108 -81 -179 -188 -188v-122h-45zM363 146c0 53 -22 88 -102 128v-243c76 8 102 54 102 115zM119 523c0 -54 23 -84 97 -121v220c-65 -8 -97 -46 -97 -99z" />
    <glyph glyph-name="Euro.old" horiz-adv-x="572" 
d="M12 374v44h92c31 176 147 252 269 252c99 0 170 -39 170 -101c0 -28 -16 -52 -52 -52c-33 0 -54 13 -62 67c-5 40 -21 46 -74 46c-83 0 -140 -67 -154 -212h219l-8 -44h-214v-29c0 -22 0 -41 1 -60h197l-7 -44h-185c17 -138 75 -193 178 -193c70 0 115 22 153 46v-39
c-35 -31 -94 -66 -184 -66c-132 0 -227 83 -249 252h-90v44h86c-1 12 -1 24 -1 37c0 18 0 35 2 52h-87z" />
    <glyph glyph-name="sterling.old" horiz-adv-x="503" 
d="M51 317v43h65c-8 40 -14 81 -14 115c0 117 93 195 223 195c81 0 144 -28 144 -80c0 -36 -24 -56 -50 -56c-31 0 -47 17 -59 54c-12 40 -15 43 -51 43c-61 0 -105 -35 -105 -140c0 -33 2 -84 4 -131h163v-43h-161c1 -24 2 -44 2 -58c0 -75 -39 -123 -104 -171v-4h253
c40 0 48 5 83 74h26l-26 -158h-421v68c79 46 113 89 113 163c0 22 -5 52 -12 86h-73z" />
    <glyph glyph-name="yen.old" horiz-adv-x="561" 
d="M59 287v43h153l-117 209c-33 59 -45 79 -69 84l-24 5v30h248v-30l-27 -4c-31 -5 -37 -17 -37 -34c0 -12 7 -29 19 -51l103 -197h4l93 197c11 24 17 38 17 52c0 17 -12 26 -38 32l-23 5v30h188v-30l-21 -5c-27 -7 -39 -26 -76 -98l-99 -195h156v-43h-173v-90h173v-43h-173
v-59c0 -48 4 -52 30 -57l46 -8v-30h-256v30l46 8c24 4 31 9 31 57v59h-174v43h174v90h-174z" />
    <glyph glyph-name="zero.old" horiz-adv-x="589" 
d="M293 -13c-130 0 -257 91 -257 297c0 211 136 309 260 309c130 0 257 -89 257 -297c0 -210 -136 -309 -260 -309zM297 30c96 0 147 78 147 250c0 189 -51 271 -151 271c-97 0 -148 -77 -148 -251c0 -186 51 -270 152 -270z" />
    <glyph glyph-name="one.old" horiz-adv-x="370" 
d="M41 0v30l68 10c26 4 34 10 34 53v375h-104v31c93 19 131 48 178 100l26 -3v-503c0 -43 5 -49 31 -53l63 -10v-30h-296z" />
    <glyph glyph-name="two.old" horiz-adv-x="492" 
d="M20 0v45c67 51 161 118 232 189c60 60 86 111 86 187c0 103 -56 132 -115 132c-55 0 -68 -13 -72 -44c-5 -41 -22 -66 -58 -66c-38 0 -55 23 -55 54c0 49 67 96 194 96c120 0 212 -58 212 -178c0 -140 -184 -239 -316 -334v-3h331l-12 -78h-427z" />
    <glyph glyph-name="three.old" horiz-adv-x="501" 
d="M204 -122c-111 0 -184 40 -184 101c0 24 16 52 52 52c28 0 49 -13 58 -43c17 -54 14 -70 82 -70c96 0 142 69 142 174c0 95 -44 140 -146 140h-58v45h48c91 0 130 52 130 143s-44 133 -116 133c-39 0 -57 -9 -62 -51c-4 -40 -23 -60 -55 -60c-37 0 -53 28 -53 52
c0 63 97 99 185 99c133 0 204 -75 204 -162c0 -72 -49 -144 -162 -170v-3c116 -12 193 -66 193 -170c0 -106 -91 -210 -258 -210z" />
    <glyph glyph-name="four.old" horiz-adv-x="569" 
d="M433 -112h-99v165h-313v43l360 501h52v-487h104l-10 -57h-94v-165zM90 110h244v341h-3l-241 -339v-2z" />
    <glyph glyph-name="five.old" horiz-adv-x="496" 
d="M217 -122c-98 0 -175 34 -175 97c0 23 17 54 54 54c34 0 53 -13 62 -57s14 -54 63 -54c106 0 155 62 155 166c0 115 -82 153 -178 153c-47 0 -90 -8 -113 -17l-7 6l42 352h336l-11 -83h-287l-23 -183c22 6 44 13 90 13c122 0 241 -62 241 -212
c0 -145 -120 -235 -249 -235z" />
    <glyph glyph-name="six.old" horiz-adv-x="553" 
d="M292 -13c-146 0 -253 112 -253 307c0 291 171 411 325 411c86 0 149 -28 149 -83c0 -29 -18 -51 -52 -51c-37 0 -53 17 -63 55c-6 21 -13 42 -53 42c-82 0 -184 -84 -195 -304c39 31 93 58 165 58c122 0 204 -80 204 -212c0 -139 -106 -223 -227 -223zM293 30
c96 0 120 59 120 167c0 115 -42 175 -129 175c-53 0 -98 -17 -135 -43c-1 -17 -1 -9 -1 -28c0 -125 11 -271 145 -271z" />
    <glyph glyph-name="seven.old" horiz-adv-x="489" 
d="M110 -112c58 267 175 444 295 607h-288c-35 0 -38 -12 -64 -77h-28l19 160h431v-47c-136 -198 -217 -371 -255 -643h-110z" />
    <glyph glyph-name="eight.old" horiz-adv-x="533" 
d="M268 -13c-110 0 -236 54 -236 178c0 78 69 144 151 190v3c-74 43 -119 91 -119 165c0 102 90 182 208 182c102 0 202 -54 202 -159c0 -71 -59 -130 -130 -174v-3c95 -55 157 -99 157 -184c0 -105 -96 -198 -233 -198zM314 392c34 34 76 80 76 151c0 79 -47 119 -122 119
s-121 -46 -121 -107c0 -71 89 -121 167 -163zM274 30c87 0 138 53 138 123c0 81 -100 128 -200 184c-36 -31 -92 -81 -92 -163c0 -94 63 -144 154 -144z" />
    <glyph glyph-name="nine.old" horiz-adv-x="550" 
d="M260 593c146 0 251 -112 251 -307c0 -291 -147 -408 -320 -408c-86 0 -149 28 -149 83c0 29 18 51 52 51c37 0 53 -17 63 -55c6 -21 13 -42 53 -42c108 0 179 81 190 301c-39 -31 -92 -58 -164 -58c-122 0 -202 80 -202 212c0 139 105 223 226 223zM259 550
c-96 0 -119 -59 -119 -167c0 -115 41 -175 128 -175c53 0 96 17 133 43c1 17 1 9 1 28c0 125 -9 271 -143 271z" />
    <glyph glyph-name="percent.old" horiz-adv-x="798" 
d="M195 313c-71 0 -161 53 -161 171c0 126 95 184 164 184s161 -54 161 -174c0 -124 -97 -181 -164 -181zM109 -50l505 729h59l-505 -729h-59zM600 -14c-71 0 -161 53 -161 171c0 126 95 184 164 184s161 -54 161 -174c0 -124 -97 -181 -164 -181zM196 348
c49 0 78 40 78 136c0 105 -29 149 -78 149c-48 0 -76 -41 -76 -138c0 -102 28 -147 76 -147zM601 21c49 0 77 40 77 136c0 105 -28 149 -77 149c-48 0 -76 -41 -76 -138c0 -102 28 -147 76 -147z" />
    <glyph glyph-name="perthousand.old" horiz-adv-x="1175" 
d="M195 313c-71 0 -161 53 -161 171c0 126 95 184 164 184s161 -54 161 -174c0 -124 -97 -181 -164 -181zM109 -50l505 729h59l-505 -729h-59zM600 -14c-71 0 -161 53 -161 171c0 126 95 184 164 184s161 -54 161 -174c0 -124 -97 -181 -164 -181zM196 348
c49 0 78 40 78 136c0 105 -29 149 -78 149c-48 0 -76 -41 -76 -138c0 -102 28 -147 76 -147zM601 21c49 0 77 40 77 136c0 105 -28 149 -77 149c-48 0 -76 -41 -76 -138c0 -102 28 -147 76 -147zM977 -14c-71 0 -161 53 -161 171c0 126 95 184 164 184s161 -54 161 -174
c0 -124 -97 -181 -164 -181zM978 21c49 0 77 40 77 136c0 105 -28 149 -77 149c-48 0 -76 -41 -76 -138c0 -102 28 -147 76 -147z" />
    <glyph glyph-name="plus.old" horiz-adv-x="469" 
d="M202 96v179h-161v56h161v179h65v-179h161v-56h-161v-179h-65z" />
    <glyph glyph-name="minus.old" horiz-adv-x="469" 
d="M41 275v56h387v-56h-387z" />
    <glyph glyph-name="multiply.old" horiz-adv-x="451" 
d="M88 102l-44 42l140 144l-140 144l46 43l136 -144l140 144l41 -42l-139 -144l139 -144l-44 -43l-139 144z" />
    <glyph glyph-name="divide.old" horiz-adv-x="469" 
d="M233 400c-38 0 -67 29 -67 66s29 67 67 67s69 -30 69 -67s-31 -66 -69 -66zM41 275v56h387v-56h-387zM233 72c-38 0 -67 30 -67 67c0 36 29 66 67 66s69 -30 69 -66c0 -37 -31 -67 -69 -67z" />
    <glyph glyph-name="equal.old" horiz-adv-x="500" 
d="M41 339v57h418v-57h-418zM41 177v56h418v-56h-418z" />
    <glyph glyph-name="less.old" horiz-adv-x="469" 
d="M424 82l-379 171v66l379 170v-61l-324 -142l324 -142v-62z" />
    <glyph glyph-name="greater.old" horiz-adv-x="469" 
d="M45 489l379 -170v-66l-379 -171v61l324 142l-324 142v62z" />
    <glyph glyph-name="plusminus.old" horiz-adv-x="469" 
d="M41 0v56h387v-56h-387zM202 156v159h-161v56h161v159h65v-159h161v-56h-161v-159h-65z" />
    <glyph glyph-name="notequal.old" horiz-adv-x="500" 
d="M41 339v57h237l67 130h56l-67 -130h125v-57h-155l-54 -106h209v-56h-238l-67 -130h-55l67 130h-125v56h153l55 106h-208z" />
    <glyph glyph-name="approxequal.old" horiz-adv-x="500" 
d="M423 438l44 -20c-24 -52 -55 -97 -113 -97c-57 0 -145 44 -192 44c-30 0 -52 -30 -64 -61l-46 17c18 49 56 98 113 98c56 0 142 -44 192 -44c31 0 50 29 66 63zM423 285l44 -20c-24 -52 -55 -97 -113 -97c-57 0 -145 44 -192 44c-30 0 -52 -30 -64 -61l-46 17
c18 49 56 98 113 98c56 0 142 -44 192 -44c31 0 50 29 66 63z" />
    <glyph glyph-name="lessequal.old" horiz-adv-x="469" 
d="M45 0v56h379v-56h-379zM424 122l-379 161v66l379 160v-61l-324 -132l324 -132v-62z" />
    <glyph glyph-name="greaterequal.old" horiz-adv-x="469" 
d="M424 56v-56h-379v56h379zM424 283l-379 -161v62l324 132l-324 132v61l379 -160v-66z" />
    <glyph glyph-name="numbersign.old" horiz-adv-x="517" 
d="M82 0l38 182h-84l12 74h88l30 149h-82l12 74h87l38 179h50l-37 -179h112l38 179h50l-38 -179h85l-13 -74h-88l-31 -149h84l-12 -74h-89l-38 -182h-50l38 182h-113l-37 -182h-50zM186 256h112l32 149h-113z" />
    <glyph glyph-name="dollar.tab" 
d="M271 -140v128c-146 5 -210 62 -210 127c0 30 24 49 51 49c39 0 55 -11 61 -74c4 -38 15 -56 98 -59v279c-134 58 -187 113 -187 209c0 93 79 169 187 180v85h48v-84c127 -5 184 -61 184 -109c0 -30 -22 -52 -54 -52c-42 0 -52 20 -57 71c-4 34 -17 46 -73 48v-257
c142 -64 198 -118 198 -215c0 -113 -85 -188 -198 -198v-128h-48zM426 154c0 56 -22 93 -107 135v-257c79 8 107 57 107 122zM169 551c0 -57 24 -89 102 -128v233c-68 -9 -102 -49 -102 -105z" />
    <glyph glyph-name="Euro.tab" 
d="M35 394v46h79c34 185 159 265 274 265c103 0 173 -41 173 -106c0 -29 -17 -55 -55 -55c-35 0 -58 14 -65 71c-4 39 -19 48 -68 48c-79 0 -144 -70 -160 -223h218l-8 -46h-213v-31c0 -23 0 -44 1 -63h195l-7 -46h-183c17 -145 74 -203 173 -203c75 0 123 23 163 48v-41
c-37 -33 -103 -70 -197 -70c-125 0 -221 87 -244 266h-76v46h72c0 12 -1 25 -1 39c0 19 1 37 2 55h-73z" />
    <glyph glyph-name="sterling.tab" 
d="M89 334v45h68c-8 42 -15 85 -15 121c0 123 98 205 235 205c85 0 152 -29 152 -84c0 -38 -26 -59 -53 -59c-33 0 -49 18 -62 57c-13 42 -16 45 -54 45c-64 0 -110 -37 -110 -147c0 -35 2 -88 4 -138h172v-45h-170c1 -25 2 -47 2 -61c0 -79 -41 -130 -109 -180v-5h266
c42 0 51 6 87 78h28l-28 -166h-443v72c83 48 119 93 119 171c0 23 -6 55 -12 91h-77z" />
    <glyph glyph-name="yen.tab" 
d="M72 302v45h164l-111 220c-31 62 -47 81 -72 89l-22 7v30h261v-30l-30 -6c-33 -7 -39 -18 -39 -36c0 -13 7 -30 18 -54l92 -199h4l83 199c11 26 15 40 15 55c0 18 -10 26 -38 34l-26 7v30h199v-30l-21 -7c-29 -10 -45 -24 -80 -103l-90 -206h167v-45h-182v-95h182v-45
h-182v-62c0 -50 4 -55 31 -60l49 -9v-31h-270v31l49 9c25 5 32 10 32 60v62h-183v45h183v95h-183z" />
    <glyph glyph-name="zero.tab" 
d="M298 -12c-110 0 -255 96 -255 347c0 263 149 370 259 370s255 -98 255 -351c0 -261 -149 -366 -259 -366zM300 35c97 0 143 88 143 300c0 226 -46 324 -143 324c-96 0 -143 -89 -143 -305c0 -222 47 -319 143 -319z" />
    <glyph glyph-name="one.tab" 
d="M128 0v31l80 11c32 4 42 14 42 64v459h-121v31c93 19 157 53 204 105l27 -6v-589c0 -50 5 -59 39 -64l75 -11v-31h-346z" />
    <glyph glyph-name="two.tab" 
d="M63 0v53c82 66 167 144 215 197c80 89 129 147 129 264c0 109 -61 150 -124 150c-58 0 -72 -15 -76 -48c-5 -44 -24 -70 -62 -70c-40 0 -58 24 -58 57c0 52 71 102 206 102c128 0 226 -65 226 -198c0 -147 -167 -283 -349 -415v-4h231c55 0 64 8 99 78h28l-16 -166h-449z
" />
    <glyph glyph-name="three.tab" 
d="M244 -12c-118 0 -192 37 -192 102c0 25 18 56 56 56c31 0 51 -14 62 -46c17 -57 13 -70 82 -70c102 0 142 73 142 164c0 90 -36 143 -145 143h-55v46h45c96 0 136 47 136 144c0 92 -45 137 -122 137c-41 0 -56 -6 -61 -51c-5 -43 -25 -64 -59 -64c-39 0 -56 30 -56 55
c0 67 99 101 192 101c142 0 214 -74 214 -166c0 -77 -49 -145 -169 -173v-3c124 -13 193 -74 193 -173c0 -103 -85 -202 -263 -202z" />
    <glyph glyph-name="four.tab" 
d="M254 0v31l46 9c23 4 31 10 31 60v99h-282v45l332 449h51v-434h100l-11 -60h-89v-99c0 -50 4 -55 32 -60l48 -9v-31h-258zM116 259h215v293h-3l-212 -291v-2z" />
    <glyph glyph-name="five.tab" 
d="M258 -12c-103 0 -184 35 -184 101c0 25 18 57 57 57c35 0 56 -13 65 -60c9 -46 15 -56 66 -56c112 0 164 62 164 165c0 116 -80 158 -181 158c-49 0 -94 -9 -119 -18l-7 6l39 352h264c26 0 32 6 55 52h29l-18 -140h-288l-23 -174c23 6 48 13 97 13
c128 0 244 -66 244 -219c0 -147 -124 -237 -260 -237z" />
    <glyph glyph-name="six.tab" 
d="M314 -12c-147 0 -254 111 -254 306c0 291 172 411 326 411c87 0 154 -26 154 -83c0 -30 -20 -53 -55 -53c-38 0 -55 18 -65 57c-6 22 -13 38 -53 38c-82 0 -182 -80 -193 -300c39 31 91 58 163 58c122 0 203 -80 203 -212c0 -139 -104 -222 -226 -222zM314 35
c93 0 116 54 116 162c0 110 -36 172 -124 172c-53 0 -96 -17 -133 -43c-1 -17 -1 -6 -1 -25c0 -125 11 -266 142 -266z" />
    <glyph glyph-name="seven.tab" 
d="M168 0c64 265 181 455 291 606h-288c-37 0 -41 -10 -65 -68h-30l18 155h439v-50c-131 -191 -209 -373 -254 -643h-111z" />
    <glyph glyph-name="eight.tab" 
d="M300 -13c-113 0 -241 54 -241 178c0 78 69 143 154 189v3c-77 43 -123 92 -123 166c0 102 93 182 214 182c105 0 209 -54 209 -159c0 -71 -61 -129 -134 -173v-3c98 -55 159 -100 159 -185c0 -105 -97 -198 -238 -198zM348 393c35 34 78 79 78 150c0 79 -48 116 -126 116
c-77 0 -124 -43 -124 -104c0 -71 91 -120 172 -162zM306 34c90 0 141 49 141 119c0 81 -101 127 -204 183c-38 -31 -93 -80 -93 -162c0 -94 63 -140 156 -140z" />
    <glyph glyph-name="nine.tab" 
d="M286 705c147 0 254 -111 254 -306c0 -291 -161 -411 -322 -411c-87 0 -153 26 -153 83c0 30 19 53 54 53c38 0 55 -17 65 -56c6 -23 13 -38 53 -38c104 0 179 79 189 299c-39 -31 -91 -57 -163 -57c-121 0 -203 79 -203 211c0 139 104 222 226 222zM286 659
c-93 0 -116 -55 -116 -163c0 -110 36 -172 124 -172c53 0 96 17 133 43c1 17 1 6 1 25c0 125 -11 267 -142 267z" />
    <glyph glyph-name="cent.tab" 
d="M313 -140v128c-142 4 -225 108 -225 255c0 182 114 256 225 276v77h51v-72c5 0 10 1 15 1c100 0 151 -34 151 -85c0 -31 -18 -66 -57 -66c-36 0 -47 17 -52 54c-7 41 -20 52 -57 54v-430c67 0 126 25 159 43v-40c-27 -23 -85 -55 -159 -64v-131h-51zM193 280
c0 -130 42 -202 120 -222v420c-68 -15 -120 -71 -120 -198z" />
    <glyph glyph-name="percent.tab" horiz-adv-x="800" 
d="M201 348c-71 0 -161 53 -161 171c0 126 95 184 164 184s161 -54 161 -174c0 -124 -97 -181 -164 -181zM110 -50l505 764h59l-505 -764h-59zM596 -14c-71 0 -161 53 -161 171c0 126 95 184 164 184s161 -54 161 -174c0 -124 -97 -181 -164 -181zM202 383
c49 0 78 40 78 136c0 105 -29 149 -78 149c-48 0 -76 -41 -76 -138c0 -102 28 -147 76 -147zM597 21c49 0 77 40 77 136c0 105 -28 149 -77 149c-48 0 -76 -41 -76 -138c0 -102 28 -147 76 -147z" />
    <glyph glyph-name="perthousand.tab" horiz-adv-x="1100" 
d="M192 348c-70 0 -158 53 -158 171c0 126 93 184 161 184s158 -54 158 -174c0 -124 -95 -181 -161 -181zM81 -50l505 764h59l-505 -764h-59zM541 -14c-70 0 -158 53 -158 171c0 126 93 184 161 184s158 -54 158 -174c0 -124 -96 -181 -161 -181zM193 383c48 0 75 40 75 136
c0 105 -27 149 -75 149c-47 0 -73 -41 -73 -138c0 -102 26 -147 73 -147zM542 21c48 0 74 40 74 136c0 105 -26 149 -74 149c-47 0 -73 -41 -73 -138c0 -102 26 -147 73 -147zM905 -14c-70 0 -157 53 -157 171c0 126 93 184 160 184c68 0 158 -54 158 -174
c0 -124 -95 -181 -161 -181zM906 21c48 0 75 40 75 136c0 105 -27 149 -75 149c-46 0 -73 -41 -73 -138c0 -102 27 -147 73 -147z" />
    <glyph glyph-name="plus.tab" 
d="M268 121v189h-171v56h171v189h65v-189h171v-56h-171v-189h-65z" />
    <glyph glyph-name="minus.tab" 
d="M97 310v56h407v-56h-407z" />
    <glyph glyph-name="multiply.tab" 
d="M154 124l-43 42l149 154l-149 154l45 43l147 -154l149 154l41 -42l-149 -154l149 -154l-44 -43l-149 154z" />
    <glyph glyph-name="divide.tab" 
d="M298 439c-38 0 -67 29 -67 66s29 67 67 67s68 -30 68 -67s-30 -66 -68 -66zM83 310v56h432v-56h-432zM298 103c-38 0 -67 30 -67 67c0 36 29 66 67 66s68 -30 68 -66c0 -37 -30 -67 -68 -67z" />
    <glyph glyph-name="equal.tab" 
d="M91 369v57h418v-57h-418zM91 207v56h418v-56h-418z" />
    <glyph glyph-name="less.tab" 
d="M493 109l-387 171v66l387 170v-61l-332 -142l332 -142v-62z" />
    <glyph glyph-name="greater.tab" 
d="M106 515l387 -171v-66l-387 -170v61l332 142l-332 142v62z" />
    <glyph glyph-name="florin.tab" 
d="M128 349v45h101l21 113c24 135 107 195 202 195c78 0 112 -36 112 -71c0 -32 -21 -53 -51 -53s-44 10 -52 58c-3 22 -7 29 -28 29c-31 0 -56 -20 -72 -104l-31 -167h127v-45h-136l-60 -326c-29 -158 -101 -219 -181 -219c-66 0 -99 25 -99 65c0 23 16 42 45 42
c24 0 37 -13 46 -43c6 -23 9 -30 21 -30c25 0 38 14 49 72l79 439h-93z" />
    <glyph glyph-name="plusminus.tab" 
d="M97 0v56h407v-56h-407zM268 171v164h-171v56h171v164h65v-164h171v-56h-171v-164h-65z" />
    <glyph glyph-name="notequal.tab" 
d="M91 369v57h237l67 130h56l-67 -130h125v-57h-155l-54 -106h209v-56h-238l-67 -130h-55l67 130h-125v56h153l55 106h-208z" />
    <glyph glyph-name="approxequal.tab" 
d="M474 468l44 -20c-24 -52 -55 -97 -113 -97c-57 0 -166 44 -213 44c-30 0 -52 -30 -64 -61l-46 17c18 49 56 98 113 98c56 0 163 -44 213 -44c31 0 50 29 66 63zM474 315l44 -20c-24 -52 -55 -97 -113 -97c-57 0 -166 44 -213 44c-30 0 -52 -30 -64 -61l-46 17
c18 49 56 98 113 98c56 0 163 -44 213 -44c31 0 50 29 66 63z" />
    <glyph glyph-name="lessequal.tab" 
d="M105 0v56h389v-56h-389zM494 129l-389 161v66l389 160v-61l-334 -132l334 -132v-62z" />
    <glyph glyph-name="greaterequal.tab" 
d="M495 56v-56h-389v56h389zM495 290l-389 -161v62l334 132l-334 132v61l389 -160v-66z" />
    <glyph glyph-name="period.tab" horiz-adv-x="300" 
d="M150 -6c-40 0 -72 31 -72 70s32 71 72 71c41 0 73 -32 73 -71s-32 -70 -73 -70z" />
    <glyph glyph-name="comma.tab" horiz-adv-x="300" 
d="M48 -161l-7 19c93 43 127 103 127 156c-5 -5 -19 -11 -33 -11c-41 0 -64 29 -64 66c0 39 32 66 74 66c53 0 92 -36 92 -107c0 -72 -53 -158 -189 -189z" />
    <glyph glyph-name="colon.tab" horiz-adv-x="300" 
d="M151 324c-40 0 -72 31 -72 70s32 70 72 70s72 -31 72 -70s-32 -70 -72 -70zM151 -6c-40 0 -72 31 -72 70s32 71 72 71s72 -32 72 -71s-32 -70 -72 -70z" />
    <glyph glyph-name="semicolon.tab" horiz-adv-x="300" 
d="M150 324c-40 0 -72 31 -72 70s32 70 72 70s72 -31 72 -70s-32 -70 -72 -70zM52 -161l-7 19c93 43 127 103 127 156c-5 -5 -19 -11 -33 -11c-41 0 -64 29 -64 66c0 39 32 66 74 66c53 0 92 -36 92 -107c0 -72 -53 -158 -189 -189z" />
    <glyph glyph-name="parenleft.tab" horiz-adv-x="400" 
d="M329 -141c-112 88 -243 231 -243 446c0 196 131 352 243 440l26 -28c-94 -98 -170 -237 -170 -395c0 -209 76 -337 170 -435z" />
    <glyph glyph-name="parenright.tab" horiz-adv-x="400" 
d="M72 745c112 -88 243 -230 243 -445c0 -196 -131 -353 -243 -441l-26 28c94 98 170 237 170 395c0 209 -76 337 -170 435z" />
    <glyph glyph-name="bracketleft.tab" horiz-adv-x="400" 
d="M127 -130v864h217v-30l-91 -11c-32 -4 -37 -11 -37 -63v-656c0 -52 5 -59 37 -63l91 -11v-30h-217z" />
    <glyph glyph-name="bracketright.tab" horiz-adv-x="400" 
d="M273 734v-864h-217v30l90 11c33 4 38 11 38 63v656c0 52 -5 59 -38 63l-90 11v30h217z" />
    <glyph glyph-name="braceleft.tab" horiz-adv-x="400" 
d="M338 -130c-149 5 -212 34 -212 104c0 53 51 208 51 247c0 32 -18 60 -117 64v38c96 4 117 35 117 67c0 39 -51 187 -51 240c0 70 63 99 212 104v-30c-97 -14 -116 -24 -116 -72c0 -85 30 -160 30 -222c0 -55 -42 -86 -118 -104v-4c82 -15 118 -47 118 -102
c0 -62 -30 -142 -30 -228c0 -48 19 -58 116 -72v-30z" />
    <glyph glyph-name="braceright.tab" horiz-adv-x="400" 
d="M62 734c149 -5 212 -34 212 -104c0 -53 -51 -201 -51 -240c0 -32 22 -63 117 -67v-38c-99 -4 -117 -32 -117 -64c0 -39 51 -194 51 -247c0 -70 -63 -99 -212 -104v30c97 14 116 24 116 72c0 86 -30 167 -30 229c0 55 33 87 118 101v4c-72 19 -118 50 -118 105
c0 62 30 136 30 221c0 48 -19 58 -116 72v30z" />
    <glyph glyph-name="parenleft.uctab" horiz-adv-x="400" 
d="M329 -94c-112 88 -243 231 -243 446c0 196 131 352 243 440l26 -28c-94 -98 -170 -237 -170 -395c0 -209 76 -337 170 -435z" />
    <glyph glyph-name="parenright.uctab" horiz-adv-x="400" 
d="M72 792c112 -88 243 -230 243 -445c0 -196 -131 -353 -243 -441l-26 28c94 98 170 237 170 395c0 209 -76 337 -170 435z" />
    <glyph glyph-name="bracketleft.uctab" horiz-adv-x="400" 
d="M127 -86v864h217v-30l-91 -11c-32 -4 -37 -11 -37 -63v-656c0 -52 5 -59 37 -63l91 -11v-30h-217z" />
    <glyph glyph-name="bracketright.uctab" horiz-adv-x="400" 
d="M273 778v-864h-217v30l90 11c33 4 38 11 38 63v656c0 52 -5 59 -38 63l-90 11v30h217z" />
    <glyph glyph-name="braceleft.uctab" horiz-adv-x="400" 
d="M338 -85c-149 5 -212 34 -212 104c0 53 51 208 51 247c0 32 -18 60 -117 64v38c96 4 117 35 117 67c0 39 -51 187 -51 240c0 70 63 99 212 104v-30c-97 -14 -116 -24 -116 -72c0 -85 30 -160 30 -222c0 -55 -42 -86 -118 -104v-4c82 -15 118 -47 118 -102
c0 -62 -30 -142 -30 -228c0 -48 19 -58 116 -72v-30z" />
    <glyph glyph-name="braceright.uctab" horiz-adv-x="400" 
d="M62 779c149 -5 212 -34 212 -104c0 -53 -51 -201 -51 -240c0 -32 22 -63 117 -67v-38c-99 -4 -117 -32 -117 -64c0 -39 51 -194 51 -247c0 -70 -63 -99 -212 -104v30c97 14 116 24 116 72c0 86 -30 167 -30 229c0 55 33 87 118 101v4c-72 19 -118 50 -118 105
c0 62 30 136 30 221c0 48 -19 58 -116 72v30z" />
    <glyph glyph-name="space.tab" horiz-adv-x="300" 
 />
    <glyph glyph-name="dollar.oldtab" 
d="M273 -133v122c-139 5 -200 59 -200 120c0 29 23 47 49 47c37 0 52 -11 58 -71c3 -35 14 -52 93 -55v265c-128 55 -178 106 -178 198c0 89 75 161 178 171v81h45v-80c121 -5 175 -58 175 -104c0 -28 -21 -49 -51 -49c-40 0 -50 19 -54 67c-4 33 -17 43 -70 45v-243
c134 -61 188 -112 188 -204c0 -108 -81 -179 -188 -188v-122h-45zM420 146c0 53 -22 88 -102 128v-243c76 8 102 54 102 115zM176 523c0 -54 23 -84 97 -121v220c-65 -8 -97 -46 -97 -99z" />
    <glyph glyph-name="Euro.oldtab" 
d="M40 374v44h76c31 176 147 252 269 252c99 0 170 -39 170 -101c0 -28 -16 -52 -52 -52c-33 0 -54 13 -62 67c-5 40 -21 46 -74 46c-83 0 -140 -67 -154 -212h219l-8 -44h-214v-29c0 -22 0 -41 1 -60h197l-7 -44h-185c17 -138 75 -193 178 -193c70 0 115 22 153 46v-39
c-35 -31 -94 -66 -184 -66c-132 0 -227 83 -249 252h-74v44h70c-1 12 -1 24 -1 37c0 18 0 35 2 52h-71z" />
    <glyph glyph-name="sterling.oldtab" 
d="M100 317v43h65c-8 40 -14 81 -14 115c0 117 93 195 223 195c81 0 144 -28 144 -80c0 -36 -24 -56 -50 -56c-31 0 -47 17 -59 54c-12 40 -15 43 -51 43c-61 0 -105 -35 -105 -140c0 -33 2 -84 4 -131h163v-43h-161c1 -24 2 -44 2 -58c0 -75 -39 -123 -104 -171v-4h253
c40 0 48 5 83 74h26l-26 -158h-421v68c79 46 113 89 113 163c0 22 -5 52 -12 86h-73z" />
    <glyph glyph-name="yen.oldtab" 
d="M79 287v43h155l-109 209c-31 60 -43 79 -67 84l-24 5v30h248v-30l-27 -4c-31 -5 -37 -17 -37 -34c0 -12 6 -28 17 -51l92 -192h4l84 192c10 24 14 38 14 52c0 17 -12 26 -38 32l-23 5v30h188v-30l-21 -5c-27 -6 -39 -25 -73 -98l-91 -195h158v-43h-173v-90h173v-43h-173
v-59c0 -48 4 -52 30 -57l46 -8v-30h-256v30l46 8c24 4 31 9 31 57v59h-174v43h174v90h-174z" />
    <glyph glyph-name="zero.oldtab" 
d="M298 -13c-125 0 -246 91 -246 297c0 211 130 309 249 309c125 0 247 -89 247 -297c0 -210 -131 -309 -250 -309zM302 30c92 0 137 78 137 250c0 189 -45 271 -141 271c-93 0 -137 -77 -137 -251c0 -186 44 -270 141 -270z" />
    <glyph glyph-name="one.oldtab" 
d="M143 0v30l81 10c26 3 34 10 34 53v375h-117v31c101 17 144 48 191 100l26 -3v-503c0 -43 5 -50 31 -53l76 -10v-30h-322z" />
    <glyph glyph-name="two.oldtab" 
d="M77 0v45c67 51 161 118 232 189c60 60 90 111 90 187c0 103 -56 132 -115 132c-55 0 -68 -13 -72 -44c-5 -41 -22 -66 -58 -66c-38 0 -55 23 -55 54c0 49 67 96 194 96c120 0 212 -58 212 -178c0 -140 -188 -239 -320 -334v-3h326l-12 -78h-422z" />
    <glyph glyph-name="three.oldtab" 
d="M248 -122c-111 0 -184 40 -184 101c0 24 16 52 52 52c28 0 49 -13 58 -43c17 -54 14 -70 82 -70c96 0 142 69 142 174c0 95 -38 140 -140 140h-58v45h48c91 0 130 52 130 143s-44 133 -116 133c-39 0 -57 -9 -62 -51c-4 -40 -23 -60 -55 -60c-37 0 -53 28 -53 52
c0 63 97 99 185 99c133 0 204 -75 204 -162c0 -72 -49 -144 -162 -170v-3c116 -12 187 -66 187 -170c0 -106 -91 -210 -258 -210z" />
    <glyph glyph-name="four.oldtab" 
d="M446 -112h-99v165h-303v43l350 501h52v-487h104l-10 -57h-94v-165zM111 110h236v338h-3l-233 -336v-2z" />
    <glyph glyph-name="five.oldtab" 
d="M262 -122c-102 0 -185 34 -185 97c0 23 17 54 54 54c34 0 53 -13 62 -57s22 -54 73 -54c110 0 161 62 161 166c0 115 -78 153 -178 153c-48 0 -99 -8 -122 -17l-7 6l42 352h352l-11 -83h-303l-23 -183c22 6 53 13 101 13c126 0 239 -62 239 -212
c0 -145 -121 -235 -255 -235z" />
    <glyph glyph-name="six.oldtab" 
d="M316 -13c-146 0 -253 112 -253 307c0 291 171 411 325 411c86 0 149 -28 149 -83c0 -29 -18 -51 -52 -51c-37 0 -53 17 -63 55c-6 21 -13 42 -53 42c-82 0 -184 -84 -195 -304c39 31 93 58 165 58c122 0 204 -80 204 -212c0 -139 -106 -223 -227 -223zM317 30
c96 0 120 59 120 167c0 115 -42 175 -129 175c-53 0 -98 -17 -135 -43c-1 -17 -1 -9 -1 -28c0 -125 11 -271 145 -271z" />
    <glyph glyph-name="seven.oldtab" 
d="M166 -112c58 267 179 444 303 607h-306c-35 0 -38 -12 -64 -77h-28l19 160h449v-47c-137 -198 -225 -371 -263 -643h-110z" />
    <glyph glyph-name="eight.oldtab" 
d="M302 -13c-110 0 -236 54 -236 178c0 78 69 144 151 190v3c-74 43 -119 91 -119 165c0 102 90 182 208 182c102 0 202 -54 202 -159c0 -71 -59 -130 -130 -174v-3c95 -55 157 -99 157 -184c0 -105 -96 -198 -233 -198zM348 392c34 34 76 80 76 151c0 79 -47 119 -122 119
s-121 -46 -121 -107c0 -71 89 -121 167 -163zM308 30c87 0 138 53 138 123c0 81 -100 128 -200 184c-36 -31 -92 -81 -92 -163c0 -94 63 -144 154 -144z" />
    <glyph glyph-name="nine.oldtab" 
d="M285 593c146 0 251 -112 251 -307c0 -291 -147 -408 -320 -408c-86 0 -149 28 -149 83c0 29 18 51 52 51c37 0 53 -17 63 -55c6 -21 13 -42 53 -42c108 0 179 81 190 301c-39 -31 -92 -58 -164 -58c-122 0 -202 80 -202 212c0 139 105 223 226 223zM284 550
c-96 0 -119 -59 -119 -167c0 -115 41 -175 128 -175c53 0 96 17 133 43c1 17 1 9 1 28c0 125 -9 271 -143 271z" />
    <glyph glyph-name="percent.oldtab" horiz-adv-x="800" 
d="M196 313c-71 0 -161 53 -161 171c0 126 95 184 164 184s161 -54 161 -174c0 -124 -97 -181 -164 -181zM110 -50l505 729h59l-505 -729h-59zM601 -14c-71 0 -161 53 -161 171c0 126 95 184 164 184s161 -54 161 -174c0 -124 -97 -181 -164 -181zM197 348
c49 0 78 40 78 136c0 105 -29 149 -78 149c-48 0 -76 -41 -76 -138c0 -102 28 -147 76 -147zM602 21c49 0 77 40 77 136c0 105 -28 149 -77 149c-48 0 -76 -41 -76 -138c0 -102 28 -147 76 -147z" />
    <glyph glyph-name="perthousand.oldtab" horiz-adv-x="1100" 
d="M190 313c-70 0 -156 53 -156 171c0 126 91 184 159 184s156 -54 156 -174c0 -124 -93 -181 -159 -181zM81 -50l505 729h59l-505 -729h-59zM547 -14c-70 0 -156 53 -156 171c0 126 91 184 159 184s156 -54 156 -174c0 -124 -94 -181 -159 -181zM191 348c48 0 73 40 73 136
c0 105 -25 149 -73 149c-47 0 -71 -41 -71 -138c0 -102 24 -147 71 -147zM548 21c48 0 72 40 72 136c0 105 -24 149 -72 149c-47 0 -71 -41 -71 -138c0 -102 24 -147 71 -147zM907 -14c-70 0 -155 53 -155 171c0 126 91 184 158 184c68 0 156 -54 156 -174
c0 -124 -93 -181 -159 -181zM908 21c48 0 73 40 73 136c0 105 -25 149 -73 149c-46 0 -71 -41 -71 -138c0 -102 25 -147 71 -147z" />
    <glyph glyph-name="plus.oldtab" 
d="M268 96v179h-161v56h161v179h65v-179h161v-56h-161v-179h-65z" />
    <glyph glyph-name="minus.oldtab" 
d="M107 275v56h387v-56h-387z" />
    <glyph glyph-name="multiply.oldtab" 
d="M163 102l-44 42l140 144l-140 144l46 43l136 -144l140 144l41 -42l-139 -144l139 -144l-44 -43l-139 144z" />
    <glyph glyph-name="divide.oldtab" 
d="M299 400c-38 0 -67 29 -67 66s29 67 67 67s69 -30 69 -67s-31 -66 -69 -66zM107 275v56h387v-56h-387zM299 72c-38 0 -67 30 -67 67c0 36 29 66 67 66s69 -30 69 -66c0 -37 -31 -67 -69 -67z" />
    <glyph glyph-name="equal.oldtab" 
d="M91 339v57h418v-57h-418zM91 177v56h418v-56h-418z" />
    <glyph glyph-name="less.oldtab" 
d="M490 82l-379 171v66l379 170v-61l-324 -142l324 -142v-62z" />
    <glyph glyph-name="greater.oldtab" 
d="M111 489l379 -170v-66l-379 -171v61l324 142l-324 142v62z" />
    <glyph glyph-name="plusminus.oldtab" 
d="M107 0v56h387v-56h-387zM268 156v159h-161v56h161v159h65v-159h161v-56h-161v-159h-65z" />
    <glyph glyph-name="notequal.oldtab" 
d="M91 339v57h237l67 130h56l-67 -130h125v-57h-155l-54 -106h209v-56h-238l-67 -130h-55l67 130h-125v56h153l55 106h-208z" />
    <glyph glyph-name="approxequal.oldtab" 
d="M473 438l44 -20c-24 -52 -55 -97 -113 -97c-57 0 -145 44 -192 44c-30 0 -52 -30 -64 -61l-46 17c18 49 56 98 113 98c56 0 142 -44 192 -44c31 0 50 29 66 63zM473 285l44 -20c-24 -52 -55 -97 -113 -97c-57 0 -145 44 -192 44c-30 0 -52 -30 -64 -61l-46 17
c18 49 56 98 113 98c56 0 142 -44 192 -44c31 0 50 29 66 63z" />
    <glyph glyph-name="lessequal.oldtab" 
d="M111 0v56h379v-56h-379zM490 122l-379 161v66l379 160v-61l-324 -132l324 -132v-62z" />
    <glyph glyph-name="greaterequal.oldtab" 
d="M490 56v-56h-379v56h379zM490 283l-379 -161v62l324 132l-324 132v61l379 -160v-66z" />
    <glyph glyph-name="zero.num" horiz-adv-x="440" 
d="M219 264c-92 0 -189 63 -189 213c0 161 113 224 192 224c87 0 188 -66 188 -215c0 -158 -107 -222 -191 -222zM221 302c59 0 94 41 94 174c0 148 -36 187 -94 187c-55 0 -96 -35 -96 -177s38 -184 96 -184z" />
    <glyph glyph-name="one.num" horiz-adv-x="266" 
d="M28 271v26l31 5c26 4 29 7 29 42v257h-61v30c65 12 104 36 136 72l17 -6v-353c0 -35 4 -38 29 -42l29 -5v-26h-210z" />
    <glyph glyph-name="two.num" horiz-adv-x="361" 
d="M26 271v45c54 42 98 80 133 117c45 47 77 86 77 155c0 68 -27 79 -73 79c-29 0 -33 -9 -37 -31c-5 -38 -16 -54 -48 -54c-27 0 -44 24 -44 44c0 37 53 75 138 75c93 0 154 -40 154 -122c0 -83 -101 -162 -221 -238v-3h142c32 0 38 8 57 52h23l-9 -119h-292z" />
    <glyph glyph-name="three.num" horiz-adv-x="360" 
d="M154 264c-78 0 -133 32 -133 75c0 20 15 42 40 42c27 0 43 -13 50 -46c7 -29 11 -37 47 -37c53 0 77 30 77 91c0 66 -24 82 -83 82h-33v37h30c54 0 77 19 77 84c0 60 -26 75 -65 75c-28 0 -35 -7 -38 -27c-5 -32 -14 -49 -46 -49c-25 0 -40 17 -40 39c0 44 62 71 137 71
c89 0 135 -40 135 -101c0 -46 -32 -91 -106 -106v-2c71 -7 123 -39 123 -105c0 -67 -49 -123 -172 -123z" />
    <glyph glyph-name="four.num" horiz-adv-x="389" 
d="M168 271v26l25 5c24 5 29 7 29 42v28h-201v37l242 284h37v-275h64l-7 -46h-57v-28c0 -35 4 -37 28 -42l23 -5v-26h-183zM77 418h145v176h-3l-142 -173v-3z" />
    <glyph glyph-name="five.num" horiz-adv-x="354" 
d="M149 264c-77 0 -123 31 -123 74c0 23 19 39 43 39c30 0 44 -12 49 -50c4 -24 9 -29 40 -29c59 0 88 31 88 83c0 68 -47 93 -113 93c-31 0 -53 -6 -68 -11l-8 7l24 223h167c20 0 23 3 38 34h26l-13 -101h-186l-12 -95c15 6 33 11 66 11c86 0 153 -40 153 -132
c0 -84 -69 -146 -171 -146z" />
    <glyph glyph-name="six.num" horiz-adv-x="398" 
d="M203 264c-91 0 -170 63 -170 194c0 175 117 243 217 243c66 0 106 -22 106 -60c0 -23 -16 -42 -44 -42s-38 13 -46 45c-5 20 -9 24 -25 24c-51 0 -111 -43 -116 -169c21 15 62 27 106 27c78 0 135 -43 135 -125c0 -83 -68 -137 -163 -137zM205 299c50 0 75 32 75 93
c0 73 -32 96 -83 96c-25 0 -56 -7 -73 -19v-12c0 -99 18 -158 81 -158z" />
    <glyph glyph-name="seven.num" horiz-adv-x="351" 
d="M89 271c34 152 109 263 178 354h-171c-24 0 -27 -5 -44 -49h-27l15 117h284v-39c-80 -115 -120 -231 -140 -383h-95z" />
    <glyph glyph-name="eight.num" horiz-adv-x="387" 
d="M196 263c-89 0 -166 40 -166 110c0 46 41 83 95 108v3c-47 21 -73 55 -73 101c0 70 66 116 147 116c76 0 144 -35 144 -101c0 -40 -37 -76 -81 -97v-4c65 -29 95 -59 95 -111c0 -68 -64 -125 -161 -125zM235 515c17 17 37 42 37 83c0 51 -32 70 -77 70s-75 -23 -75 -61
c0 -37 32 -59 115 -92zM202 296c53 0 85 27 85 69s-42 64 -137 103c-24 -21 -44 -49 -44 -86c0 -61 35 -86 96 -86z" />
    <glyph glyph-name="nine.num" horiz-adv-x="398" 
d="M195 701c91 0 170 -63 170 -194c0 -175 -109 -243 -217 -243c-65 0 -106 22 -106 60c0 23 16 42 44 42s39 -13 47 -45c5 -20 8 -24 24 -24c62 0 112 44 116 170c-21 -15 -62 -28 -106 -28c-78 0 -135 43 -135 125c0 83 68 137 163 137zM193 666c-50 0 -75 -32 -75 -93
c0 -73 32 -95 83 -95c25 0 56 7 73 19v11c0 100 -18 158 -81 158z" />
    <glyph glyph-name="zero.den" horiz-adv-x="440" 
d="M219 -111c-92 0 -189 63 -189 213c0 161 113 224 192 224c87 0 188 -66 188 -215c0 -158 -107 -222 -191 -222zM221 -73c59 0 94 40 94 174c0 148 -36 187 -94 187c-55 0 -96 -35 -96 -177c0 -143 38 -184 96 -184z" />
    <glyph glyph-name="one.den" horiz-adv-x="266" 
d="M28 -104v26l31 5c26 4 29 7 29 42v257h-61v30c65 12 104 36 136 72l17 -6v-353c0 -35 4 -38 29 -42l29 -5v-26h-210z" />
    <glyph glyph-name="two.den" horiz-adv-x="361" 
d="M26 -104v44c54 42 98 81 133 118c45 47 77 86 77 155c0 68 -27 79 -73 79c-29 0 -33 -9 -37 -31c-5 -38 -16 -54 -48 -54c-27 0 -44 24 -44 44c0 37 53 75 138 75c93 0 154 -40 154 -122c0 -83 -101 -162 -221 -238v-3h142c32 0 38 8 57 52h23l-9 -119h-292z" />
    <glyph glyph-name="three.den" horiz-adv-x="360" 
d="M154 -111c-78 0 -133 32 -133 75c0 20 15 42 40 42c27 0 43 -13 50 -46c7 -30 11 -37 47 -37c53 0 77 30 77 91c0 66 -24 82 -83 82h-33v37h30c54 0 77 19 77 84c0 60 -26 75 -65 75c-28 0 -35 -7 -38 -27c-5 -32 -14 -49 -46 -49c-25 0 -40 17 -40 39c0 44 62 71 137 71
c89 0 135 -40 135 -101c0 -46 -32 -91 -106 -106v-2c71 -7 123 -39 123 -105c0 -67 -49 -123 -172 -123z" />
    <glyph glyph-name="four.den" horiz-adv-x="389" 
d="M168 -104v26l25 5c24 5 29 7 29 42v28h-201v37l242 284h37v-275h64l-7 -46h-57v-28c0 -35 4 -37 28 -42l23 -5v-26h-183zM77 43h145v176h-3l-142 -173v-3z" />
    <glyph glyph-name="five.den" horiz-adv-x="354" 
d="M149 -111c-77 0 -123 31 -123 74c0 23 19 39 43 39c30 0 44 -13 49 -51c4 -24 9 -28 40 -28c59 0 88 31 88 83c0 68 -47 93 -113 93c-31 0 -53 -6 -68 -11l-8 7l24 223h167c20 0 23 3 38 34h26l-13 -101h-186l-12 -95c15 6 33 11 66 11c86 0 153 -40 153 -132
c0 -84 -69 -146 -171 -146z" />
    <glyph glyph-name="six.den" horiz-adv-x="398" 
d="M203 -111c-91 0 -170 63 -170 194c0 175 117 243 217 243c66 0 106 -22 106 -60c0 -23 -16 -42 -44 -42s-38 13 -46 45c-5 20 -9 24 -25 24c-51 0 -111 -43 -116 -169c21 15 62 27 106 27c78 0 135 -43 135 -125c0 -83 -68 -137 -163 -137zM205 -76c50 0 75 32 75 93
c0 73 -32 96 -83 96c-25 0 -56 -7 -73 -19v-12c0 -100 18 -158 81 -158z" />
    <glyph glyph-name="seven.den" horiz-adv-x="351" 
d="M89 -104c34 152 109 263 178 354h-171c-24 0 -27 -5 -44 -49h-27l15 117h284v-39c-80 -115 -120 -231 -140 -383h-95z" />
    <glyph glyph-name="eight.den" horiz-adv-x="387" 
d="M196 -112c-89 0 -166 40 -166 110c0 46 41 83 95 108v3c-47 21 -73 55 -73 101c0 70 66 116 147 116c76 0 144 -35 144 -101c0 -40 -37 -76 -81 -97v-4c65 -29 95 -59 95 -111c0 -68 -64 -125 -161 -125zM235 140c17 17 37 42 37 83c0 51 -32 70 -77 70s-75 -23 -75 -61
c0 -37 32 -59 115 -92zM202 -79c53 0 85 27 85 68c0 43 -42 65 -137 104c-24 -21 -44 -49 -44 -86c0 -61 35 -86 96 -86z" />
    <glyph glyph-name="nine.den" horiz-adv-x="398" 
d="M195 326c91 0 170 -63 170 -194c0 -175 -109 -243 -217 -243c-65 0 -106 22 -106 60c0 23 16 42 44 42s39 -13 47 -45c5 -20 8 -24 24 -24c62 0 112 44 116 170c-21 -15 -62 -28 -106 -28c-78 0 -135 43 -135 125c0 83 68 137 163 137zM193 291c-50 0 -75 -32 -75 -93
c0 -73 32 -95 83 -95c25 0 56 7 73 19v11c0 100 -18 158 -81 158z" />
    <glyph glyph-name="zero.sub" horiz-adv-x="440" 
d="M219 -131c-92 0 -189 63 -189 213c0 161 113 224 192 224c87 0 188 -66 188 -215c0 -158 -107 -222 -191 -222zM221 -93c59 0 94 40 94 174c0 148 -36 187 -94 187c-55 0 -96 -35 -96 -177c0 -143 38 -184 96 -184z" />
    <glyph glyph-name="one.sub" horiz-adv-x="266" 
d="M28 -124v26l31 5c26 4 29 7 29 42v257h-61v30c65 12 104 36 136 72l17 -6v-353c0 -35 4 -38 29 -42l29 -5v-26h-210z" />
    <glyph glyph-name="two.sub" horiz-adv-x="361" 
d="M26 -124v44c54 42 98 81 133 118c45 47 77 86 77 155c0 68 -27 79 -73 79c-29 0 -33 -9 -37 -31c-5 -38 -16 -54 -48 -54c-27 0 -44 24 -44 44c0 37 53 75 138 75c93 0 154 -40 154 -122c0 -83 -101 -162 -221 -238v-3h142c32 0 38 8 57 52h23l-9 -119h-292z" />
    <glyph glyph-name="three.sub" horiz-adv-x="360" 
d="M154 -131c-78 0 -133 32 -133 75c0 20 15 42 40 42c27 0 43 -13 50 -46c7 -30 11 -37 47 -37c53 0 77 30 77 91c0 66 -24 82 -83 82h-33v37h30c54 0 77 19 77 84c0 60 -26 75 -65 75c-28 0 -35 -7 -38 -27c-5 -32 -14 -49 -46 -49c-25 0 -40 17 -40 39c0 44 62 71 137 71
c89 0 135 -40 135 -101c0 -46 -32 -91 -106 -106v-2c71 -7 123 -39 123 -105c0 -67 -49 -123 -172 -123z" />
    <glyph glyph-name="four.sub" horiz-adv-x="389" 
d="M168 -124v26l25 5c24 5 29 7 29 42v28h-201v37l242 284h37v-275h64l-7 -46h-57v-28c0 -35 4 -37 28 -42l23 -5v-26h-183zM77 23h145v176h-3l-142 -173v-3z" />
    <glyph glyph-name="five.sub" horiz-adv-x="354" 
d="M149 -131c-77 0 -123 31 -123 74c0 23 19 39 43 39c30 0 44 -13 49 -51c4 -24 9 -28 40 -28c59 0 88 31 88 83c0 68 -47 93 -113 93c-31 0 -53 -6 -68 -11l-8 7l24 223h167c20 0 23 3 38 34h26l-13 -101h-186l-12 -95c15 6 33 11 66 11c86 0 153 -40 153 -132
c0 -84 -69 -146 -171 -146z" />
    <glyph glyph-name="six.sub" horiz-adv-x="398" 
d="M203 -131c-91 0 -170 63 -170 194c0 175 117 243 217 243c66 0 106 -22 106 -60c0 -23 -16 -42 -44 -42s-38 13 -46 45c-5 20 -9 24 -25 24c-51 0 -111 -43 -116 -169c21 15 62 27 106 27c78 0 135 -43 135 -125c0 -83 -68 -137 -163 -137zM205 -96c50 0 75 32 75 93
c0 73 -32 96 -83 96c-25 0 -56 -7 -73 -19v-12c0 -100 18 -158 81 -158z" />
    <glyph glyph-name="seven.sub" horiz-adv-x="351" 
d="M89 -124c34 152 109 263 178 354h-171c-24 0 -27 -5 -44 -49h-27l15 117h284v-39c-80 -115 -120 -231 -140 -383h-95z" />
    <glyph glyph-name="eight.sub" horiz-adv-x="387" 
d="M196 -132c-89 0 -166 40 -166 110c0 46 41 83 95 108v3c-47 21 -73 55 -73 101c0 70 66 116 147 116c76 0 144 -35 144 -101c0 -40 -37 -76 -81 -97v-4c65 -29 95 -59 95 -111c0 -68 -64 -125 -161 -125zM235 120c17 17 37 42 37 83c0 51 -32 70 -77 70s-75 -23 -75 -61
c0 -37 32 -59 115 -92zM202 -99c53 0 85 27 85 68c0 43 -42 65 -137 104c-24 -21 -44 -49 -44 -86c0 -61 35 -86 96 -86z" />
    <glyph glyph-name="nine.sub" horiz-adv-x="398" 
d="M195 306c91 0 170 -63 170 -194c0 -175 -109 -243 -217 -243c-65 0 -106 22 -106 60c0 23 16 42 44 42s39 -13 47 -45c5 -20 8 -24 24 -24c62 0 112 44 116 170c-21 -15 -62 -28 -106 -28c-78 0 -135 43 -135 125c0 83 68 137 163 137zM193 271c-50 0 -75 -32 -75 -93
c0 -73 32 -95 83 -95c25 0 56 7 73 19v11c0 100 -18 158 -81 158z" />
    <glyph glyph-name="plus.sub" horiz-adv-x="401" 
d="M174 -69v147h-133v47h133v147h53v-147h133v-47h-133v-147h-53z" />
    <glyph glyph-name="minus.sub" horiz-adv-x="401" 
d="M360 78h-319v47h319v-47z" />
    <glyph glyph-name="zero.sup" horiz-adv-x="440" 
d="M219 344c-92 0 -189 63 -189 213c0 161 113 224 192 224c87 0 188 -66 188 -215c0 -158 -107 -222 -191 -222zM221 382c59 0 94 41 94 174c0 148 -36 187 -94 187c-55 0 -96 -35 -96 -177s38 -184 96 -184z" />
    <glyph glyph-name="one.sup" horiz-adv-x="266" 
d="M28 351v26l31 5c26 4 29 7 29 42v257h-61v30c65 12 104 36 136 72l17 -6v-353c0 -35 4 -38 29 -42l29 -5v-26h-210z" />
    <glyph glyph-name="two.sup" horiz-adv-x="361" 
d="M26 351v45c54 42 98 80 133 117c45 47 77 86 77 155c0 68 -27 79 -73 79c-29 0 -33 -9 -37 -31c-5 -38 -16 -54 -48 -54c-27 0 -44 24 -44 44c0 37 53 75 138 75c93 0 154 -40 154 -122c0 -83 -101 -162 -221 -238v-3h142c32 0 38 8 57 52h23l-9 -119h-292z" />
    <glyph glyph-name="three.sup" horiz-adv-x="360" 
d="M154 344c-78 0 -133 32 -133 75c0 20 15 42 40 42c27 0 43 -13 50 -46c7 -29 11 -37 47 -37c53 0 77 30 77 91c0 66 -24 82 -83 82h-33v37h30c54 0 77 19 77 84c0 60 -26 75 -65 75c-28 0 -35 -7 -38 -27c-5 -32 -14 -49 -46 -49c-25 0 -40 17 -40 39c0 44 62 71 137 71
c89 0 135 -40 135 -101c0 -46 -32 -91 -106 -106v-2c71 -7 123 -39 123 -105c0 -67 -49 -123 -172 -123z" />
    <glyph glyph-name="four.sup" horiz-adv-x="389" 
d="M168 351v26l25 5c24 5 29 7 29 42v28h-201v37l242 284h37v-275h64l-7 -46h-57v-28c0 -35 4 -37 28 -42l23 -5v-26h-183zM77 498h145v176h-3l-142 -173v-3z" />
    <glyph glyph-name="five.sup" horiz-adv-x="354" 
d="M149 344c-77 0 -123 31 -123 74c0 23 19 39 43 39c30 0 44 -12 49 -50c4 -24 9 -29 40 -29c59 0 88 31 88 83c0 68 -47 93 -113 93c-31 0 -53 -6 -68 -11l-8 7l24 223h167c20 0 23 3 38 34h26l-13 -101h-186l-12 -95c15 6 33 11 66 11c86 0 153 -40 153 -132
c0 -84 -69 -146 -171 -146z" />
    <glyph glyph-name="six.sup" horiz-adv-x="398" 
d="M203 344c-91 0 -170 63 -170 194c0 175 117 243 217 243c66 0 106 -22 106 -60c0 -23 -16 -42 -44 -42s-38 13 -46 45c-5 20 -9 24 -25 24c-51 0 -111 -43 -116 -169c21 15 62 27 106 27c78 0 135 -43 135 -125c0 -83 -68 -137 -163 -137zM205 379c50 0 75 32 75 93
c0 73 -32 96 -83 96c-25 0 -56 -7 -73 -19v-12c0 -99 18 -158 81 -158z" />
    <glyph glyph-name="seven.sup" horiz-adv-x="351" 
d="M89 351c34 152 109 263 178 354h-171c-24 0 -27 -5 -44 -49h-27l15 117h284v-39c-80 -115 -120 -231 -140 -383h-95z" />
    <glyph glyph-name="eight.sup" horiz-adv-x="387" 
d="M196 343c-89 0 -166 40 -166 110c0 46 41 83 95 108v3c-47 21 -73 55 -73 101c0 70 66 116 147 116c76 0 144 -35 144 -101c0 -40 -37 -76 -81 -97v-4c65 -29 95 -59 95 -111c0 -68 -64 -125 -161 -125zM235 595c17 17 37 42 37 83c0 51 -32 70 -77 70s-75 -23 -75 -61
c0 -37 32 -59 115 -92zM202 376c53 0 85 27 85 69s-42 64 -137 103c-24 -21 -44 -49 -44 -86c0 -61 35 -86 96 -86z" />
    <glyph glyph-name="nine.sup" horiz-adv-x="398" 
d="M195 781c91 0 170 -63 170 -194c0 -175 -109 -243 -217 -243c-65 0 -106 22 -106 60c0 23 16 42 44 42s39 -13 47 -45c5 -20 8 -24 24 -24c62 0 112 44 116 170c-21 -15 -62 -28 -106 -28c-78 0 -135 43 -135 125c0 83 68 137 163 137zM193 746c-50 0 -75 -32 -75 -93
c0 -73 32 -95 83 -95c25 0 56 7 73 19v11c0 100 -18 158 -81 158z" />
    <glyph glyph-name="plus.sup" horiz-adv-x="401" 
d="M174 406v147h-133v47h133v147h53v-147h133v-47h-133v-147h-53z" />
    <glyph glyph-name="minus.sup" horiz-adv-x="401" 
d="M360 553h-319v47h319v-47z" />
    <glyph glyph-name="a.ord" horiz-adv-x="452" 
d="M157 244c-79 0 -130 41 -130 114c0 71 48 107 156 131l94 21v78c0 59 -10 82 -79 82c-36 0 -42 -8 -44 -34c-6 -36 -16 -60 -56 -60c-35 0 -47 19 -47 45c0 56 87 84 166 84c104 0 153 -37 153 -112v-248c0 -23 6 -37 23 -47c10 -5 21 -5 42 -6v-26
c-14 -10 -46 -21 -80 -21c-45 0 -69 21 -75 50h-4c-21 -28 -68 -51 -119 -51zM198 296c39 0 67 17 79 37v132l-62 -6c-61 -5 -94 -28 -94 -92c0 -50 30 -71 77 -71z" />
    <glyph glyph-name="b.ord" horiz-adv-x="514" 
d="M231 245c-69 0 -118 8 -167 34v496c0 36 -6 38 -25 47l-37 17v26l153 14l9 -8s-7 -34 -7 -99v-46c0 -39 -3 -73 -3 -73h3c37 27 92 51 149 51c84 0 173 -48 173 -209c0 -165 -105 -250 -248 -250zM241 285c94 0 139 48 139 190c0 117 -47 171 -118 171
c-58 0 -84 -16 -105 -27v-305c23 -20 48 -29 84 -29z" />
    <glyph glyph-name="c.ord" horiz-adv-x="430" 
d="M237 245c-133 0 -205 92 -205 223c0 183 140 237 248 237c83 0 123 -28 123 -73c0 -28 -21 -59 -52 -59c-35 0 -46 20 -50 49c-6 39 -15 44 -43 44c-68 0 -127 -42 -127 -166c0 -126 50 -196 146 -196c57 0 101 20 130 35v-35c-26 -24 -87 -59 -170 -59z" />
    <glyph glyph-name="d.ord" horiz-adv-x="526" 
d="M207 245c-83 0 -172 53 -172 215c0 168 118 244 244 244c35 0 63 -5 80 -10c0 0 -3 34 -3 65v16c0 35 -6 38 -26 47l-36 17v26l151 14l11 -8s-6 -34 -6 -99v-416c0 -40 5 -45 26 -54l31 -14v-24l-144 -19l-6 5l4 46h-4c-37 -28 -92 -51 -150 -51zM259 306
c50 0 78 18 96 27v295c-18 18 -43 36 -81 36c-86 0 -140 -47 -140 -186c0 -123 44 -172 125 -172z" />
    <glyph glyph-name="e.ord" horiz-adv-x="457" 
d="M246 245c-144 0 -214 93 -214 232s101 228 214 228c111 0 179 -60 179 -219h-294c3 -129 61 -182 148 -182c64 0 104 19 136 35v-36c-24 -21 -86 -58 -169 -58zM243 668c-60 0 -105 -44 -111 -145l190 10c0 99 -15 135 -79 135z" />
    <glyph glyph-name="f.ord" horiz-adv-x="289" 
d="M24 255v27l34 8c19 5 25 13 25 46v308h-61v27l61 21v15c0 107 80 175 196 175c57 0 84 -23 84 -57c0 -22 -15 -44 -43 -44c-34 0 -52 17 -57 45c-1 18 -5 22 -17 22c-32 0 -69 -23 -69 -94v-63h100l-14 -47h-86v-305c0 -39 3 -45 23 -49l44 -8v-27h-220z" />
    <glyph glyph-name="g.ord" horiz-adv-x="450" 
d="M185 92c-118 0 -187 33 -187 93c0 40 38 68 99 90v3c-31 10 -59 28 -59 68c0 48 39 76 67 96v3c-36 17 -73 59 -73 112c0 100 88 147 173 147c36 0 62 -5 93 -17c31 27 70 49 109 49c28 0 48 -15 48 -42c0 -22 -13 -43 -37 -43c-23 0 -30 11 -39 26c-6 10 -35 2 -58 -11
v-2c35 -20 58 -51 58 -99c0 -100 -88 -144 -174 -144c-29 0 -47 3 -69 12c-14 -8 -28 -24 -28 -45c0 -20 16 -33 52 -33h129c72 0 128 -17 128 -97c0 -69 -54 -166 -232 -166zM200 131c88 0 147 37 147 88c0 36 -18 53 -74 53h-127c-24 -7 -64 -31 -64 -73
c0 -49 35 -68 118 -68zM205 457c52 0 80 24 80 98c0 83 -28 114 -80 114s-80 -28 -80 -102c0 -83 28 -110 80 -110z" />
    <glyph glyph-name="h.ord" horiz-adv-x="522" 
d="M24 255v27l34 8c19 5 25 13 25 46v439c0 36 -6 38 -26 47l-37 17v26l152 14l11 -8s-6 -42 -6 -99v-46c0 -39 -5 -77 -5 -77h3c44 29 107 55 163 55c85 0 116 -37 116 -114v-254c0 -33 7 -41 25 -46l32 -8v-27h-207v27l33 8c18 4 24 10 24 46v228c0 58 -20 79 -73 79
c-40 0 -88 -16 -111 -24v-283c0 -37 4 -42 22 -46l33 -8v-27h-208z" />
    <glyph glyph-name="i.ord" horiz-adv-x="254" 
d="M24 255v27l34 8c19 6 25 13 25 46v261c0 34 -5 36 -27 47l-32 18v23l148 18l11 -6c0 -4 -6 -37 -6 -100v-261c0 -36 4 -40 23 -46l33 -8v-27h-209zM126 757c-35 0 -62 27 -62 59s27 59 62 59c34 0 61 -27 61 -59s-27 -59 -61 -59z" />
    <glyph glyph-name="j.ord" horiz-adv-x="246" 
d="M20 90c-60 0 -87 30 -87 62c0 25 18 44 46 44c34 0 43 -19 46 -45c3 -25 7 -27 19 -27c21 0 39 23 39 52v421c0 34 -5 36 -27 47l-32 18v23l148 18l11 -6c0 -4 -6 -37 -6 -104v-325c0 -128 -74 -178 -157 -178zM124 757c-35 0 -62 27 -62 59s27 59 62 59
c34 0 63 -27 63 -59s-29 -59 -63 -59z" />
    <glyph glyph-name="k.ord" horiz-adv-x="483" 
d="M355 255c-65 71 -112 136 -164 214v15l87 94c35 38 45 53 45 64c0 8 -5 15 -20 20l-13 4v25h165v-27l-24 -7c-24 -7 -45 -17 -79 -53l-85 -90c48 -76 101 -144 157 -206c9 -10 15 -14 24 -17l28 -9v-27h-121zM24 255v27l34 8c19 5 25 13 25 46v439c0 36 -6 38 -26 47
l-37 17v26l152 14l11 -8s-6 -42 -6 -99v-436c0 -36 4 -42 22 -46l33 -8v-27h-208z" />
    </font>
</defs>
</svg>
