<?xml version="1.0" standalone="no"?>
<!DOCTYPE svg PUBLIC "-//W3C//DTD SVG 1.1//EN" "http://www.w3.org/Graphics/SVG/1.1/DTD/svg11.dtd" >
<svg xmlns="http://www.w3.org/2000/svg" xmlns:xlink="http://www.w3.org/1999/xlink" version="1.1">
<metadata>
Created by FontForge 20170910 at Mon Jan 11 11:57:41 2016
 By Jimmy Wärting
\\\\uFFFD 2010 Paul Barnes and Christian Schwartz, under exclusive license to Schwartzco Inc./Commercial Type. All rights reserved.
</metadata>
<defs>
<font id="ChubbPublicoText-Italic" horiz-adv-x="600" >
  <font-face 
    font-family="Chubb Publico Text"
    font-weight="400"
    font-style="italic"
    font-stretch="normal"
    units-per-em="1000"
    panose-1="2 4 5 2 6 5 4 13 2 3"
    ascent="781"
    descent="-219"
    x-height="524"
    cap-height="693"
    bbox="-179 -286 1102 1101"
    underline-thickness="50"
    underline-position="-124"
    slope="-12"
    stemh="48"
    stemv="98"
    unicode-range="U+0020-FB04"
  />
<missing-glyph horiz-adv-x="510" 
 />
    <glyph glyph-name="f_b" unicode="fb" horiz-adv-x="821" 
d="M485 -13c-93 0 -141 29 -172 59v5l121 606c-29 3 -39 19 -44 48c-5 22 -13 26 -28 26c-65 0 -110 -46 -134 -197l-4 -25h121l-12 -52h-118l-50 -306c-45 -276 -115 -375 -218 -375c-54 0 -89 19 -89 59c0 25 19 45 44 45c28 0 43 -13 51 -48c3 -12 6 -17 15 -17
c44 0 54 26 84 213l68 429h-66l5 29l70 23l1 7c23 162 127 251 266 251c40 0 71 -13 85 -33l61 32l12 -9s-18 -55 -29 -117l-32 -168c-6 -32 -25 -97 -25 -97h4c50 61 128 149 215 149c65 0 112 -58 112 -141c0 -236 -161 -396 -314 -396zM501 29c104 0 199 138 199 351
c0 57 -19 77 -52 77c-58 0 -141 -86 -190 -146l-49 -241c16 -23 48 -41 92 -41z" />
    <glyph glyph-name="f_f" unicode="ff" horiz-adv-x="591" 
d="M222 -213c-49 0 -81 22 -81 55c0 29 18 45 44 45c31 0 40 -14 48 -44c3 -12 6 -17 15 -17c34 0 43 15 72 202l68 429h-173l-50 -306c-45 -276 -115 -375 -218 -375c-54 0 -89 19 -89 59c0 25 19 45 44 45c28 0 43 -13 51 -48c3 -12 6 -17 15 -17c44 0 54 26 84 213
l68 429h-66l5 29l70 23l1 7c22 152 118 239 231 239c56 0 97 -21 121 -49c42 41 95 61 153 61c63 0 92 -24 92 -57c0 -32 -22 -54 -50 -54c-37 0 -51 18 -54 50c-2 21 -7 25 -18 25c-45 0 -79 -27 -106 -182l-7 -40h121l-12 -52h-118l-50 -306c-45 -277 -114 -364 -211 -364
zM228 534l-4 -25h173l1 7c6 44 17 82 32 115c-12 47 -41 88 -88 88c-53 0 -92 -45 -114 -185z" />
    <glyph glyph-name="f_f_b" unicode="ffb" horiz-adv-x="1089" 
d="M483 457l-50 -306c-45 -277 -114 -364 -211 -364c-49 0 -81 22 -81 55c0 29 18 45 44 45c31 0 40 -14 48 -44c3 -12 6 -17 15 -17c34 0 43 15 72 202l68 429h-173l-50 -306c-45 -276 -115 -375 -218 -375c-54 0 -89 19 -89 59c0 25 19 45 44 45c28 0 43 -13 51 -48
c3 -12 6 -17 15 -17c44 0 54 26 84 213l68 429h-66l5 29l70 23l1 7c22 152 118 239 231 239c59 0 101 -23 125 -54c46 43 107 66 178 66c40 0 71 -13 85 -33l61 32l12 -9s-18 -55 -29 -117l-32 -168c-6 -32 -25 -97 -25 -97h4c50 61 128 149 215 149c65 0 112 -58 112 -141
c0 -236 -161 -396 -314 -396c-93 0 -141 29 -172 59v5l121 606c-29 3 -39 19 -44 48c-5 22 -13 26 -28 26c-65 0 -110 -46 -134 -197l-4 -25h121l-12 -52h-118zM769 29c104 0 199 138 199 351c0 57 -19 77 -52 77c-58 0 -141 -86 -190 -146l-49 -241c16 -23 48 -41 92 -41z
M228 534l-4 -25h173l1 7c6 41 17 78 32 109c-10 50 -39 94 -88 94c-53 0 -92 -45 -114 -185z" />
    <glyph glyph-name="f_f_h" unicode="ffh" horiz-adv-x="1108" 
d="M320 28l68 429h-173l-50 -306c-45 -276 -115 -375 -218 -375c-54 0 -89 19 -89 59c0 25 19 45 44 45c28 0 43 -13 51 -48c3 -12 6 -17 15 -17c44 0 54 26 84 213l68 429h-66l5 29l70 23l1 7c22 152 118 239 231 239c59 0 101 -23 125 -54c46 43 107 66 178 66
c40 0 72 -13 85 -33l62 32l12 -9s-16 -54 -28 -117l-34 -168c-10 -52 -18 -80 -25 -106h5c77 90 153 158 225 158c53 0 80 -38 80 -88c0 -20 -4 -56 -14 -99l-51 -218c-2 -11 -5 -22 -5 -35c0 -23 14 -28 60 0l21 14l16 -23c-59 -53 -101 -84 -157 -84c-27 0 -44 21 -44 47
c0 28 6 49 13 80l49 212c22 96 18 122 -15 122c-52 0 -131 -79 -187 -142l-68 -310h-96l135 657c-30 2 -40 19 -45 48c-5 22 -13 26 -28 26c-65 0 -110 -46 -134 -197l-4 -25h121l-12 -52h-118l-50 -306c-45 -277 -114 -364 -211 -364c-49 0 -81 22 -81 55c0 29 18 45 44 45
c31 0 40 -14 48 -44c3 -12 6 -17 15 -17c34 0 42 15 72 202zM228 534l-4 -25h173l1 7c6 41 17 78 32 109c-10 50 -39 94 -88 94c-53 0 -92 -45 -114 -185z" />
    <glyph glyph-name="f_f_i" unicode="ffi" horiz-adv-x="813" 
d="M-53 -224c-54 0 -89 19 -89 59c0 25 19 45 44 45c28 0 43 -13 51 -48c3 -12 6 -17 15 -17c44 0 54 26 84 213l68 429h-66l5 29l70 23l1 7c22 152 118 239 231 239c60 0 103 -24 127 -56c47 44 109 68 177 68c60 0 91 -26 91 -59c0 -34 -19 -53 -48 -53
c-36 0 -48 18 -55 49c-4 22 -9 27 -22 27c-60 0 -111 -48 -135 -197l-4 -25h236c17 0 36 -8 36 -32c0 -28 -9 -58 -20 -103l-62 -255c-3 -12 -5 -22 -5 -35c0 -23 18 -24 60 0l25 16l15 -23c-59 -54 -104 -86 -160 -86c-27 0 -43 21 -43 47c0 28 4 49 12 80l67 269
c4 17 9 38 9 53c0 12 -6 17 -21 17h-158l-50 -306c-45 -277 -114 -364 -211 -364c-49 0 -81 22 -81 55c0 29 18 45 44 45c31 0 40 -14 48 -44c3 -12 6 -17 15 -17c34 0 43 15 72 202l68 429h-173l-50 -306c-45 -276 -115 -375 -218 -375zM398 516c6 40 17 76 33 107
c-10 51 -39 96 -89 96c-53 0 -92 -45 -114 -185l-4 -25h173z" />
    <glyph glyph-name="f_f_j" unicode="ffj" horiz-adv-x="807" 
d="M320 28l68 429h-173l-50 -306c-45 -276 -115 -375 -218 -375c-54 0 -89 19 -89 59c0 25 19 45 44 45c28 0 43 -13 51 -48c3 -12 6 -17 15 -17c44 0 54 26 84 213l68 429h-66l5 29l70 23l1 7c22 152 118 239 231 239c60 0 103 -24 127 -56c47 44 109 68 177 68
c60 0 91 -26 91 -59c0 -34 -19 -53 -48 -53c-36 0 -48 18 -55 49c-4 22 -9 27 -22 27c-60 0 -111 -48 -135 -197l-4 -25h236c17 0 36 -8 36 -32c0 -28 -9 -58 -20 -103l-64 -337c-40 -204 -112 -263 -192 -263c-65 0 -97 29 -97 63s24 47 46 47c33 0 48 -9 56 -50
c3 -18 8 -23 16 -23c28 0 43 22 62 127l82 449c4 17 9 38 9 53c0 12 -6 17 -21 17h-158l-50 -306c-45 -277 -114 -364 -211 -364c-49 0 -81 22 -81 55c0 29 18 45 44 45c31 0 40 -14 48 -44c3 -12 6 -17 15 -17c34 0 43 15 72 202zM228 534l-4 -25h173l1 7
c6 40 17 76 33 107c-10 51 -39 96 -89 96c-53 0 -92 -45 -114 -185z" />
    <glyph glyph-name="f_f_k" unicode="ffk" horiz-adv-x="1057" 
d="M483 457l-50 -306c-45 -277 -114 -364 -211 -364c-49 0 -81 22 -81 55c0 29 18 45 44 45c31 0 40 -14 48 -44c3 -12 6 -17 15 -17c34 0 42 15 72 202l68 429h-173l-50 -306c-45 -276 -115 -375 -218 -375c-54 0 -89 19 -89 59c0 25 19 45 44 45c28 0 43 -13 51 -48
c3 -12 6 -17 15 -17c44 0 54 26 84 213l68 429h-66l5 29l70 23l1 7c22 152 118 239 231 239c59 0 101 -23 125 -54c46 43 107 66 178 66c40 0 72 -13 85 -33l62 32l12 -9s-15 -54 -28 -117l-131 -640h-96l135 657c-30 2 -40 19 -45 48c-5 22 -13 26 -28 26
c-65 0 -110 -46 -134 -197l-4 -25h121l-12 -52h-118zM887 -9c-19 0 -41 23 -63 74c-21 45 -45 103 -81 199v13c128 186 198 247 266 247c29 0 57 -17 57 -60c0 -35 -21 -54 -47 -54c-43 0 -41 46 -53 46c-33 0 -106 -83 -148 -142c38 -99 60 -146 83 -197
c29 -61 42 -62 86 -33l23 15l17 -24c-61 -55 -100 -84 -140 -84zM228 534l-4 -25h173l1 7c6 41 17 78 32 109c-10 50 -39 94 -88 94c-53 0 -92 -45 -114 -185z" />
    <glyph glyph-name="f_f_l" unicode="ffl" horiz-adv-x="827" 
d="M222 -213c-49 0 -81 22 -81 55c0 29 18 45 44 45c31 0 40 -14 48 -44c3 -12 6 -17 15 -17c34 0 43 15 72 202l68 429h-173l-50 -306c-45 -276 -115 -375 -218 -375c-54 0 -89 19 -89 59c0 25 19 45 44 45c28 0 43 -13 51 -48c3 -12 6 -17 15 -17c44 0 54 26 84 213
l68 429h-66l5 29l70 23l1 7c22 152 118 239 231 239c59 0 101 -23 125 -54c46 43 107 66 178 66c40 0 71 -13 85 -33l62 32l12 -8s-18 -55 -31 -118l-99 -521c-2 -10 -5 -22 -5 -35c0 -23 19 -24 64 2l22 14l15 -23c-61 -56 -107 -86 -163 -86c-27 0 -43 21 -43 47
c0 28 6 49 12 80l105 539c-27 3 -37 20 -42 48c-5 22 -13 26 -28 26c-65 0 -110 -46 -134 -197l-4 -25h121l-12 -52h-118l-50 -306c-45 -277 -114 -364 -211 -364zM228 534l-4 -25h173l1 7c6 41 17 78 32 109c-10 50 -39 94 -88 94c-53 0 -92 -45 -114 -185z" />
    <glyph glyph-name="f_h" unicode="fh" horiz-adv-x="840" 
d="M648 -9c-27 0 -44 21 -44 47c0 28 6 49 13 80l49 212c22 96 18 122 -15 122c-52 0 -131 -79 -187 -142l-68 -310h-96l135 657c-30 2 -40 19 -45 48c-5 22 -13 26 -28 26c-65 0 -110 -46 -134 -197l-4 -25h121l-12 -52h-118l-50 -306c-45 -276 -115 -375 -218 -375
c-54 0 -89 19 -89 59c0 25 19 45 44 45c28 0 43 -13 51 -48c3 -12 6 -17 15 -17c44 0 54 26 84 213l68 429h-66l5 29l70 23l1 7c23 162 127 251 266 251c40 0 72 -13 85 -33l62 32l12 -9s-16 -54 -28 -117l-34 -168c-10 -52 -18 -80 -25 -106h5c77 90 153 158 225 158
c53 0 80 -38 80 -88c0 -20 -4 -56 -14 -99l-51 -218c-2 -11 -5 -22 -5 -35c0 -23 14 -28 60 0l21 14l16 -23c-59 -53 -101 -84 -157 -84z" />
    <glyph glyph-name="f_i" unicode="fi" horiz-adv-x="545" 
d="M-53 -224c-54 0 -89 19 -89 59c0 25 19 45 44 45c28 0 43 -13 51 -48c3 -12 6 -17 15 -17c44 0 54 26 84 213l68 429h-66l5 29l70 23l1 7c23 158 133 251 267 251c60 0 91 -26 91 -59c0 -34 -19 -53 -48 -53c-36 0 -48 18 -55 49c-4 22 -9 27 -22 27
c-60 0 -111 -48 -135 -197l-4 -25h236c17 0 36 -8 36 -32c0 -28 -9 -58 -20 -103l-62 -255c-3 -12 -5 -22 -5 -35c0 -23 18 -24 60 0l25 16l15 -23c-59 -54 -104 -86 -160 -86c-27 0 -43 21 -43 47c0 28 4 49 12 80l67 269c4 17 9 38 9 53c0 12 -6 17 -21 17h-158l-50 -306
c-45 -276 -115 -375 -218 -375z" />
    <glyph glyph-name="f_j" unicode="fj" horiz-adv-x="539" 
d="M220 -226c-65 0 -97 29 -97 63s24 47 46 47c33 0 48 -9 56 -50c3 -18 8 -23 16 -23c28 0 43 22 62 127l82 449c4 17 9 38 9 53c0 12 -6 17 -21 17h-158l-50 -306c-45 -276 -115 -375 -218 -375c-54 0 -89 19 -89 59c0 25 19 45 44 45c28 0 43 -13 51 -48
c3 -12 6 -17 15 -17c44 0 54 26 84 213l68 429h-66l5 29l70 23l1 7c23 158 133 251 267 251c60 0 91 -26 91 -59c0 -34 -19 -53 -48 -53c-36 0 -48 18 -55 49c-4 22 -9 27 -22 27c-60 0 -111 -48 -135 -197l-4 -25h236c17 0 36 -8 36 -32c0 -28 -9 -58 -20 -103l-64 -337
c-40 -204 -112 -263 -192 -263z" />
    <glyph glyph-name="f_k" unicode="fk" horiz-adv-x="789" 
d="M300 0l135 657c-30 2 -40 19 -45 48c-5 22 -13 26 -28 26c-65 0 -110 -46 -134 -197l-4 -25h121l-12 -52h-118l-50 -306c-45 -276 -115 -375 -218 -375c-54 0 -89 19 -89 59c0 25 19 45 44 45c28 0 43 -13 51 -48c3 -12 6 -17 15 -17c44 0 54 26 84 213l68 429h-66l5 29
l70 23l1 7c23 162 127 251 266 251c40 0 72 -13 85 -33l62 32l12 -9s-15 -54 -28 -117l-131 -640h-96zM619 -9c-19 0 -41 23 -63 74c-21 45 -45 103 -81 199v13c128 186 198 247 266 247c29 0 57 -17 57 -60c0 -35 -21 -54 -47 -54c-43 0 -41 46 -53 46
c-33 0 -106 -83 -148 -142c38 -99 60 -146 83 -197c29 -61 42 -62 86 -33l23 15l17 -24c-61 -55 -100 -84 -140 -84z" />
    <glyph glyph-name="f_l" unicode="fl" horiz-adv-x="559" 
d="M358 -9c-27 0 -43 21 -43 47s6 50 12 81l105 538c-27 3 -37 20 -42 48c-5 22 -13 26 -28 26c-65 0 -110 -46 -134 -197l-4 -25h121l-12 -52h-118l-50 -306c-45 -276 -115 -375 -218 -375c-54 0 -89 19 -89 59c0 25 19 45 44 45c28 0 43 -13 51 -48c3 -12 6 -17 15 -17
c44 0 54 26 84 213l68 429h-66l5 29l70 23l1 7c23 162 127 251 266 251c40 0 71 -13 85 -33l62 32l12 -8s-18 -55 -31 -118l-99 -520c-2 -10 -5 -23 -5 -36c0 -23 19 -24 64 2l22 14l15 -23c-61 -56 -107 -86 -163 -86z" />
    <glyph glyph-name=".notdef" horiz-adv-x="510" 
 />
    <glyph glyph-name="Eth" unicode="&#xd0;" horiz-adv-x="687" 
d="M45 329l8 43h73l40 222c9 49 3 55 -20 60l-44 9l6 30h270c177 0 293 -93 293 -269c0 -267 -178 -424 -404 -424h-283l6 31l47 9c23 4 32 10 41 60l41 229h-74zM268 42c217 0 291 175 291 409c0 131 -52 200 -190 200c-48 0 -70 -4 -88 -9l-48 -270h180l-8 -43h-179
l-33 -190c-16 -80 -4 -97 75 -97z" />
    <glyph glyph-name="eth" unicode="&#xf0;" horiz-adv-x="530" 
d="M179 582l-15 35l107 48c-31 28 -67 54 -108 76l13 29c56 -21 106 -48 150 -81l125 56l15 -35l-106 -47c88 -78 142 -182 142 -314c0 -244 -160 -363 -281 -363c-129 0 -193 96 -193 205c0 217 161 334 272 334c39 0 66 -10 88 -32c-17 46 -46 96 -88 143zM221 28
c112 0 183 160 183 331c0 80 -34 125 -96 125c-110 0 -182 -154 -182 -331c0 -80 31 -125 95 -125z" />
    <glyph glyph-name="Lslash" unicode="&#x141;" horiz-adv-x="573" 
d="M18 245l9 48l91 30l48 271c8 48 5 55 -20 60l-44 9l6 30h265l-6 -30l-53 -10c-25 -5 -32 -9 -41 -59l-41 -232l211 71l-10 -48l-210 -71l-30 -172c-16 -82 -8 -99 91 -99c88 0 109 10 144 47c20 21 49 65 83 130h36l-53 -220h-510l6 31l47 9c23 5 32 10 41 60l31 176z
" />
    <glyph glyph-name="lslash" unicode="&#x142;" horiz-adv-x="287" 
d="M21 307l9 47l82 37l51 262c6 33 0 42 -24 51l-46 17l5 28l176 16l9 -8s-16 -54 -28 -117l-39 -202l87 39l-8 -47l-88 -40l-51 -271c-2 -11 -5 -22 -5 -35c0 -23 19 -24 64 2l22 14l15 -23c-61 -56 -107 -86 -163 -86c-27 0 -43 21 -43 47c0 28 6 49 12 80l44 225z" />
    <glyph glyph-name="Scaron" unicode="&#x160;" horiz-adv-x="516" 
d="M209 -12c-87 0 -164 25 -204 49l13 169h38c13 -52 22 -77 39 -109c20 -38 46 -61 119 -61c102 0 147 54 147 123c0 58 -35 101 -131 162c-92 60 -133 113 -133 188c0 125 113 196 225 196c95 0 142 -18 169 -32l-10 -155h-34c-12 44 -19 61 -34 88c-16 30 -35 52 -98 52
c-76 0 -136 -40 -136 -116c0 -45 29 -83 115 -137c113 -74 157 -133 157 -212c0 -127 -117 -205 -242 -205zM496 909l12 -21l-153 -130h-43l-112 130l14 21l130 -69z" />
    <glyph glyph-name="scaron" unicode="&#x161;" horiz-adv-x="398" 
d="M154 -11c-113 0 -160 46 -160 86c0 33 19 48 49 48c33 0 45 -12 60 -65c5 -19 19 -28 62 -28c53 0 100 29 100 77c0 39 -32 74 -97 127c-61 51 -93 89 -93 143c0 94 90 147 181 147c94 0 137 -43 137 -82c0 -25 -12 -44 -44 -44c-38 0 -49 27 -59 61c-7 19 -20 25 -47 25
c-51 0 -91 -24 -91 -69c0 -36 18 -67 92 -123c66 -49 98 -100 98 -153c0 -91 -88 -150 -188 -150zM238 597l-106 149l16 21l122 -88l156 88l14 -21l-159 -149h-43z" />
    <glyph glyph-name="Yacute" unicode="&#xdd;" horiz-adv-x="593" 
d="M117 0l6 31l50 9c26 5 33 11 42 60l32 177l-93 290c-20 64 -31 81 -57 89l-24 7l6 30h252l-7 -30l-26 -6c-32 -7 -48 -16 -48 -37c0 -12 5 -32 11 -53l69 -228h5l142 212c26 38 36 57 36 74c0 15 -8 28 -34 33l-24 5l7 30h209l-6 -30l-24 -7c-33 -11 -54 -30 -104 -103
l-182 -269l-33 -184c-9 -48 -6 -55 21 -60l45 -9l-6 -31h-265zM321 748l-10 22l162 114c16 11 28 15 39 15c24 0 39 -21 39 -39c0 -22 -12 -39 -42 -49z" />
    <glyph glyph-name="yacute" unicode="&#xfd;" horiz-adv-x="492" 
d="M-10 -232c-46 0 -69 24 -69 55c0 34 20 52 46 52c44 0 47 -35 78 -35c26 0 77 34 147 117c-24 195 -45 344 -64 418c-21 75 -31 75 -71 48l-24 -16l-16 24c55 58 103 93 137 93c26 0 44 -12 58 -71c29 -126 46 -271 56 -388h5c80 116 144 245 144 315c0 46 -32 57 -32 99
c0 26 21 46 52 46c37 0 61 -24 61 -64c0 -90 -86 -280 -206 -443c-110 -152 -217 -250 -302 -250zM239 595l-10 22l162 114c16 11 28 15 39 15c24 0 39 -21 39 -39c0 -22 -12 -39 -42 -49z" />
    <glyph glyph-name="Thorn" unicode="&#xde;" horiz-adv-x="576" 
d="M-16 0l6 31l47 9c23 4 32 10 41 60l88 494c9 50 3 55 -20 60l-44 9l6 30h261l-6 -30l-49 -9c-24 -5 -32 -10 -41 -60l-7 -38h78c152 0 229 -64 229 -174c0 -136 -106 -230 -235 -230c-57 0 -71 9 -86 18l6 30c146 -17 207 60 207 195c0 89 -33 117 -126 117
c-33 0 -66 -3 -83 -7l-71 -405c-9 -50 -5 -55 20 -60l46 -9l-6 -31h-261z" />
    <glyph glyph-name="thorn" unicode="&#xfe;" horiz-adv-x="540" 
d="M-88 -219l6 29l43 11c22 6 28 13 36 52l157 780c6 33 0 41 -25 51l-42 17l5 28l173 16l9 -8s-17 -55 -28 -117l-32 -168c-6 -32 -25 -97 -25 -97h4c52 63 128 149 215 149c68 0 112 -59 112 -147c0 -231 -149 -390 -302 -390c-47 0 -78 7 -102 19c0 0 -4 -33 -10 -64
l-13 -69c-8 -42 -4 -48 16 -52l52 -11l-6 -29h-243zM229 29c109 0 192 153 192 351c0 57 -19 77 -52 77c-58 0 -141 -86 -190 -146l-45 -228c22 -31 50 -54 95 -54z" />
    <glyph glyph-name="Zcaron" unicode="&#x17d;" horiz-adv-x="549" 
d="M-17 0l8 40l473 606v4h-54c-160 0 -178 -4 -212 -46c-25 -29 -40 -61 -68 -112h-35l41 201h459l-9 -40l-470 -606v-4h57c174 0 193 6 227 43c25 27 44 64 81 131h37l-42 -217h-493zM529 909l12 -21l-153 -130h-43l-112 130l14 21l130 -69z" />
    <glyph glyph-name="zcaron" unicode="&#x17e;" horiz-adv-x="454" 
d="M270 -18c-78 0 -107 90 -179 90c-24 0 -42 -26 -63 -86h-12l-49 36v12c48 34 79 59 123 104l245 258c-94 10 -124 59 -196 59c-11 0 -18 -6 -18 -13c0 -12 37 -24 37 -52c0 -24 -19 -45 -47 -45c-33 0 -49 25 -49 51c0 43 61 128 144 128c76 0 122 -87 159 -87
c19 0 35 30 53 86h13l54 -36v-13c-35 -24 -61 -43 -113 -97l-246 -263c87 -7 139 -43 178 -43c23 0 46 13 85 68l23 -15c-45 -78 -84 -142 -142 -142zM269 597l-106 149l16 21l122 -88l156 88l14 -21l-159 -149h-43z" />
    <glyph glyph-name="onehalf" unicode="&#xbd;" horiz-adv-x="800" 
d="M375 -104l9 47c60 43 110 77 145 112c61 54 100 104 100 182c0 43 -26 55 -61 55c-17 0 -27 -7 -30 -28c-4 -39 -18 -50 -46 -50c-31 0 -41 19 -41 40c0 41 52 72 128 72c79 0 139 -39 139 -110c0 -100 -116 -172 -250 -249v-3h131c30 0 36 8 64 50h25l-30 -118h-283z
M23 271l5 26l27 6c23 5 35 9 41 42l46 252h-62l5 29c61 12 119 38 155 72l13 -3l-63 -350c-6 -34 -3 -38 16 -42l33 -6l-5 -26h-211zM77 -50l593 764h57l-592 -764h-58z" />
    <glyph glyph-name="onequarter" unicode="&#xbc;" horiz-adv-x="800" 
d="M504 -104l4 26l24 6c19 5 25 8 32 45l7 36h-187l7 34l271 275h46l-50 -267h61l-11 -42h-60l-6 -37c-7 -36 0 -40 18 -44l24 -6l-4 -26h-176zM448 51h131l32 164h-3l-160 -162v-2zM23 271l5 26l27 6c23 5 35 9 41 42l46 252h-62l5 29c61 12 119 38 155 72l13 -3l-63 -350
c-6 -34 -3 -38 16 -42l33 -6l-5 -26h-211zM107 -50l593 764h57l-592 -764h-58z" />
    <glyph glyph-name="onesuperior" unicode="&#xb9;" horiz-adv-x="258" 
d="M23 271l5 26l27 6c23 5 35 9 41 42l46 252h-62l5 29c61 12 119 38 155 72l13 -3l-63 -350c-6 -34 -3 -38 16 -42l33 -6l-5 -26h-211z" />
    <glyph glyph-name="threequarters" unicode="&#xbe;" horiz-adv-x="800" 
d="M157 263c-77 0 -126 23 -126 69c0 28 14 47 41 47s41 -12 44 -46c3 -30 4 -38 34 -38c63 0 93 56 93 119c0 38 -19 59 -65 59h-31l7 38h26c64 0 86 39 86 105c0 35 -18 51 -54 51c-21 0 -32 -5 -34 -26c-4 -38 -15 -48 -43 -48c-27 0 -41 15 -41 38c0 40 52 70 125 70
c84 0 133 -40 133 -94c0 -55 -34 -97 -117 -112v-2c64 -9 104 -43 104 -94c0 -82 -79 -136 -182 -136zM504 -104l4 26l24 6c19 5 25 8 32 45l7 36h-187l7 34l271 275h46l-50 -267h61l-11 -42h-60l-6 -37c-7 -36 0 -40 18 -44l24 -6l-4 -26h-176zM448 51h131l32 164h-3
l-160 -162v-2zM133 -50l593 764h57l-592 -764h-58z" />
    <glyph glyph-name="threesuperior" unicode="&#xb3;" horiz-adv-x="352" 
d="M157 263c-77 0 -126 23 -126 69c0 28 14 47 41 47s41 -12 44 -46c3 -30 4 -38 34 -38c63 0 93 56 93 119c0 38 -19 59 -65 59h-31l7 38h26c64 0 86 39 86 105c0 35 -18 51 -54 51c-21 0 -32 -5 -34 -26c-4 -38 -15 -48 -43 -48c-27 0 -41 15 -41 38c0 40 52 70 125 70
c84 0 133 -40 133 -94c0 -55 -34 -97 -117 -112v-2c64 -9 104 -43 104 -94c0 -82 -79 -136 -182 -136z" />
    <glyph glyph-name="twosuperior" unicode="&#xb2;" horiz-adv-x="353" 
d="M21 271l9 47c60 43 110 77 145 112c61 54 100 104 100 182c0 43 -26 55 -60 55c-18 0 -28 -7 -31 -28c-4 -39 -18 -50 -46 -50c-31 0 -41 19 -41 40c0 41 52 72 128 72c79 0 139 -39 139 -110c0 -100 -115 -172 -249 -249v-3h131c30 0 36 8 64 50h24l-30 -118h-283z" />
    <glyph glyph-name="brokenbar" unicode="&#xa6;" horiz-adv-x="248" 
d="M112 -130v384h57v-384h-57zM112 328v406h57v-406h-57z" />
    <glyph glyph-name="minus" unicode="&#x2212;" horiz-adv-x="460" 
d="M55 309v56h380v-56h-380z" />
    <glyph glyph-name="multiply" unicode="&#xd7;" horiz-adv-x="441" 
d="M93 150l-43 42l139 144l-139 144l45 43l137 -144l140 144l42 -42l-140 -144l140 -144l-44 -43l-140 144z" />
    <glyph glyph-name="space" unicode=" " horiz-adv-x="218" 
 />
    <glyph glyph-name="exclam" unicode="!" horiz-adv-x="270" 
d="M99 -6c-40 0 -72 31 -72 70s32 71 72 71c41 0 73 -32 73 -71s-32 -70 -73 -70zM106 209l33 423c4 54 37 70 71 70c43 0 73 -31 55 -89l-122 -404h-37z" />
    <glyph glyph-name="quotedbl" unicode="&#x22;" horiz-adv-x="343" 
d="M110 434v200c0 55 31 70 56 70c35 0 58 -28 40 -78l-66 -192h-30zM263 434l4 200c1 53 29 70 54 70c35 0 61 -26 42 -78l-70 -192h-30z" />
    <glyph glyph-name="numbersign" unicode="#" horiz-adv-x="513" 
d="M64 0l52 196h-85l19 74h90l42 156h-87l17 74h90l55 193h55l-56 -193h112l55 193h54l-55 -193h87l-17 -74h-91l-41 -156h87l-20 -74h-91l-52 -196h-53l52 196h-112l-53 -196h-54zM194 270h112l41 156h-112z" />
    <glyph glyph-name="dollar" unicode="$" horiz-adv-x="502" 
d="M449 201c0 -123 -111 -204 -228 -210l-17 -101h-47l18 101c-140 7 -185 63 -185 113c0 40 22 56 52 56c37 0 55 -11 58 -62c2 -41 7 -64 82 -69l51 289c-101 60 -142 109 -142 184c0 121 108 192 211 198l11 64h47l-12 -64c118 -8 159 -57 159 -100
c0 -40 -22 -62 -52 -62c-36 0 -52 17 -55 70c-2 33 -13 49 -59 54l-47 -262c112 -67 155 -121 155 -199zM363 164c0 53 -29 89 -88 128l-47 -263c90 7 135 65 135 135zM170 536c0 -40 23 -73 82 -111l43 237c-72 -6 -125 -52 -125 -126z" />
    <glyph glyph-name="percent" unicode="%" horiz-adv-x="772" 
d="M203 383c56 0 104 88 104 197c0 61 -20 88 -58 88c-57 0 -105 -91 -105 -197c0 -59 19 -88 59 -88zM201 348c-70 0 -137 49 -137 144c0 108 87 211 186 211c68 0 137 -49 137 -144c0 -110 -88 -211 -186 -211zM55 -50l609 764h60l-607 -764h-62zM552 22
c56 0 104 88 104 197c0 61 -20 88 -58 88c-57 0 -105 -91 -105 -197c0 -59 19 -88 59 -88zM550 -13c-70 0 -137 49 -137 144c0 108 87 211 186 211c68 0 137 -49 137 -144c0 -110 -88 -211 -186 -211z" />
    <glyph glyph-name="ampersand" unicode="&#x26;" horiz-adv-x="668" 
d="M229 -13c-162 0 -211 92 -211 163c0 127 99 194 193 242c-19 41 -30 79 -30 121c0 122 99 192 186 192c77 0 141 -48 141 -123c0 -88 -78 -147 -190 -195c34 -66 84 -148 134 -221c37 50 64 105 64 140c0 17 -8 23 -33 30l-22 6l5 30h192l-5 -30l-31 -8
c-27 -7 -39 -14 -62 -58c-26 -48 -50 -99 -83 -146c16 -23 32 -46 47 -65c8 -12 17 -18 32 -22l50 -12l-6 -31h-146c-13 16 -28 35 -43 56c-49 -42 -109 -69 -182 -69zM385 92c-46 67 -100 153 -157 266c-63 -41 -102 -93 -102 -200c0 -72 41 -122 123 -122
c53 0 92 17 136 56zM268 554c0 -40 11 -84 35 -135c80 40 122 88 122 168c0 48 -25 75 -63 75c-59 0 -94 -51 -94 -108z" />
    <glyph glyph-name="quotesingle" unicode="'" horiz-adv-x="186" 
d="M110 434v200c0 55 32 70 57 70c35 0 56 -28 39 -78l-66 -192h-30z" />
    <glyph glyph-name="parenleft" unicode="(" horiz-adv-x="323" 
d="M224 -140c-80 85 -170 214 -170 385c0 237 172 406 313 499l22 -26c-148 -125 -243 -301 -243 -507c1 -145 53 -248 111 -329z" />
    <glyph glyph-name="parenright" unicode=")" horiz-adv-x="323" 
d="M-26 -140l-22 26c148 125 243 301 243 507c-1 145 -53 248 -111 329l33 22c80 -85 170 -214 170 -385c0 -237 -172 -406 -313 -499z" />
    <glyph glyph-name="asterisk" unicode="*" horiz-adv-x="420" 
d="M338 372c-22 -11 -49 -9 -59 28l-27 109l-59 -102c-18 -32 -49 -33 -68 -18c-18 15 -21 49 12 69l103 63l-110 20c-35 7 -42 37 -30 60c10 20 38 30 64 8l86 -69l-13 112c-4 41 23 53 46 51c24 -3 46 -20 30 -57l-47 -106l102 50c33 16 57 -1 61 -25
c3 -24 -10 -48 -48 -47l-115 2l81 -82c25 -26 13 -54 -9 -66z" />
    <glyph glyph-name="plus" unicode="+" horiz-adv-x="460" 
d="M211 130v179h-156v56h156v179h65v-179h156v-56h-156v-179h-65z" />
    <glyph glyph-name="comma" unicode="," horiz-adv-x="311" 
d="M-33 -162l-7 29c110 36 171 84 174 146c-5 -4 -17 -10 -31 -10c-41 0 -64 29 -64 66c0 39 33 66 75 66c49 0 91 -40 91 -110c0 -81 -89 -165 -238 -187z" />
    <glyph glyph-name="hyphen" unicode="-" horiz-adv-x="289" 
d="M37 254l11 74h216l-11 -74h-216z" />
    <glyph glyph-name="period" unicode="." horiz-adv-x="282" 
d="M111 -6c-40 0 -72 31 -72 70s32 71 72 71c41 0 73 -32 73 -71s-32 -70 -73 -70z" />
    <glyph glyph-name="slash" unicode="/" horiz-adv-x="379" 
d="M-57 -130l429 864h59l-429 -864h-59z" />
    <glyph glyph-name="zero" unicode="0" horiz-adv-x="629" 
d="M274 -12c-114 0 -227 83 -227 271c0 265 183 446 338 446c111 0 228 -85 228 -277c0 -264 -183 -440 -339 -440zM277 35c129 0 230 191 230 433c0 127 -43 191 -124 191c-130 0 -229 -206 -229 -441c0 -122 40 -183 123 -183z" />
    <glyph glyph-name="one" unicode="1" horiz-adv-x="353" 
d="M-9 0l6 31l54 9c30 5 37 10 46 60l84 476h-94l5 30c94 19 143 46 196 96l20 -6l-105 -596c-8 -48 -7 -57 20 -60l55 -9l-6 -31h-281z" />
    <glyph glyph-name="two" unicode="2" horiz-adv-x="507" 
d="M-25 0l11 57c90 66 191 142 249 193c99 89 171 166 171 292c0 93 -48 122 -116 122c-38 0 -56 -15 -58 -47c-3 -45 -26 -65 -64 -65c-41 0 -53 23 -53 52c0 61 75 101 185 101c119 0 210 -67 210 -181c0 -159 -187 -286 -413 -434v-4h224c54 0 65 8 111 78h28l-45 -164
h-440z" />
    <glyph glyph-name="three" unicode="3" horiz-adv-x="503" 
d="M175 -12c-116 0 -189 33 -189 103c0 32 16 61 60 61c40 0 58 -20 61 -55c5 -58 13 -67 62 -67c114 0 173 77 173 199c0 66 -31 111 -118 111h-53l8 46h47c94 0 147 41 147 177c0 74 -33 101 -105 101c-39 0 -64 -11 -66 -51c-3 -48 -23 -61 -58 -61c-36 0 -53 19 -53 52
c0 61 82 101 184 101c136 0 201 -74 201 -155c0 -94 -57 -163 -182 -186v-3c106 -17 157 -75 157 -153c0 -138 -137 -220 -276 -220z" />
    <glyph glyph-name="four" unicode="4" horiz-adv-x="555" 
d="M196 0l6 31l46 9c24 5 33 8 43 60l16 98h-295l9 46l422 449h56l-79 -434h105l-15 -61h-101l-16 -98c-9 -48 -7 -55 19 -60l46 -9l-6 -31h-256zM95 259h223l53 294h-3l-273 -292v-2z" />
    <glyph glyph-name="five" unicode="5" horiz-adv-x="511" 
d="M189 -12c-106 0 -181 38 -181 102c0 34 17 60 62 60c37 0 55 -14 59 -66c2 -39 7 -54 66 -54c105 0 176 63 176 171c0 107 -69 151 -158 151c-52 0 -98 -13 -120 -23l-7 6l96 358h258c26 0 33 6 61 52h29l-39 -140h-284l-47 -178c20 8 41 14 92 14
c119 0 216 -67 216 -196c0 -173 -155 -257 -279 -257z" />
    <glyph glyph-name="six" unicode="6" horiz-adv-x="561" 
d="M265 -12c-128 0 -217 98 -217 255c0 276 214 462 386 462c108 0 144 -33 144 -82c0 -33 -17 -59 -54 -59c-41 0 -55 16 -59 62c-3 32 -13 38 -45 38c-91 0 -199 -96 -249 -297c39 27 94 52 164 52c109 0 179 -67 179 -177c0 -159 -122 -254 -249 -254zM268 35
c92 0 142 87 142 211c0 86 -35 125 -106 125c-58 0 -104 -22 -142 -45c-7 -41 -13 -83 -13 -141c0 -81 27 -150 119 -150z" />
    <glyph glyph-name="seven" unicode="7" horiz-adv-x="488" 
d="M69 0c92 277 251 461 392 606h-280c-33 0 -43 -10 -75 -68h-29l40 155h435l-8 -45c-175 -189 -294 -372 -366 -648h-109z" />
    <glyph glyph-name="eight" unicode="8" horiz-adv-x="537" 
d="M245 -12c-118 0 -229 60 -229 168c0 95 84 159 189 205v3c-56 42 -91 87 -91 147c0 114 97 195 216 195c103 0 197 -63 197 -157c0 -88 -78 -139 -165 -184v-3c76 -53 122 -99 122 -173c0 -107 -102 -201 -239 -201zM246 35c98 0 147 58 147 124c0 75 -73 122 -159 180
c-48 -32 -127 -83 -127 -178c0 -75 51 -126 139 -126zM335 388c45 34 108 76 108 163c0 65 -42 109 -116 109c-77 0 -126 -49 -126 -112c0 -68 64 -116 134 -160z" />
    <glyph glyph-name="nine" unicode="9" horiz-adv-x="561" 
d="M167 -12c-103 0 -148 32 -148 82c0 32 21 58 56 58c38 0 52 -19 58 -59c5 -33 16 -39 46 -39c114 0 201 98 241 294c-39 -26 -94 -50 -164 -50c-108 0 -179 68 -179 176c0 161 135 255 249 255c129 0 217 -93 217 -265c0 -259 -183 -452 -376 -452zM288 323
c56 0 104 22 141 45c10 45 14 84 14 140c0 77 -27 151 -120 151c-92 0 -142 -91 -142 -212c0 -81 35 -124 107 -124z" />
    <glyph glyph-name="colon" unicode=":" horiz-adv-x="286" 
d="M115 -6c-40 0 -72 31 -72 70s32 71 72 71c41 0 73 -32 73 -71s-32 -70 -73 -70zM165 275c-40 0 -72 31 -72 70s32 71 72 71c41 0 73 -32 73 -71s-32 -70 -73 -70z" />
    <glyph glyph-name="semicolon" unicode=";" horiz-adv-x="319" 
d="M-29 -162l-7 29c110 36 171 84 174 146c-5 -4 -17 -10 -31 -10c-41 0 -64 29 -64 66c0 39 33 66 75 66c49 0 91 -40 91 -110c0 -81 -89 -165 -238 -187zM168 275c-40 0 -72 31 -72 70s32 71 72 71c41 0 73 -32 73 -71s-32 -70 -73 -70z" />
    <glyph glyph-name="less" unicode="&#x3c;" horiz-adv-x="460" 
d="M429 124l-380 171v66l380 171v-63l-325 -141l325 -141v-63z" />
    <glyph glyph-name="equal" unicode="=" horiz-adv-x="489" 
d="M52 223v56h410v-56h-410zM52 385v57h410v-57h-410z" />
    <glyph glyph-name="greater" unicode="&#x3e;" horiz-adv-x="460" 
d="M439 295l-380 -171v63l325 141l-325 141v63l380 -171v-66z" />
    <glyph glyph-name="question" unicode="?" horiz-adv-x="439" 
d="M125 202l30 171c105 16 206 63 206 189c0 71 -50 102 -104 102c-29 0 -40 -8 -44 -37c-5 -41 -29 -55 -62 -55c-30 0 -49 20 -49 49c0 62 70 84 136 84c108 0 203 -59 203 -178c0 -142 -112 -199 -246 -226l-19 -99h-51zM131 -6c-40 0 -72 31 -72 70s32 71 72 71
c41 0 73 -32 73 -71s-32 -70 -73 -70z" />
    <glyph glyph-name="at" unicode="@" horiz-adv-x="907" 
d="M426 -163c-231 0 -388 151 -388 368c0 264 215 471 469 471c215 0 363 -124 363 -311c0 -246 -163 -326 -266 -326c-85 0 -100 46 -96 109h-4c-44 -74 -95 -107 -151 -107c-55 0 -98 40 -98 115c0 198 152 332 254 332c45 0 70 -13 94 -30h4l37 28l19 -9
s-16 -35 -30 -103l-34 -187c-12 -69 -7 -96 36 -96c86 0 166 83 166 239c0 187 -95 302 -294 302c-234 0 -387 -190 -387 -399s104 -346 334 -346c84 0 159 16 244 54v-39c-55 -32 -148 -65 -272 -65zM390 102c39 0 82 48 121 105l41 207c-7 11 -18 33 -50 33
c-73 0 -155 -126 -155 -277c0 -52 13 -68 43 -68z" />
    <glyph glyph-name="A" unicode="A" horiz-adv-x="647" 
d="M-45 0l6 31l31 7c28 7 41 15 88 103l295 552h66l93 -563c13 -71 22 -87 46 -92l26 -7l-7 -31h-244l5 31l29 7c37 8 43 24 43 43c0 25 -3 38 -6 58l-15 94h-224l-48 -94c-14 -28 -28 -53 -28 -70s6 -26 27 -31l32 -7l-6 -31h-209zM355 563l-145 -285h194l-44 285h-5z" />
    <glyph glyph-name="B" unicode="B" horiz-adv-x="605" 
d="M-16 0l6 31l47 9c24 5 32 10 41 60l88 494c8 48 5 55 -20 60l-44 9l6 30h243c135 0 221 -58 221 -151c0 -105 -76 -159 -187 -178v-4c113 -17 174 -72 174 -151c0 -141 -113 -209 -272 -209h-303zM291 44c107 0 157 55 157 176c0 76 -37 117 -132 117h-91l-37 -212
c-13 -67 12 -81 103 -81zM234 382h75c105 0 154 53 154 161c0 76 -30 106 -119 106c-30 0 -46 -2 -64 -6z" />
    <glyph glyph-name="C" unicode="C" horiz-adv-x="614" 
d="M323 -12c-165 0 -277 105 -277 284c0 253 181 433 390 433c76 0 139 -14 183 -34l-17 -188h-36c-10 49 -26 107 -44 140c-16 29 -34 37 -91 37c-180 0 -273 -198 -273 -412c0 -145 51 -215 174 -215c60 0 82 13 111 46c31 33 63 81 92 133h34l-47 -191
c-41 -19 -109 -33 -199 -33z" />
    <glyph glyph-name="D" unicode="D" horiz-adv-x="687" 
d="M-16 0l6 31l47 9c23 4 32 10 41 60l88 494c9 49 3 55 -20 60l-44 9l6 30h270c177 0 293 -93 293 -269c0 -267 -178 -424 -404 -424h-283zM268 42c217 0 291 175 291 409c0 131 -52 200 -190 200c-48 0 -70 -4 -88 -9l-88 -503c-16 -80 -4 -97 75 -97z" />
    <glyph glyph-name="E" unicode="E" horiz-adv-x="604" 
d="M-16 0l6 31l47 9c23 5 32 10 41 60l88 494c8 48 5 55 -20 60l-44 9l6 30h482l-1 -177h-34c-18 49 -28 77 -38 94c-22 34 -41 39 -130 39c-62 0 -86 -4 -106 -9l-46 -257h46c65 0 89 2 108 30c11 17 21 38 34 70h35l-43 -248h-34c-2 33 -4 50 -9 71c-8 28 -26 31 -115 31
h-30l-33 -185c-16 -95 -10 -108 103 -108c98 0 120 10 149 41c19 21 54 69 85 124h38l-59 -209h-526z" />
    <glyph glyph-name="F" unicode="F" horiz-adv-x="576" 
d="M-16 0l6 31l47 9c23 5 32 10 41 60l88 494c8 48 5 55 -20 60l-44 9l6 30h487l1 -187h-37c-18 59 -32 87 -43 106c-20 34 -45 37 -136 37c-51 0 -76 -3 -99 -7l-48 -271h26c91 0 107 3 123 23c16 19 30 47 45 80h34l-47 -258h-34c-1 35 -6 60 -14 88c-6 20 -24 21 -122 21
h-20l-39 -225c-8 -49 -7 -54 20 -59l57 -10l-6 -31h-272z" />
    <glyph glyph-name="G" unicode="G" horiz-adv-x="672" 
d="M340 -12c-170 0 -295 88 -295 278c0 282 200 439 397 439c87 0 147 -12 191 -27l-17 -191h-34c-15 61 -27 101 -42 127c-21 33 -34 46 -108 46c-160 0 -276 -167 -276 -427c0 -122 46 -200 189 -200c47 0 78 10 106 27l23 138c8 46 8 54 -27 61l-38 8l6 31h250l-6 -31
l-35 -8c-25 -6 -34 -11 -43 -61l-30 -175c-50 -19 -123 -35 -211 -35z" />
    <glyph glyph-name="H" unicode="H" horiz-adv-x="726" 
d="M-16 0l6 31l47 9c23 5 32 10 41 60l88 494c8 48 5 55 -20 60l-44 9l6 30h261l-6 -30l-49 -9c-24 -5 -32 -10 -41 -60l-40 -218h301l39 218c8 48 5 55 -21 60l-45 9l6 30h261l-6 -30l-47 -9c-23 -5 -32 -10 -41 -60l-88 -494c-8 -48 -6 -55 20 -60l44 -9l-6 -31h-261l6 31
l48 9c25 5 33 10 42 60l41 230h-301l-40 -230c-8 -48 -7 -55 20 -60l46 -9l-6 -31h-261z" />
    <glyph glyph-name="I" unicode="I" horiz-adv-x="327" 
d="M-16 0l6 31l51 9c25 5 32 10 41 60l88 494c8 48 5 55 -20 60l-48 9l6 30h267l-6 -30l-51 -9c-23 -4 -31 -11 -41 -60l-87 -494c-9 -48 -7 -55 19 -60l48 -9l-6 -31h-267z" />
    <glyph glyph-name="J" unicode="J" horiz-adv-x="305" 
d="M-34 -163c-67 0 -105 34 -105 72c0 27 22 49 56 49c37 0 46 -14 51 -59c2 -17 8 -21 22 -21c30 0 52 21 67 107l109 609c8 48 5 55 -20 60l-45 9l6 30h260l-6 -30l-47 -9c-24 -5 -32 -10 -41 -60l-97 -530c-24 -132 -97 -227 -210 -227z" />
    <glyph glyph-name="K" unicode="K" horiz-adv-x="641" 
d="M435 0c-63 97 -129 240 -174 351l3 13l210 204c35 35 44 42 44 61c0 12 -9 21 -36 28l-24 6l7 30h223l-6 -30l-20 -5c-34 -9 -60 -27 -109 -74l-199 -192c52 -123 112 -240 164 -328c9 -15 23 -20 44 -25l38 -8l-6 -31h-159zM-16 0l6 31l47 9c23 5 32 10 41 60l88 494
c8 48 5 55 -20 60l-44 9l6 30h261l-6 -30l-49 -9c-24 -5 -32 -10 -41 -60l-88 -494c-8 -48 -7 -55 20 -60l46 -9l-6 -31h-261z" />
    <glyph glyph-name="L" unicode="L" horiz-adv-x="573" 
d="M-16 0l6 31l47 9c23 5 32 10 41 60l88 494c8 48 5 55 -20 60l-44 9l6 30h265l-6 -30l-53 -10c-25 -5 -32 -9 -41 -59l-80 -452c-16 -82 -8 -99 91 -99c88 0 109 10 144 47c20 21 49 65 83 130h36l-53 -220h-510z" />
    <glyph glyph-name="M" unicode="M" horiz-adv-x="834" 
d="M-16 0l6 31l36 7c28 5 45 20 55 79l85 477c8 48 5 55 -20 60l-44 9l6 30h207l85 -529h3l267 529h212l-7 -30l-48 -9c-24 -5 -33 -10 -42 -60l-88 -494c-8 -48 -6 -55 21 -60l45 -9l-5 -31h-252l5 31l42 9c24 5 33 10 42 60l93 520h-4l-307 -604h-51l-98 604h-4l-92 -510
c-9 -54 -3 -67 36 -74l26 -5l-5 -31h-205z" />
    <glyph glyph-name="N" unicode="N" horiz-adv-x="683" 
d="M491 -4l-265 619h-3l-91 -505c-10 -57 1 -67 40 -74l32 -5l-5 -31h-215l6 31l36 7c32 6 44 15 55 79l85 477c8 48 5 55 -20 60l-44 9l6 30h195l218 -513h3l72 404c10 55 2 67 -29 72l-43 7l7 30h210l-6 -30l-32 -7c-31 -7 -44 -18 -55 -82l-105 -578h-52z" />
    <glyph glyph-name="O" unicode="O" horiz-adv-x="691" 
d="M312 -12c-146 0 -267 103 -267 281c0 254 187 437 369 437c148 0 261 -110 261 -286c0 -252 -179 -432 -363 -432zM318 36c157 0 245 199 245 419c0 103 -29 202 -152 202c-162 0 -254 -205 -254 -416c0 -110 32 -205 161 -205z" />
    <glyph glyph-name="P" unicode="P" horiz-adv-x="584" 
d="M-16 0l6 31l47 9c23 4 32 10 41 60l88 494c9 50 4 53 -12 57l-52 12l6 30h261c148 0 229 -67 229 -183c0 -138 -100 -236 -231 -236c-60 0 -78 10 -93 19l5 30c148 -18 212 56 212 203c0 91 -39 123 -130 123c-30 0 -63 -3 -80 -7l-96 -542c-9 -50 -7 -56 20 -60l57 -9
l-6 -31h-272z" />
    <glyph glyph-name="Q" unicode="Q" horiz-adv-x="691" 
d="M521 -167c-65 0 -108 17 -158 54c-43 32 -77 65 -122 110c-113 27 -196 125 -196 271c0 257 187 438 369 438c147 0 261 -109 261 -286c0 -227 -143 -392 -301 -421v-3c23 -22 56 -49 78 -64c49 -32 91 -44 136 -44c30 0 59 11 74 17l-2 -27c-27 -21 -76 -45 -139 -45z
M318 36c157 0 245 199 245 419c0 103 -29 202 -152 202c-162 0 -254 -205 -254 -416c0 -110 32 -205 161 -205z" />
    <glyph glyph-name="R" unicode="R" horiz-adv-x="638" 
d="M-16 0l6 31l47 9c23 5 32 10 41 60l88 494c8 48 5 55 -20 60l-44 9l6 30h251c153 0 221 -79 221 -170c0 -90 -60 -160 -170 -185v-6c39 -102 82 -196 124 -265c9 -14 18 -23 44 -30l29 -6l-6 -31h-148c-57 95 -103 207 -140 313h-90l-38 -213c-8 -48 -7 -55 20 -60l46 -9
l-6 -31h-261zM294 359c127 0 178 52 178 182c0 84 -34 108 -124 108c-27 0 -49 -3 -67 -7l-49 -279s27 -4 62 -4z" />
    <glyph glyph-name="S" unicode="S" horiz-adv-x="516" 
d="M209 -12c-87 0 -164 25 -204 49l13 169h38c13 -52 22 -77 39 -109c20 -38 46 -61 119 -61c102 0 147 54 147 123c0 58 -35 101 -131 162c-92 60 -133 113 -133 188c0 125 113 196 225 196c95 0 142 -18 169 -32l-10 -155h-34c-12 44 -19 61 -34 88c-16 30 -35 52 -98 52
c-76 0 -136 -40 -136 -116c0 -45 29 -83 115 -137c113 -74 157 -133 157 -212c0 -127 -117 -205 -242 -205z" />
    <glyph glyph-name="T" unicode="T" horiz-adv-x="599" 
d="M121 0l6 31l49 9c26 5 33 10 42 60l98 551h-15c-90 0 -102 -4 -134 -45c-27 -34 -43 -69 -70 -125h-36l47 212h533l-23 -212h-36c-9 56 -12 90 -24 125c-13 37 -22 45 -119 45h-16l-98 -551c-8 -48 -7 -55 20 -60l47 -9l-7 -31h-264z" />
    <glyph glyph-name="U" unicode="U" horiz-adv-x="680" 
d="M332 -12c-172 0 -273 79 -241 258l62 348c8 48 5 55 -20 60l-43 9l6 30h257l-6 -30l-46 -9c-26 -5 -32 -10 -41 -60l-64 -358c-25 -138 22 -195 151 -195c123 0 163 66 183 176l65 367c11 60 -2 68 -36 73l-38 6l8 30h216l-7 -30l-36 -7c-27 -5 -44 -16 -54 -72l-69 -381
c-21 -117 -86 -215 -247 -215z" />
    <glyph glyph-name="V" unicode="V" horiz-adv-x="643" 
d="M239 0l-95 564c-12 68 -18 84 -47 92l-25 7l7 30h243l-6 -30l-29 -7c-26 -6 -41 -17 -41 -41c0 -13 2 -34 6 -60l65 -423h5l218 423c13 25 27 56 27 71c0 17 -9 25 -31 30l-30 7l6 30h206l-7 -30l-17 -6c-32 -8 -48 -22 -92 -104l-295 -553h-68z" />
    <glyph glyph-name="W" unicode="W" horiz-adv-x="919" 
d="M212 0l-69 576c-9 73 -17 73 -43 80l-26 7l6 30h243l-6 -30l-32 -7c-31 -6 -41 -20 -41 -47c0 -15 4 -36 6 -54l44 -412h5l193 380l-5 53c-7 61 -17 72 -44 80l-25 7l7 30h241l-6 -30l-33 -7c-29 -6 -41 -25 -41 -52c0 -15 1 -29 4 -52l44 -409h6l193 424
c12 28 17 41 17 59c0 17 -8 26 -30 31l-25 6l7 30h199l-7 -30l-27 -7c-33 -7 -42 -21 -78 -98l-265 -558h-67l-50 442h-3l-226 -442h-66z" />
    <glyph glyph-name="X" unicode="X" horiz-adv-x="659" 
d="M-22 0l8 31l18 4c37 8 50 18 102 82l185 224l-115 243c-22 47 -30 64 -59 73l-20 6l6 30h250l-6 -30l-37 -7c-18 -3 -29 -14 -29 -31c0 -10 2 -25 14 -52l77 -167h3l128 177c17 24 21 39 21 51c0 11 -5 19 -23 23l-26 6l6 30h202l-7 -30l-21 -5c-33 -8 -48 -25 -93 -83
l-167 -212l116 -247c26 -55 35 -72 66 -80l20 -5l-5 -31h-247l5 31l26 4c29 4 36 16 36 31c0 10 -4 28 -15 53l-83 182h-3l-146 -192c-16 -21 -32 -36 -32 -51c0 -12 9 -20 27 -23l21 -4l-6 -31h-197z" />
    <glyph glyph-name="Y" unicode="Y" horiz-adv-x="593" 
d="M117 0l6 31l50 9c26 5 33 11 42 60l32 177l-93 290c-20 64 -31 81 -57 89l-24 7l6 30h252l-7 -30l-26 -6c-32 -7 -48 -16 -48 -37c0 -12 5 -32 11 -53l69 -228h5l142 212c26 38 36 57 36 74c0 15 -8 28 -34 33l-24 5l7 30h209l-6 -30l-24 -7c-33 -11 -54 -30 -104 -103
l-182 -269l-33 -184c-9 -48 -6 -55 21 -60l45 -9l-6 -31h-265z" />
    <glyph glyph-name="Z" unicode="Z" horiz-adv-x="549" 
d="M-17 0l8 40l473 606v4h-54c-160 0 -178 -4 -212 -46c-25 -29 -40 -61 -68 -112h-35l41 201h459l-9 -40l-470 -606v-4h57c174 0 193 6 227 43c25 27 44 64 81 131h37l-42 -217h-493z" />
    <glyph glyph-name="bracketleft" unicode="[" horiz-adv-x="350" 
d="M35 -130l155 864h210l-6 -30l-89 -11c-33 -4 -40 -11 -49 -63l-117 -656c-10 -50 -8 -59 26 -63l87 -11l-7 -30h-210z" />
    <glyph glyph-name="backslash" unicode="\" horiz-adv-x="379" 
d="M259 -130l-159 864h55l159 -864h-55z" />
    <glyph glyph-name="bracketright" unicode="]" horiz-adv-x="350" 
d="M-35 -130l6 30l92 11c34 4 39 11 48 63l117 656c10 50 8 59 -25 63l-89 11l6 30h209l-155 -864h-209z" />
    <glyph glyph-name="asciicircum" unicode="^" horiz-adv-x="409" 
d="M108 472l-18 20l163 211h36l118 -213l-23 -18l-123 130z" />
    <glyph glyph-name="underscore" unicode="_" horiz-adv-x="330" 
d="M-75 -180l9 56h339l-9 -56h-339z" />
    <glyph glyph-name="grave" unicode="`" horiz-adv-x="520" 
d="M432 593l-195 64c-28 9 -37 29 -37 46c0 21 18 43 41 43c12 0 24 -5 39 -15l163 -114z" />
    <glyph glyph-name="a" unicode="a" horiz-adv-x="551" 
d="M131 -13c-71 0 -111 58 -111 133c0 227 183 404 311 404c68 0 86 -15 110 -33h4l50 38l20 -7s-19 -40 -42 -156l-46 -246c-2 -13 -4 -23 -4 -36c0 -21 16 -23 57 0l22 14l15 -23c-58 -53 -102 -84 -153 -84c-32 0 -42 29 -42 53c0 22 5 56 12 84h-4
c-44 -63 -114 -141 -199 -141zM169 50c64 0 128 87 178 153l47 231c-10 25 -27 49 -70 49c-95 0 -207 -163 -207 -354c0 -53 20 -79 52 -79z" />
    <glyph glyph-name="b" unicode="b" horiz-adv-x="542" 
d="M206 -13c-93 0 -141 29 -172 59v5l120 602c7 33 0 41 -25 51l-42 17l5 28l173 16l9 -8s-17 -55 -28 -117l-32 -168c-6 -32 -25 -97 -25 -97h4c50 61 128 149 215 149c65 0 112 -58 112 -141c0 -236 -161 -396 -314 -396zM222 29c104 0 199 138 199 351
c0 57 -19 77 -52 77c-58 0 -141 -86 -190 -146l-49 -241c16 -23 48 -41 92 -41z" />
    <glyph glyph-name="c" unicode="c" horiz-adv-x="452" 
d="M174 -14c-90 0 -148 67 -148 151c0 227 169 387 308 387c83 0 126 -35 126 -77c0 -36 -16 -57 -51 -57c-36 0 -55 14 -59 66c-2 22 -8 27 -30 27c-95 0 -196 -161 -196 -332c0 -75 32 -109 90 -109c54 0 107 38 157 83l21 -25c-43 -49 -113 -114 -218 -114z" />
    <glyph glyph-name="d" unicode="d" horiz-adv-x="567" 
d="M139 -13c-72 0 -118 56 -118 141c0 217 185 396 322 396c39 0 63 -6 78 -14h4s5 36 12 75l14 68c6 34 0 41 -25 51l-43 17l5 28l176 16l9 -8s-16 -53 -28 -117l-103 -520c-3 -12 -5 -23 -5 -36c0 -21 19 -24 58 0l21 14l15 -23c-58 -53 -102 -84 -153 -84
c-31 0 -41 29 -41 53c0 22 6 59 13 87h-4c-45 -63 -123 -144 -207 -144zM176 50c65 0 136 90 186 156l46 226c-9 26 -29 51 -72 51c-105 0 -218 -170 -218 -346c0 -63 26 -87 58 -87z" />
    <glyph glyph-name="e" unicode="e" horiz-adv-x="456" 
d="M174 -14c-94 0 -148 67 -148 151c0 227 196 388 320 388c76 0 113 -42 113 -102c0 -88 -145 -173 -331 -215c-3 -19 -4 -38 -4 -57c0 -71 34 -111 88 -111c60 0 104 36 158 79l21 -24c-42 -45 -115 -109 -217 -109zM323 484c-64 0 -156 -100 -188 -234
c86 22 141 47 178 78c34 28 50 65 50 103c0 35 -16 53 -40 53z" />
    <glyph glyph-name="f" unicode="f" horiz-adv-x="319" 
d="M-54 -224c-53 0 -88 19 -88 59c0 25 19 45 44 45c28 0 43 -13 51 -48c3 -12 6 -17 15 -17c44 0 54 26 84 213l67 429h-66l5 29l69 23l1 7c23 170 120 251 235 251c63 0 92 -24 92 -57c0 -32 -21 -54 -49 -54c-37 0 -51 18 -54 50c-2 21 -7 25 -18 25
c-45 0 -81 -29 -105 -184l-6 -38h121l-13 -52h-117l-49 -306c-45 -276 -115 -375 -219 -375z" />
    <glyph glyph-name="g" unicode="g" horiz-adv-x="508" 
d="M162 -224c-111 0 -214 51 -214 130c0 67 72 111 147 135v4c-29 10 -48 32 -48 69c0 47 49 84 89 103v2c-33 17 -68 57 -68 109c0 127 113 196 209 196c43 0 75 -8 106 -27c34 30 83 61 127 61c32 0 52 -19 52 -44c0 -37 -20 -53 -46 -53c-27 0 -33 19 -40 32
c-8 17 -46 2 -68 -21v-3c26 -25 37 -49 37 -90c0 -129 -114 -190 -209 -190c-27 0 -49 5 -69 13c-17 -9 -40 -28 -40 -57c0 -20 11 -37 43 -39l104 -6c102 -6 158 -51 158 -127c0 -104 -96 -197 -270 -197zM172 -183c114 0 174 56 174 123c0 44 -17 73 -82 79l-126 12
c-40 -16 -100 -57 -100 -121c0 -57 43 -93 134 -93zM237 228c69 0 116 69 116 175c0 52 -26 82 -77 82c-68 0 -116 -80 -116 -179c0 -50 25 -78 77 -78z" />
    <glyph glyph-name="h" unicode="h" horiz-adv-x="571" 
d="M379 -9c-27 0 -44 21 -44 47c0 28 6 49 13 80l49 212c22 96 18 122 -15 122c-52 0 -131 -79 -187 -142l-68 -310h-96l135 653c7 33 0 41 -24 51l-43 17l5 28l173 16l9 -8s-16 -54 -28 -117l-34 -168c-10 -52 -18 -80 -25 -106h5c77 90 153 158 225 158
c53 0 80 -38 80 -88c0 -20 -4 -56 -14 -99l-51 -218c-2 -11 -5 -22 -5 -35c0 -23 14 -28 60 0l21 14l16 -23c-59 -53 -101 -84 -157 -84z" />
    <glyph glyph-name="i" unicode="i" horiz-adv-x="286" 
d="M90 -9c-27 0 -43 21 -43 47c0 28 4 49 12 80l67 269c3 15 7 30 7 39c0 22 -18 19 -55 -4l-23 -14l-15 21c67 65 116 95 159 95c25 0 36 -18 36 -42c0 -28 -7 -63 -18 -108l-62 -255c-3 -12 -5 -22 -5 -35c0 -23 18 -24 60 0l25 16l15 -23c-59 -54 -104 -86 -160 -86z
M209 615c-38 0 -67 32 -67 64c0 35 29 64 67 64c37 0 66 -29 66 -64c0 -32 -29 -64 -66 -64z" />
    <glyph glyph-name="j" unicode="j" horiz-adv-x="278" 
d="M-57 -226c-62 0 -93 32 -93 64c0 33 19 50 45 50c34 0 48 -13 56 -54c3 -18 8 -23 16 -23c28 0 60 28 77 127l82 449c3 17 7 30 7 39c0 22 -16 20 -55 -4l-23 -14l-15 21c67 65 116 95 159 95c25 0 36 -18 36 -42c0 -28 -7 -63 -16 -108l-66 -337
c-40 -204 -125 -263 -210 -263zM209 615c-38 0 -67 32 -67 64c0 35 29 64 67 64c37 0 66 -29 66 -64c0 -32 -29 -64 -66 -64z" />
    <glyph glyph-name="k" unicode="k" horiz-adv-x="520" 
d="M350 -9c-19 0 -41 23 -63 74c-21 45 -45 103 -81 199v13c128 186 198 247 266 247c29 0 57 -17 57 -60c0 -35 -21 -54 -47 -54c-43 0 -41 46 -53 46c-33 0 -106 -83 -148 -142c38 -99 60 -146 83 -197c29 -61 42 -62 86 -33l23 15l17 -24c-61 -55 -100 -84 -140 -84z
M31 0l135 653c7 33 0 41 -24 51l-43 17l5 28l173 16l9 -8s-15 -54 -28 -117l-131 -640h-96z" />
    <glyph glyph-name="l" unicode="l" horiz-adv-x="287" 
d="M89 -9c-27 0 -43 21 -43 47c0 28 6 49 12 80l105 535c6 33 0 42 -24 51l-46 17l5 28l176 16l9 -8s-16 -54 -28 -117l-99 -521c-2 -11 -5 -22 -5 -35c0 -23 19 -24 64 2l22 14l15 -23c-61 -56 -107 -86 -163 -86z" />
    <glyph glyph-name="m" unicode="m" horiz-adv-x="845" 
d="M653 -9c-27 0 -43 21 -43 47c0 28 5 49 12 80l47 212c22 96 18 122 -14 122c-45 0 -112 -75 -167 -135l-70 -317h-97l73 330c21 96 16 122 -17 122c-46 0 -114 -78 -170 -138l-68 -314h-97l84 387c3 14 7 31 7 40c0 21 -14 20 -56 -5l-20 -12l-14 21c64 63 106 93 149 93
c25 0 37 -18 37 -42c0 -27 -12 -86 -18 -112h5c76 83 139 154 209 154c52 0 76 -38 76 -88c0 -13 -1 -40 -5 -60h4c78 88 132 148 203 148c52 0 78 -38 78 -88c0 -20 -5 -56 -14 -99l-49 -218c-2 -11 -5 -22 -5 -35c0 -23 18 -24 60 0l22 14l15 -23
c-58 -53 -101 -84 -157 -84z" />
    <glyph glyph-name="n" unicode="n" horiz-adv-x="582" 
d="M390 -9c-27 0 -43 21 -43 47c0 28 5 49 12 80l49 212c22 96 18 122 -14 122c-52 0 -134 -80 -188 -142l-67 -310h-97l84 387c3 14 7 31 7 40c0 21 -14 20 -56 -5l-20 -12l-14 21c64 63 106 93 149 93c25 0 37 -18 37 -42c0 -28 -13 -90 -19 -116h5c78 90 151 158 226 158
c53 0 79 -38 79 -88c0 -20 -4 -56 -14 -99l-51 -218c-2 -11 -5 -22 -5 -35c0 -23 14 -28 60 0l21 14l16 -23c-59 -53 -101 -84 -157 -84z" />
    <glyph glyph-name="o" unicode="o" horiz-adv-x="530" 
d="M221 -14c-129 0 -193 96 -193 205c0 217 161 334 282 334c126 0 192 -96 192 -202c0 -223 -160 -337 -281 -337zM221 28c112 0 183 160 183 331c0 80 -34 125 -96 125c-110 0 -182 -154 -182 -331c0 -80 31 -125 95 -125z" />
    <glyph glyph-name="p" unicode="p" horiz-adv-x="568" 
d="M-63 -219l5 29l43 11c22 5 30 13 38 52l103 514c3 16 7 31 7 40c0 21 -14 20 -56 -5l-20 -12l-14 21c64 63 106 93 149 93c25 0 38 -18 38 -42c0 -28 -8 -71 -18 -109h4c52 63 131 151 217 151c69 0 113 -59 113 -147c0 -231 -149 -390 -302 -390c-47 0 -79 7 -102 19
c0 0 -4 -33 -11 -64l-13 -69c-8 -42 -5 -48 16 -52l52 -11l-6 -29h-243zM255 29c109 0 192 146 192 351c0 57 -20 77 -52 77c-58 0 -141 -86 -190 -146l-45 -228c21 -31 50 -54 95 -54z" />
    <glyph glyph-name="q" unicode="q" horiz-adv-x="535" 
d="M192 -219l7 29l50 12c25 6 31 9 41 51l29 135c12 55 27 101 35 129h-4c-45 -67 -127 -150 -211 -150c-72 0 -118 56 -118 141c0 217 185 396 322 396c63 0 92 -14 121 -33h4l46 38l20 -7s-18 -43 -42 -156l-108 -493c-8 -39 -7 -50 15 -54l43 -9l-7 -29h-243zM176 50
c65 0 136 90 186 156l46 226c-11 24 -29 51 -72 51c-105 0 -218 -171 -218 -346c0 -62 26 -87 58 -87z" />
    <glyph glyph-name="r" unicode="r" horiz-adv-x="444" 
d="M42 0l84 387c3 14 7 31 7 40c0 21 -14 20 -56 -5l-20 -12l-14 21c64 63 106 93 149 93c25 0 37 -18 37 -42c0 -28 -20 -123 -26 -149h5c52 86 122 191 196 191c33 0 59 -18 59 -55c0 -38 -26 -61 -55 -61c-40 0 -43 28 -64 28c-26 0 -89 -80 -149 -179l-56 -257h-97z" />
    <glyph glyph-name="s" unicode="s" horiz-adv-x="398" 
d="M154 -11c-113 0 -160 46 -160 86c0 33 19 48 49 48c33 0 45 -12 60 -65c5 -19 19 -28 62 -28c53 0 100 29 100 77c0 39 -32 74 -97 127c-61 51 -93 89 -93 143c0 94 90 147 181 147c94 0 137 -43 137 -82c0 -25 -12 -44 -44 -44c-38 0 -49 27 -59 61c-7 19 -20 25 -47 25
c-51 0 -91 -24 -91 -69c0 -36 18 -67 92 -123c66 -49 98 -100 98 -153c0 -91 -88 -150 -188 -150z" />
    <glyph glyph-name="t" unicode="t" horiz-adv-x="332" 
d="M101 -10c-39 0 -54 24 -54 63c0 17 4 41 9 65l75 339h-74l5 29l79 22l18 83l75 38h29l-26 -120h115l-12 -52h-114l-70 -321c-4 -18 -9 -36 -9 -51c0 -29 17 -37 101 17l24 15l18 -21c-79 -74 -137 -106 -189 -106z" />
    <glyph glyph-name="u" unicode="u" horiz-adv-x="579" 
d="M137 -15c-53 0 -80 38 -80 88c0 20 4 56 14 99l52 219c3 12 6 25 6 36c0 22 -16 20 -57 -5l-19 -12l-15 21c64 63 107 93 151 93c28 0 41 -25 41 -53s-5 -49 -12 -80l-49 -212c-22 -96 -18 -122 15 -122c52 0 129 79 185 142l66 310h97l-85 -390c-2 -11 -5 -22 -5 -35
c0 -23 16 -26 60 0l21 14l15 -23c-58 -53 -113 -90 -156 -90c-25 0 -40 24 -40 48c0 28 12 77 22 110h-5c-78 -90 -148 -158 -222 -158z" />
    <glyph glyph-name="v" unicode="v" horiz-adv-x="474" 
d="M128 0c0 203 -8 304 -18 384c-8 66 -18 72 -66 40l-25 -15l-15 22c55 58 103 93 145 93c33 0 46 -31 54 -110c9 -84 13 -164 12 -308h4c93 103 178 233 178 285c0 43 -30 51 -30 89c0 26 24 45 52 45c39 0 61 -24 61 -64c0 -97 -155 -320 -300 -461h-52z" />
    <glyph glyph-name="w" unicode="w" horiz-adv-x="714" 
d="M128 0c0 203 -8 304 -18 384c-8 66 -19 70 -66 40l-25 -15l-15 22c55 58 103 93 146 93c33 0 43 -31 51 -110c9 -84 16 -160 15 -303h4c59 73 124 166 165 236c-1 22 -1 33 -3 58c-4 48 -17 50 -60 24l-23 -14l-16 22c41 43 99 87 136 87c34 0 48 -31 52 -110
c4 -84 5 -166 0 -307h4c93 103 162 228 162 284c0 43 -31 51 -31 89c0 26 24 45 54 45c38 0 60 -24 60 -64c0 -97 -142 -318 -285 -461h-47c1 119 4 208 2 277h-2c-56 -90 -139 -201 -208 -277h-52z" />
    <glyph glyph-name="x" unicode="x" horiz-adv-x="502" 
d="M43 -12c-39 0 -60 19 -60 53c0 33 20 50 48 50c36 0 55 -36 79 -4c35 44 63 101 94 179c-12 51 -22 85 -33 124c-17 60 -24 66 -74 34l-25 -15l-15 22c55 58 103 93 143 93c30 0 37 -29 50 -77c13 -47 18 -78 31 -139h3c26 66 62 131 87 162c29 38 59 54 93 54
c33 0 54 -19 54 -51c0 -31 -20 -51 -48 -51c-36 0 -49 31 -78 0c-33 -35 -61 -92 -91 -166c14 -56 25 -99 34 -131c20 -70 25 -69 78 -39l25 14l16 -25c-58 -53 -103 -84 -143 -84c-29 0 -42 24 -58 89c-12 48 -21 91 -29 134h-3c-24 -69 -65 -144 -92 -177
c-27 -34 -58 -49 -86 -49z" />
    <glyph glyph-name="y" unicode="y" horiz-adv-x="492" 
d="M-10 -232c-46 0 -69 24 -69 55c0 34 20 52 46 52c44 0 47 -35 78 -35c26 0 77 34 147 117c-24 195 -45 344 -64 418c-21 75 -31 75 -71 48l-24 -16l-16 24c55 58 103 93 137 93c26 0 44 -12 58 -71c29 -126 46 -271 56 -388h5c80 116 144 245 144 315c0 46 -32 57 -32 99
c0 26 21 46 52 46c37 0 61 -24 61 -64c0 -90 -86 -280 -206 -443c-110 -152 -217 -250 -302 -250z" />
    <glyph glyph-name="z" unicode="z" horiz-adv-x="454" 
d="M270 -18c-78 0 -107 90 -179 90c-24 0 -42 -26 -63 -86h-12l-49 36v12c48 34 79 59 123 104l245 258c-94 10 -124 59 -196 59c-11 0 -18 -6 -18 -13c0 -12 37 -24 37 -52c0 -24 -19 -45 -47 -45c-33 0 -49 25 -49 51c0 43 61 128 144 128c76 0 122 -87 159 -87
c19 0 35 30 53 86h13l54 -36v-13c-35 -24 -61 -43 -113 -97l-246 -263c87 -7 139 -43 178 -43c23 0 46 13 85 68l23 -15c-45 -78 -84 -142 -142 -142z" />
    <glyph glyph-name="braceleft" unicode="{" horiz-adv-x="340" 
d="M238 -130c-137 23 -189 47 -189 105c0 65 94 211 94 260c0 30 -20 52 -105 65l7 38c111 2 127 38 127 76c0 46 -13 140 -13 196c0 92 48 117 224 124l-6 -30c-115 -15 -129 -23 -129 -119c0 -58 4 -95 4 -146c0 -61 -17 -99 -145 -122v-4c78 -20 108 -50 108 -94
c0 -60 -76 -180 -76 -257c0 -29 26 -41 106 -63z" />
    <glyph glyph-name="bar" unicode="|" horiz-adv-x="248" 
d="M112 -130v864h57v-864h-57z" />
    <glyph glyph-name="braceright" unicode="}" horiz-adv-x="340" 
d="M-28 -130l7 30c114 15 128 23 128 119c0 58 -4 99 -4 150c0 61 17 98 145 121v4c-78 20 -108 51 -108 95c0 60 76 176 76 253c0 29 -25 41 -105 63l6 29c137 -23 189 -47 189 -105c0 -65 -94 -207 -94 -256c0 -30 20 -52 105 -65l-7 -38c-111 -2 -127 -38 -127 -76
c0 -46 13 -144 13 -200c0 -92 -48 -117 -224 -124z" />
    <glyph glyph-name="asciitilde" unicode="~" horiz-adv-x="378" 
d="M55 225l-22 13c36 63 61 107 104 107c47 0 97 -32 134 -32c21 0 41 18 63 49l23 -13c-37 -63 -61 -107 -105 -107c-47 0 -95 32 -134 32c-20 0 -41 -18 -63 -49z" />
    <glyph glyph-name="Adieresis" unicode="&#xc4;" horiz-adv-x="647" 
d="M-45 0l6 31l31 7c28 7 41 15 88 103l295 552h66l93 -563c13 -71 22 -87 46 -92l26 -7l-7 -31h-244l5 31l29 7c37 8 43 24 43 43c0 25 -3 38 -6 58l-15 94h-224l-48 -94c-14 -28 -28 -53 -28 -70s6 -26 27 -31l32 -7l-6 -31h-209zM355 563l-145 -285h194l-44 285h-5z
M315 751c-33 0 -61 26 -61 60c0 36 31 66 68 66c30 0 60 -27 60 -60c0 -35 -32 -66 -67 -66zM532 751c-33 0 -61 26 -61 60c0 36 31 66 67 66c32 0 60 -27 60 -60c0 -35 -31 -66 -66 -66z" />
    <glyph glyph-name="Aring" unicode="&#xc5;" horiz-adv-x="647" 
d="M-45 0l6 31l31 7c28 7 41 15 88 103l295 552h66l93 -563c13 -71 22 -87 46 -92l26 -7l-7 -31h-244l5 31l29 7c37 8 43 24 43 43c0 25 -3 38 -6 58l-15 94h-224l-48 -94c-14 -28 -28 -53 -28 -70s6 -26 27 -31l32 -7l-6 -31h-209zM429 738c-58 0 -102 45 -102 98
c0 55 44 99 102 99s102 -44 102 -99c0 -53 -44 -98 -102 -98zM355 563l-145 -285h194l-44 285h-5zM429 776c35 0 58 25 58 60s-23 61 -58 61s-58 -26 -58 -61s23 -60 58 -60z" />
    <glyph glyph-name="Ccedilla" unicode="&#xc7;" horiz-adv-x="614" 
d="M137 -241l4 26c88 18 122 41 122 72c0 19 -15 34 -59 37l-6 14l56 87c-127 25 -208 124 -208 277c0 253 181 433 390 433c76 0 139 -14 183 -34l-17 -188h-36c-10 49 -26 107 -44 140c-16 29 -34 37 -91 37c-180 0 -273 -198 -273 -412c0 -145 51 -215 174 -215
c60 0 82 13 111 46c31 33 63 81 92 133h34l-47 -191c-41 -19 -109 -33 -199 -33c-9 0 -18 1 -27 1l-39 -44c53 -7 83 -37 83 -72c0 -55 -66 -101 -203 -114z" />
    <glyph glyph-name="Eacute" unicode="&#xc9;" horiz-adv-x="604" 
d="M-16 0l6 31l47 9c23 5 32 10 41 60l88 494c8 48 5 55 -20 60l-44 9l6 30h482l-1 -177h-34c-18 49 -28 77 -38 94c-22 34 -41 39 -130 39c-62 0 -86 -4 -106 -9l-46 -257h46c65 0 89 2 108 30c11 17 21 38 34 70h35l-43 -248h-34c-2 33 -4 50 -9 71c-8 28 -26 31 -115 31
h-30l-33 -185c-16 -95 -10 -108 103 -108c98 0 120 10 149 41c19 21 54 69 85 124h38l-59 -209h-526zM301 748l-10 22l162 114c16 11 28 15 39 15c24 0 39 -21 39 -39c0 -22 -12 -39 -42 -49z" />
    <glyph glyph-name="Ntilde" unicode="&#xd1;" horiz-adv-x="683" 
d="M491 -4l-265 619h-3l-91 -505c-10 -57 1 -67 40 -74l32 -5l-5 -31h-215l6 31l36 7c32 6 44 15 55 79l85 477c8 48 5 55 -20 60l-44 9l6 30h195l218 -513h3l72 404c10 55 2 67 -29 72l-43 7l7 30h210l-6 -30l-32 -7c-31 -7 -44 -18 -55 -82l-105 -578h-52zM318 753l-32 14
c38 83 68 124 110 124c41 0 118 -41 143 -41c21 0 38 20 67 66l31 -13c-38 -83 -68 -124 -110 -124c-41 0 -115 41 -143 41c-21 0 -37 -20 -66 -67z" />
    <glyph glyph-name="Odieresis" unicode="&#xd6;" horiz-adv-x="691" 
d="M312 -12c-146 0 -267 103 -267 281c0 254 187 437 369 437c148 0 261 -110 261 -286c0 -252 -179 -432 -363 -432zM318 36c157 0 245 199 245 419c0 103 -29 202 -152 202c-162 0 -254 -205 -254 -416c0 -110 32 -205 161 -205zM328 751c-33 0 -61 26 -61 60
c0 36 31 66 68 66c30 0 60 -27 60 -60c0 -35 -32 -66 -67 -66zM545 751c-33 0 -61 26 -61 60c0 36 31 66 67 66c32 0 60 -27 60 -60c0 -35 -31 -66 -66 -66z" />
    <glyph glyph-name="Udieresis" unicode="&#xdc;" horiz-adv-x="680" 
d="M332 -12c-172 0 -273 79 -241 258l62 348c8 48 5 55 -20 60l-43 9l6 30h257l-6 -30l-46 -9c-26 -5 -32 -10 -41 -60l-64 -358c-25 -138 22 -195 151 -195c123 0 163 66 183 176l65 367c11 60 -2 68 -36 73l-38 6l8 30h216l-7 -30l-36 -7c-27 -5 -44 -16 -54 -72l-69 -381
c-21 -117 -86 -215 -247 -215zM350 751c-33 0 -61 26 -61 60c0 36 31 66 68 66c30 0 60 -27 60 -60c0 -35 -32 -66 -67 -66zM567 751c-33 0 -61 26 -61 60c0 36 31 66 67 66c32 0 60 -27 60 -60c0 -35 -31 -66 -66 -66z" />
    <glyph glyph-name="aacute" unicode="&#xe1;" horiz-adv-x="551" 
d="M131 -13c-71 0 -111 58 -111 133c0 227 183 404 311 404c68 0 86 -15 110 -33h4l50 38l20 -7s-19 -40 -42 -156l-46 -246c-2 -13 -4 -23 -4 -36c0 -21 16 -23 57 0l22 14l15 -23c-58 -53 -102 -84 -153 -84c-32 0 -42 29 -42 53c0 22 5 56 12 84h-4
c-44 -63 -114 -141 -199 -141zM169 50c64 0 128 87 178 153l47 231c-10 25 -27 49 -70 49c-95 0 -207 -163 -207 -354c0 -53 20 -79 52 -79zM274 595l-10 22l162 114c16 11 28 15 39 15c24 0 39 -21 39 -39c0 -22 -12 -39 -42 -49z" />
    <glyph glyph-name="agrave" unicode="&#xe0;" horiz-adv-x="551" 
d="M131 -13c-71 0 -111 58 -111 133c0 227 183 404 311 404c68 0 86 -15 110 -33h4l50 38l20 -7s-19 -40 -42 -156l-46 -246c-2 -13 -4 -23 -4 -36c0 -21 16 -23 57 0l22 14l15 -23c-58 -53 -102 -84 -153 -84c-32 0 -42 29 -42 53c0 22 5 56 12 84h-4
c-44 -63 -114 -141 -199 -141zM169 50c64 0 128 87 178 153l47 231c-10 25 -27 49 -70 49c-95 0 -207 -163 -207 -354c0 -53 20 -79 52 -79zM442 593l-195 64c-28 9 -37 29 -37 46c0 21 18 43 41 43c12 0 24 -5 39 -15l163 -114z" />
    <glyph glyph-name="acircumflex" unicode="&#xe2;" horiz-adv-x="551" 
d="M131 -13c-71 0 -111 58 -111 133c0 227 183 404 311 404c68 0 86 -15 110 -33h4l50 38l20 -7s-19 -40 -42 -156l-46 -246c-2 -13 -4 -23 -4 -36c0 -21 16 -23 57 0l22 14l15 -23c-58 -53 -102 -84 -153 -84c-32 0 -42 29 -42 53c0 22 5 56 12 84h-4
c-44 -63 -114 -141 -199 -141zM169 50c64 0 128 87 178 153l47 231c-10 25 -27 49 -70 49c-95 0 -207 -163 -207 -354c0 -53 20 -79 52 -79zM202 582l-14 20l159 150h43l106 -150l-16 -20l-122 88z" />
    <glyph glyph-name="adieresis" unicode="&#xe4;" horiz-adv-x="551" 
d="M131 -13c-71 0 -111 58 -111 133c0 227 183 404 311 404c68 0 86 -15 110 -33h4l50 38l20 -7s-19 -40 -42 -156l-46 -246c-2 -13 -4 -23 -4 -36c0 -21 16 -23 57 0l22 14l15 -23c-58 -53 -102 -84 -153 -84c-32 0 -42 29 -42 53c0 22 5 56 12 84h-4
c-44 -63 -114 -141 -199 -141zM169 50c64 0 128 87 178 153l47 231c-10 25 -27 49 -70 49c-95 0 -207 -163 -207 -354c0 -53 20 -79 52 -79zM253 616c-33 0 -61 26 -61 60c0 36 31 66 68 66c30 0 60 -27 60 -60c0 -35 -32 -66 -67 -66zM453 616c-33 0 -61 26 -61 60
c0 36 31 66 67 66c32 0 60 -27 60 -60c0 -35 -31 -66 -66 -66z" />
    <glyph glyph-name="atilde" unicode="&#xe3;" horiz-adv-x="551" 
d="M131 -13c-71 0 -111 58 -111 133c0 227 183 404 311 404c68 0 86 -15 110 -33h4l50 38l20 -7s-19 -40 -42 -156l-46 -246c-2 -13 -4 -23 -4 -36c0 -21 16 -23 57 0l22 14l15 -23c-58 -53 -102 -84 -153 -84c-32 0 -42 29 -42 53c0 22 5 56 12 84h-4
c-44 -63 -114 -141 -199 -141zM169 50c64 0 128 87 178 153l47 231c-10 25 -27 49 -70 49c-95 0 -207 -163 -207 -354c0 -53 20 -79 52 -79zM215 583l-32 14c38 83 68 124 110 124c41 0 108 -41 133 -41c21 0 38 20 67 66l31 -13c-38 -83 -68 -124 -110 -124
c-41 0 -105 41 -133 41c-21 0 -37 -20 -66 -67z" />
    <glyph glyph-name="aring" unicode="&#xe5;" horiz-adv-x="551" 
d="M131 -13c-71 0 -111 58 -111 133c0 227 183 404 311 404c68 0 86 -15 110 -33h4l50 38l20 -7s-19 -40 -42 -156l-46 -246c-2 -13 -4 -23 -4 -36c0 -21 16 -23 57 0l22 14l15 -23c-58 -53 -102 -84 -153 -84c-32 0 -42 29 -42 53c0 22 5 56 12 84h-4
c-44 -63 -114 -141 -199 -141zM169 50c64 0 128 87 178 153l47 231c-10 25 -27 49 -70 49c-95 0 -207 -163 -207 -354c0 -53 20 -79 52 -79zM356 588c-58 0 -102 45 -102 98c0 55 44 99 102 99s102 -44 102 -99c0 -53 -44 -98 -102 -98zM356 626c35 0 58 25 58 60
s-23 61 -58 61s-58 -26 -58 -61s23 -60 58 -60z" />
    <glyph glyph-name="ccedilla" unicode="&#xe7;" horiz-adv-x="452" 
d="M4 -241l4 26c88 18 122 41 122 72c0 19 -15 34 -59 37l-6 14l56 87c-59 20 -95 76 -95 142c0 227 169 387 308 387c83 0 126 -35 126 -77c0 -36 -16 -57 -51 -57c-36 0 -55 14 -59 66c-2 22 -8 27 -30 27c-95 0 -196 -161 -196 -332c0 -75 32 -109 90 -109
c54 0 107 38 157 83l21 -25c-43 -49 -113 -114 -218 -114c-5 0 -9 0 -13 1l-37 -42c53 -7 83 -37 83 -72c0 -55 -66 -101 -203 -114z" />
    <glyph glyph-name="eacute" unicode="&#xe9;" horiz-adv-x="456" 
d="M174 -14c-94 0 -148 67 -148 151c0 227 196 388 320 388c76 0 113 -42 113 -102c0 -88 -145 -173 -331 -215c-3 -19 -4 -38 -4 -57c0 -71 34 -111 88 -111c60 0 104 36 158 79l21 -24c-42 -45 -115 -109 -217 -109zM323 484c-64 0 -156 -100 -188 -234
c86 22 141 47 178 78c34 28 50 65 50 103c0 35 -16 53 -40 53zM270 595l-10 22l162 114c16 11 28 15 39 15c24 0 39 -21 39 -39c0 -22 -12 -39 -42 -49z" />
    <glyph glyph-name="egrave" unicode="&#xe8;" horiz-adv-x="456" 
d="M174 -14c-94 0 -148 67 -148 151c0 227 196 388 320 388c76 0 113 -42 113 -102c0 -88 -145 -173 -331 -215c-3 -19 -4 -38 -4 -57c0 -71 34 -111 88 -111c60 0 104 36 158 79l21 -24c-42 -45 -115 -109 -217 -109zM323 484c-64 0 -156 -100 -188 -234
c86 22 141 47 178 78c34 28 50 65 50 103c0 35 -16 53 -40 53zM439 593l-195 64c-28 9 -37 29 -37 46c0 21 18 43 41 43c12 0 24 -5 39 -15l163 -114z" />
    <glyph glyph-name="ecircumflex" unicode="&#xea;" horiz-adv-x="456" 
d="M174 -14c-94 0 -148 67 -148 151c0 227 196 388 320 388c76 0 113 -42 113 -102c0 -88 -145 -173 -331 -215c-3 -19 -4 -38 -4 -57c0 -71 34 -111 88 -111c60 0 104 36 158 79l21 -24c-42 -45 -115 -109 -217 -109zM323 484c-64 0 -156 -100 -188 -234
c86 22 141 47 178 78c34 28 50 65 50 103c0 35 -16 53 -40 53zM199 582l-14 20l159 150h43l106 -150l-16 -20l-122 88z" />
    <glyph glyph-name="edieresis" unicode="&#xeb;" horiz-adv-x="456" 
d="M174 -14c-94 0 -148 67 -148 151c0 227 196 388 320 388c76 0 113 -42 113 -102c0 -88 -145 -173 -331 -215c-3 -19 -4 -38 -4 -57c0 -71 34 -111 88 -111c60 0 104 36 158 79l21 -24c-42 -45 -115 -109 -217 -109zM323 484c-64 0 -156 -100 -188 -234
c86 22 141 47 178 78c34 28 50 65 50 103c0 35 -16 53 -40 53zM250 616c-33 0 -61 26 -61 60c0 36 31 66 68 66c30 0 60 -27 60 -60c0 -35 -32 -66 -67 -66zM450 616c-33 0 -61 26 -61 60c0 36 31 66 67 66c32 0 60 -27 60 -60c0 -35 -31 -66 -66 -66z" />
    <glyph glyph-name="iacute" unicode="&#xed;" horiz-adv-x="286" 
d="M90 -9c-27 0 -43 21 -43 47c0 28 4 49 12 80l67 269c3 15 7 30 7 39c0 22 -18 19 -55 -4l-23 -14l-15 21c67 65 116 95 159 95c25 0 36 -18 36 -42c0 -28 -7 -63 -18 -108l-62 -255c-3 -12 -5 -22 -5 -35c0 -23 18 -24 60 0l25 16l15 -23c-59 -54 -104 -86 -160 -86z
M135 595l-10 22l162 114c16 11 28 15 39 15c24 0 39 -21 39 -39c0 -22 -12 -39 -42 -49z" />
    <glyph glyph-name="igrave" unicode="&#xec;" horiz-adv-x="286" 
d="M90 -9c-27 0 -43 21 -43 47c0 28 4 49 12 80l67 269c3 15 7 30 7 39c0 22 -18 19 -55 -4l-23 -14l-15 21c67 65 116 95 159 95c25 0 36 -18 36 -42c0 -28 -7 -63 -18 -108l-62 -255c-3 -12 -5 -22 -5 -35c0 -23 18 -24 60 0l25 16l15 -23c-59 -54 -104 -86 -160 -86z
M304 593l-195 64c-28 9 -37 29 -37 46c0 21 18 43 41 43c12 0 24 -5 39 -15l163 -114z" />
    <glyph glyph-name="icircumflex" unicode="&#xee;" horiz-adv-x="286" 
d="M90 -9c-27 0 -43 21 -43 47c0 28 4 49 12 80l67 269c3 15 7 30 7 39c0 22 -18 19 -55 -4l-23 -14l-15 21c67 65 116 95 159 95c25 0 36 -18 36 -42c0 -28 -7 -63 -18 -108l-62 -255c-3 -12 -5 -22 -5 -35c0 -23 18 -24 60 0l25 16l15 -23c-59 -54 -104 -86 -160 -86z
M63 582l-14 20l159 150h43l106 -150l-16 -20l-122 88z" />
    <glyph glyph-name="idieresis" unicode="&#xef;" horiz-adv-x="286" 
d="M90 -9c-27 0 -43 21 -43 47c0 28 4 49 12 80l67 269c3 15 7 30 7 39c0 22 -18 19 -55 -4l-23 -14l-15 21c67 65 116 95 159 95c25 0 36 -18 36 -42c0 -28 -7 -63 -18 -108l-62 -255c-3 -12 -5 -22 -5 -35c0 -23 18 -24 60 0l25 16l15 -23c-59 -54 -104 -86 -160 -86z
M114 616c-33 0 -61 26 -61 60c0 36 31 66 68 66c30 0 60 -27 60 -60c0 -35 -32 -66 -67 -66zM314 616c-33 0 -61 26 -61 60c0 36 31 66 67 66c32 0 60 -27 60 -60c0 -35 -31 -66 -66 -66z" />
    <glyph glyph-name="ntilde" unicode="&#xf1;" horiz-adv-x="582" 
d="M390 -9c-27 0 -43 21 -43 47c0 28 5 49 12 80l49 212c22 96 18 122 -14 122c-52 0 -134 -80 -188 -142l-67 -310h-97l84 387c3 14 7 31 7 40c0 21 -14 20 -56 -5l-20 -12l-14 21c64 63 106 93 149 93c25 0 37 -18 37 -42c0 -28 -13 -90 -19 -116h5c78 90 151 158 226 158
c53 0 79 -38 79 -88c0 -20 -4 -56 -14 -99l-51 -218c-2 -11 -5 -22 -5 -35c0 -23 14 -28 60 0l21 14l16 -23c-59 -53 -101 -84 -157 -84zM224 583l-32 14c38 83 68 124 110 124c41 0 108 -41 133 -41c21 0 38 20 67 66l31 -13c-38 -83 -68 -124 -110 -124
c-41 0 -105 41 -133 41c-21 0 -37 -20 -66 -67z" />
    <glyph glyph-name="oacute" unicode="&#xf3;" horiz-adv-x="530" 
d="M221 -14c-129 0 -193 96 -193 205c0 217 161 334 282 334c126 0 192 -96 192 -202c0 -223 -160 -337 -281 -337zM221 28c112 0 183 160 183 331c0 80 -34 125 -96 125c-110 0 -182 -154 -182 -331c0 -80 31 -125 95 -125zM258 595l-10 22l162 114c16 11 28 15 39 15
c24 0 39 -21 39 -39c0 -22 -12 -39 -42 -49z" />
    <glyph glyph-name="ograve" unicode="&#xf2;" horiz-adv-x="530" 
d="M221 -14c-129 0 -193 96 -193 205c0 217 161 334 282 334c126 0 192 -96 192 -202c0 -223 -160 -337 -281 -337zM221 28c112 0 183 160 183 331c0 80 -34 125 -96 125c-110 0 -182 -154 -182 -331c0 -80 31 -125 95 -125zM427 593l-195 64c-28 9 -37 29 -37 46
c0 21 18 43 41 43c12 0 24 -5 39 -15l163 -114z" />
    <glyph glyph-name="ocircumflex" unicode="&#xf4;" horiz-adv-x="530" 
d="M221 -14c-129 0 -193 96 -193 205c0 217 161 334 282 334c126 0 192 -96 192 -202c0 -223 -160 -337 -281 -337zM221 28c112 0 183 160 183 331c0 80 -34 125 -96 125c-110 0 -182 -154 -182 -331c0 -80 31 -125 95 -125zM187 582l-14 20l159 150h43l106 -150l-16 -20
l-122 88z" />
    <glyph glyph-name="odieresis" unicode="&#xf6;" horiz-adv-x="530" 
d="M221 -14c-129 0 -193 96 -193 205c0 217 161 334 282 334c126 0 192 -96 192 -202c0 -223 -160 -337 -281 -337zM221 28c112 0 183 160 183 331c0 80 -34 125 -96 125c-110 0 -182 -154 -182 -331c0 -80 31 -125 95 -125zM238 616c-33 0 -61 26 -61 60c0 36 31 66 68 66
c30 0 60 -27 60 -60c0 -35 -32 -66 -67 -66zM438 616c-33 0 -61 26 -61 60c0 36 31 66 67 66c32 0 60 -27 60 -60c0 -35 -31 -66 -66 -66z" />
    <glyph glyph-name="otilde" unicode="&#xf5;" horiz-adv-x="530" 
d="M221 -14c-129 0 -193 96 -193 205c0 217 161 334 282 334c126 0 192 -96 192 -202c0 -223 -160 -337 -281 -337zM221 28c112 0 183 160 183 331c0 80 -34 125 -96 125c-110 0 -182 -154 -182 -331c0 -80 31 -125 95 -125zM199 583l-32 14c38 83 68 124 110 124
c41 0 108 -41 133 -41c21 0 38 20 67 66l31 -13c-38 -83 -68 -124 -110 -124c-41 0 -105 41 -133 41c-21 0 -37 -20 -66 -67z" />
    <glyph glyph-name="uacute" unicode="&#xfa;" horiz-adv-x="579" 
d="M137 -15c-53 0 -80 38 -80 88c0 20 4 56 14 99l52 219c3 12 6 25 6 36c0 22 -16 20 -57 -5l-19 -12l-15 21c64 63 107 93 151 93c28 0 41 -25 41 -53s-5 -49 -12 -80l-49 -212c-22 -96 -18 -122 15 -122c52 0 129 79 185 142l66 310h97l-85 -390c-2 -11 -5 -22 -5 -35
c0 -23 16 -26 60 0l21 14l15 -23c-58 -53 -113 -90 -156 -90c-25 0 -40 24 -40 48c0 28 12 77 22 110h-5c-78 -90 -148 -158 -222 -158zM272 595l-10 22l162 114c16 11 28 15 39 15c24 0 39 -21 39 -39c0 -22 -12 -39 -42 -49z" />
    <glyph glyph-name="ugrave" unicode="&#xf9;" horiz-adv-x="579" 
d="M137 -15c-53 0 -80 38 -80 88c0 20 4 56 14 99l52 219c3 12 6 25 6 36c0 22 -16 20 -57 -5l-19 -12l-15 21c64 63 107 93 151 93c28 0 41 -25 41 -53s-5 -49 -12 -80l-49 -212c-22 -96 -18 -122 15 -122c52 0 129 79 185 142l66 310h97l-85 -390c-2 -11 -5 -22 -5 -35
c0 -23 16 -26 60 0l21 14l15 -23c-58 -53 -113 -90 -156 -90c-25 0 -40 24 -40 48c0 28 12 77 22 110h-5c-78 -90 -148 -158 -222 -158zM441 593l-195 64c-28 9 -37 29 -37 46c0 21 18 43 41 43c12 0 24 -5 39 -15l163 -114z" />
    <glyph glyph-name="ucircumflex" unicode="&#xfb;" horiz-adv-x="579" 
d="M137 -15c-53 0 -80 38 -80 88c0 20 4 56 14 99l52 219c3 12 6 25 6 36c0 22 -16 20 -57 -5l-19 -12l-15 21c64 63 107 93 151 93c28 0 41 -25 41 -53s-5 -49 -12 -80l-49 -212c-22 -96 -18 -122 15 -122c52 0 129 79 185 142l66 310h97l-85 -390c-2 -11 -5 -22 -5 -35
c0 -23 16 -26 60 0l21 14l15 -23c-58 -53 -113 -90 -156 -90c-25 0 -40 24 -40 48c0 28 12 77 22 110h-5c-78 -90 -148 -158 -222 -158zM201 582l-14 20l159 150h43l106 -150l-16 -20l-122 88z" />
    <glyph glyph-name="udieresis" unicode="&#xfc;" horiz-adv-x="579" 
d="M137 -15c-53 0 -80 38 -80 88c0 20 4 56 14 99l52 219c3 12 6 25 6 36c0 22 -16 20 -57 -5l-19 -12l-15 21c64 63 107 93 151 93c28 0 41 -25 41 -53s-5 -49 -12 -80l-49 -212c-22 -96 -18 -122 15 -122c52 0 129 79 185 142l66 310h97l-85 -390c-2 -11 -5 -22 -5 -35
c0 -23 16 -26 60 0l21 14l15 -23c-58 -53 -113 -90 -156 -90c-25 0 -40 24 -40 48c0 28 12 77 22 110h-5c-78 -90 -148 -158 -222 -158zM252 616c-33 0 -61 26 -61 60c0 36 31 66 68 66c30 0 60 -27 60 -60c0 -35 -32 -66 -67 -66zM452 616c-33 0 -61 26 -61 60
c0 36 31 66 67 66c32 0 60 -27 60 -60c0 -35 -31 -66 -66 -66z" />
    <glyph glyph-name="dagger" unicode="&#x2020;" horiz-adv-x="425" 
d="M139 -67l39 439c26 27 49 75 59 113c-61 0 -95 -17 -122 -17c-29 0 -45 19 -45 42c0 28 20 47 47 47c35 0 60 -32 125 -42c8 55 -13 113 -13 137c0 31 34 49 58 49c23 0 50 -21 50 -50c0 -30 -48 -80 -62 -138c56 0 96 18 124 18s44 -18 44 -43c0 -27 -21 -46 -48 -46
c-35 0 -61 32 -125 41c-4 -38 1 -88 16 -118l-114 -432h-33z" />
    <glyph glyph-name="degree" unicode="&#xb0;" horiz-adv-x="344" 
d="M220 428c-78 0 -135 63 -135 135c0 74 59 140 140 140c78 0 137 -63 137 -134c0 -75 -63 -141 -142 -141zM221 469c52 0 92 45 92 98c0 51 -36 96 -89 96s-91 -45 -91 -96c0 -53 34 -98 88 -98z" />
    <glyph glyph-name="cent" unicode="&#xa2;" horiz-adv-x="480" 
d="M191 -110l17 97c-9 -1 -18 -1 -27 -1c-85 0 -153 61 -153 153c0 202 145 348 275 379l14 78h48l-13 -72h1c97 0 143 -35 143 -77c0 -36 -16 -57 -51 -57c-37 0 -55 14 -59 66c-2 20 -12 29 -41 30l-78 -441c47 14 90 46 127 80l22 -25c-33 -37 -84 -83 -157 -103
l-19 -107h-49zM127 161c0 -80 38 -121 91 -122l77 437c-84 -37 -168 -174 -168 -315z" />
    <glyph glyph-name="sterling" unicode="&#xa3;" horiz-adv-x="502" 
d="M59 334l8 45h58c-3 26 -5 53 -5 78c1 144 102 248 250 248c91 0 144 -32 144 -82c0 -43 -22 -60 -54 -60c-34 0 -55 14 -59 57c-5 38 -8 44 -44 44c-59 0 -117 -47 -129 -147c-5 -36 -7 -89 -9 -138h178l-8 -45h-171l-3 -53c-8 -72 -48 -138 -121 -190v-5h241
c41 0 51 6 100 78h27l-47 -164h-431l13 69c100 53 134 110 136 201c0 19 -1 40 -4 64h-70z" />
    <glyph glyph-name="section" unicode="&#xa7;" horiz-adv-x="541" 
d="M173 -204c-102 0 -148 40 -148 89c0 31 18 51 52 51c37 0 52 -17 56 -53c3 -38 7 -49 48 -49c70 0 102 47 102 100c0 60 -31 100 -117 190c-83 88 -129 137 -129 206c0 74 57 126 136 158c-3 12 -4 24 -4 37c0 103 87 177 200 177c95 0 141 -34 141 -84
c0 -28 -13 -52 -49 -52s-52 14 -55 55c-2 33 -8 44 -47 44c-64 0 -102 -46 -102 -103c0 -58 27 -98 112 -187c85 -90 129 -138 129 -207s-40 -119 -129 -159c2 -13 4 -26 4 -39c-1 -93 -86 -174 -200 -174zM119 367c0 -48 36 -85 117 -173c47 -52 95 -98 120 -149
c37 21 59 49 59 88c0 46 -35 85 -115 172c-48 53 -92 99 -114 149c-35 -15 -67 -43 -67 -87z" />
    <glyph glyph-name="bullet" unicode="&#x2022;" horiz-adv-x="418" 
d="M213 190c-79 0 -144 64 -144 143c0 89 68 159 153 159c80 0 145 -64 145 -146c0 -86 -73 -156 -154 -156z" />
    <glyph glyph-name="paragraph" unicode="&#xb6;" horiz-adv-x="567" 
d="M195 -100l80 446c-8 -1 -17 -2 -33 -2c-107 0 -170 62 -170 155c0 110 79 194 223 194h319l-6 -30l-47 -9c-25 -5 -31 -11 -41 -60l-124 -694h-55l134 751h-92l-133 -751h-55z" />
    <glyph glyph-name="germandbls" unicode="&#xdf;" horiz-adv-x="571" 
d="M-53 -224c-55 0 -87 21 -87 57c0 29 19 45 44 45c28 0 41 -14 49 -46c3 -12 6 -17 15 -17c40 0 53 26 83 213l68 429h-66l5 29l69 23l1 7c26 180 141 251 254 251c94 0 151 -55 151 -116c0 -114 -176 -196 -176 -256c0 -65 173 -142 173 -252c0 -88 -77 -154 -170 -154
c-107 0 -138 43 -138 81c0 28 17 47 44 47c31 0 44 -13 54 -57c5 -21 14 -30 48 -30c52 0 86 30 86 73c0 94 -164 147 -164 249c0 111 154 167 154 295c0 54 -27 79 -70 79c-59 0 -121 -31 -145 -179l-65 -396c-45 -276 -115 -375 -217 -375z" />
    <glyph glyph-name="registered" unicode="&#xae;" horiz-adv-x="586" 
d="M207 319v24l21 6c7 3 8 4 8 20v159c0 15 -1 16 -8 21l-20 5v23h119c76 0 106 -23 106 -68c0 -31 -18 -56 -51 -66v-4c16 -32 29 -54 43 -75c7 -10 12 -13 25 -17l15 -4v-24h-74c-28 38 -47 70 -63 106h-32v-56c0 -16 1 -17 12 -20l20 -6v-24h-121zM328 187
c-145 0 -255 115 -255 256c0 144 110 258 255 258c146 0 259 -114 259 -258c0 -141 -113 -256 -259 -256zM328 227c124 0 210 97 210 216c0 122 -86 218 -210 218s-206 -96 -206 -218c0 -119 82 -216 206 -216zM296 455h24c38 0 53 17 53 50c0 35 -16 42 -51 42h-26v-92z
" />
    <glyph glyph-name="copyright" unicode="&#xa9;" horiz-adv-x="814" 
d="M418 141c-107 0 -193 61 -193 198c0 152 93 210 204 210c58 0 88 -7 114 -14l5 -113h-28c-10 29 -20 45 -31 64c-15 22 -28 26 -69 26c-73 0 -107 -44 -107 -157c0 -132 40 -177 114 -177c31 0 49 5 66 29c10 18 20 36 32 68h27l-7 -111c-27 -11 -68 -23 -127 -23z
M416 -14c-205 0 -361 161 -361 358s156 356 361 356c204 0 363 -159 363 -356s-159 -358 -363 -358zM416 26c184 0 316 143 316 318s-132 316 -316 316c-185 0 -313 -141 -313 -316s128 -318 313 -318z" />
    <glyph glyph-name="trademark" unicode="&#x2122;" horiz-adv-x="851" 
d="M385 355l6 29l24 6c14 4 22 16 27 49l35 191c3 19 -1 23 -12 27l-25 7l6 29h135l48 -236h2l114 236h145l-6 -29l-25 -7c-14 -4 -18 -8 -21 -27l-31 -206c-4 -26 -4 -31 8 -34l25 -6l-5 -29h-157l6 29l26 7c14 4 16 7 21 33l36 230h-4l-145 -290h-37l-55 290h-3l-38 -215
c-5 -35 -3 -44 14 -49l22 -6l-5 -29h-131zM119 355l5 29l34 7c15 4 17 7 21 33l43 239h-5c-39 0 -46 -1 -60 -22c-13 -21 -20 -36 -40 -75h-27l26 127h292l-9 -127h-26c-11 36 -14 55 -24 75c-7 17 -18 22 -49 22h-5l-43 -239c-3 -26 -1 -30 12 -33l31 -7l-4 -29h-172z" />
    <glyph glyph-name="acute" unicode="&#xb4;" horiz-adv-x="520" 
d="M237 595l-10 22l162 114c16 11 28 15 39 15c24 0 39 -21 39 -39c0 -22 -12 -39 -42 -49z" />
    <glyph glyph-name="dieresis" unicode="&#xa8;" horiz-adv-x="520" 
d="M234 616c-33 0 -61 26 -61 60c0 36 31 66 68 66c30 0 60 -27 60 -60c0 -35 -32 -66 -67 -66zM434 616c-33 0 -61 26 -61 60c0 36 31 66 67 66c32 0 60 -27 60 -60c0 -35 -31 -66 -66 -66z" />
    <glyph glyph-name="notequal" unicode="&#x2260;" horiz-adv-x="489" 
d="M52 386v55h232l68 131h56l-68 -131h122v-55h-150l-56 -108h206v-54h-234l-67 -131h-55l67 131h-121v54h149l55 108h-204z" />
    <glyph glyph-name="AE" unicode="&#xc6;" horiz-adv-x="939" 
d="M-41 0l7 31l25 6c29 7 42 14 108 104l376 512c-1 0 -2 1 -2 1l-53 9l7 30h498l-1 -177h-33c-18 49 -28 77 -38 94c-22 34 -42 39 -131 39c-62 0 -81 -4 -101 -9l-45 -257h41c65 0 89 2 108 30c10 17 21 38 34 70h35l-43 -248h-34c-2 33 -4 50 -10 71
c-7 28 -25 31 -114 31h-25l-33 -185c-17 -95 -12 -108 97 -108c98 0 121 10 150 41c19 21 54 69 85 124h37l-59 -209h-519l7 31l46 9c23 5 31 10 40 60l22 121h-222l-59 -82c-23 -34 -39 -58 -39 -75c0 -15 9 -22 29 -26l32 -7l-6 -31h-217zM508 620l-256 -354h197l63 354
h-4z" />
    <glyph glyph-name="Oslash" unicode="&#xd8;" horiz-adv-x="691" 
d="M19 -64l100 130c-46 48 -74 117 -74 203c0 254 187 437 369 437c60 0 114 -18 157 -51l58 75h57l-82 -106c44 -50 71 -119 71 -204c0 -252 -179 -432 -363 -432c-59 0 -114 16 -159 48l-77 -100h-57zM156 241c0 -44 2 -81 11 -112l367 478c-22 32 -60 50 -123 50
c-162 0 -255 -205 -255 -416zM318 36c157 0 246 199 246 419c0 39 -2 75 -9 104l-366 -476c23 -31 63 -47 129 -47z" />
    <glyph glyph-name="plusminus" unicode="&#xb1;" horiz-adv-x="460" 
d="M53 0v56h380v-56h-380zM210 161v159h-156v56h156v159h65v-159h157v-56h-157v-159h-65z" />
    <glyph glyph-name="lessequal" unicode="&#x2264;" horiz-adv-x="460" 
d="M49 0v56h380v-56h-380zM429 134l-380 161v66l380 161v-63l-325 -131l325 -131v-63z" />
    <glyph glyph-name="greaterequal" unicode="&#x2265;" horiz-adv-x="460" 
d="M429 56v-56h-380v56h380zM429 295l-380 -161v63l325 131l-325 131v63l380 -161v-66z" />
    <glyph glyph-name="yen" unicode="&#xa5;" horiz-adv-x="565" 
d="M56 302l8 45h163l-75 220c-21 62 -32 83 -55 89l-25 7l7 30h246l-8 -30l-26 -6c-31 -7 -47 -20 -47 -39c0 -15 7 -29 14 -51l62 -198h4l129 196c17 26 27 51 27 63s-2 21 -29 28l-26 7l8 30h200l-7 -30l-28 -7c-32 -8 -46 -30 -96 -103l-142 -206h165l-8 -45h-177
l-17 -95h176l-8 -45h-176l-11 -62c-9 -48 -6 -55 20 -60l47 -9l-6 -31h-265l6 31l49 9c26 5 33 10 42 60l11 62h-178l8 45h178l18 95h-178z" />
    <glyph glyph-name="ordfeminine" unicode="&#xaa;" horiz-adv-x="509" 
d="M155 241c-62 0 -96 49 -96 116c0 190 154 343 269 343c57 0 78 -13 100 -30h3l46 35l17 -7s-16 -35 -36 -134l-42 -204c-2 -12 -3 -20 -3 -28c0 -17 17 -21 50 0l19 11l15 -24c-47 -43 -93 -76 -141 -76c-32 0 -39 28 -39 48c0 17 3 39 7 59h-3
c-39 -52 -96 -109 -166 -109zM198 302c50 0 100 69 139 119l40 203c-7 17 -21 37 -55 37c-76 0 -169 -134 -169 -295c0 -44 17 -64 45 -64z" />
    <glyph glyph-name="ordmasculine" unicode="&#xba;" horiz-adv-x="492" 
d="M238 245c-115 0 -172 81 -172 175c0 180 134 280 243 280c112 0 170 -83 170 -175c0 -183 -134 -280 -241 -280zM238 284c91 0 145 135 145 282c0 62 -27 95 -76 95c-90 0 -145 -131 -145 -282c0 -62 25 -95 76 -95z" />
    <glyph glyph-name="ae" unicode="&#xe6;" horiz-adv-x="721" 
d="M130 -14c-76 0 -114 47 -114 111c0 104 96 154 301 187l11 67c17 100 0 134 -74 134c-39 0 -49 -8 -51 -38c-3 -44 -21 -63 -56 -63c-32 0 -49 18 -49 48c0 60 81 93 164 93c87 0 143 -29 151 -102c60 66 133 102 190 102c92 0 121 -36 121 -96
c0 -81 -136 -169 -325 -191c-6 -28 -9 -57 -9 -87c0 -71 32 -111 86 -111c58 0 107 34 160 79l21 -24c-42 -45 -115 -109 -217 -109c-71 0 -121 40 -139 98h-3c-41 -52 -95 -98 -168 -98zM293 137c0 38 6 75 15 108c-158 -32 -195 -58 -195 -140c0 -34 18 -60 53 -60
c38 0 88 35 127 82v10zM588 484c-60 0 -142 -86 -179 -206c81 15 143 35 184 69c24 21 37 48 37 90c0 36 -18 47 -42 47z" />
    <glyph glyph-name="oslash" unicode="&#xf8;" horiz-adv-x="530" 
d="M6 -64l76 105c-36 38 -54 92 -54 150c0 217 161 334 282 334c40 0 74 -10 102 -27l50 70h55l-71 -97c37 -38 56 -92 56 -148c0 -223 -160 -337 -281 -337c-42 0 -77 10 -105 27l-55 -77h-55zM221 28c112 0 185 160 185 331c0 19 -1 35 -4 50l-257 -356
c15 -16 38 -25 76 -25zM124 153c0 -19 0 -36 2 -50l256 355c-15 17 -38 26 -74 26c-110 0 -184 -154 -184 -331z" />
    <glyph glyph-name="questiondown" unicode="&#xbf;" horiz-adv-x="439" 
d="M217 -88c-108 0 -203 59 -203 179c0 142 112 199 246 226l19 98h51l-30 -171c-104 -16 -206 -63 -206 -189c0 -71 50 -102 104 -102c29 0 40 8 44 37c5 42 29 55 62 55c30 0 49 -19 49 -49c0 -62 -70 -84 -136 -84zM324 482c-41 0 -73 32 -73 71s32 70 73 70
c40 0 72 -31 72 -70s-32 -71 -72 -71z" />
    <glyph glyph-name="exclamdown" unicode="&#xa1;" horiz-adv-x="270" 
d="M195 482c-41 0 -73 32 -73 71s32 70 73 70c40 0 72 -31 72 -70s-32 -71 -72 -71zM84 -85c-43 0 -73 31 -55 89l122 404h37l-33 -423c-4 -54 -37 -70 -71 -70z" />
    <glyph glyph-name="florin" unicode="&#x192;" horiz-adv-x="422" 
d="M57 350l8 45h73l23 101c34 151 132 206 218 206c71 0 102 -31 102 -68c0 -28 -15 -52 -49 -52c-31 0 -48 10 -50 52c-1 27 -5 32 -20 32c-32 0 -68 -25 -89 -116l-35 -155h120l-8 -45h-122l-73 -327c-36 -160 -114 -219 -195 -219c-62 0 -90 28 -90 61c0 29 18 44 45 44
c25 0 39 -10 42 -37c4 -31 9 -35 20 -35c23 0 40 16 54 73l97 440h-71z" />
    <glyph glyph-name="approxequal" unicode="&#x2248;" horiz-adv-x="460" 
d="M406 468l44 -20c-24 -52 -55 -97 -113 -97c-57 0 -145 44 -192 44c-30 0 -52 -30 -64 -61l-46 17c18 49 56 98 113 98c56 0 142 -44 192 -44c31 0 50 29 66 63zM406 315l44 -20c-24 -52 -55 -97 -113 -97c-57 0 -145 44 -192 44c-30 0 -52 -30 -64 -61l-46 17
c18 49 56 98 113 98c56 0 142 -44 192 -44c31 0 50 29 66 63z" />
    <glyph glyph-name="guillemotleft" unicode="&#xab;" horiz-adv-x="455" 
d="M170 45l-125 198l3 29l187 188h43l-139 -210l71 -205h-40zM349 45l-125 198l3 29l187 188h44l-140 -210l71 -205h-40z" />
    <glyph glyph-name="guillemotright" unicode="&#xbb;" horiz-adv-x="455" 
d="M-4 45l140 210l-70 205h39l126 -198l-4 -29l-187 -188h-44zM177 45l138 210l-70 205h39l125 -198l-3 -29l-187 -188h-42z" />
    <glyph glyph-name="ellipsis" unicode="&#x2026;" horiz-adv-x="836" 
d="M111 -6c-40 0 -72 31 -72 70s32 71 72 71c41 0 73 -32 73 -71s-32 -70 -73 -70zM388 -6c-40 0 -72 31 -72 70s32 71 72 71c41 0 73 -32 73 -71s-32 -70 -73 -70zM665 -6c-40 0 -72 31 -72 70s32 71 72 71c41 0 73 -32 73 -71s-32 -70 -73 -70z" />
    <glyph glyph-name="uni00A0" unicode="&#xa0;" horiz-adv-x="218" 
 />
    <glyph glyph-name="Agrave" unicode="&#xc0;" horiz-adv-x="647" 
d="M-45 0l6 31l31 7c28 7 41 15 88 103l295 552h66l93 -563c13 -71 22 -87 46 -92l26 -7l-7 -31h-244l5 31l29 7c37 8 43 24 43 43c0 25 -3 38 -6 58l-15 94h-224l-48 -94c-14 -28 -28 -53 -28 -70s6 -26 27 -31l32 -7l-6 -31h-209zM355 563l-145 -285h194l-44 285h-5z
M515 748l-195 64c-28 9 -37 29 -37 46c0 21 18 43 41 43c12 0 24 -5 39 -15l163 -114z" />
    <glyph glyph-name="Atilde" unicode="&#xc3;" horiz-adv-x="647" 
d="M-45 0l6 31l31 7c28 7 41 15 88 103l295 552h66l93 -563c13 -71 22 -87 46 -92l26 -7l-7 -31h-244l5 31l29 7c37 8 43 24 43 43c0 25 -3 38 -6 58l-15 94h-224l-48 -94c-14 -28 -28 -53 -28 -70s6 -26 27 -31l32 -7l-6 -31h-209zM355 563l-145 -285h194l-44 285h-5z
M286 753l-32 14c38 83 68 124 110 124c41 0 118 -41 143 -41c21 0 38 20 67 66l31 -13c-38 -83 -68 -124 -110 -124c-41 0 -115 41 -143 41c-21 0 -37 -20 -66 -67z" />
    <glyph glyph-name="Otilde" unicode="&#xd5;" horiz-adv-x="691" 
d="M312 -12c-146 0 -267 103 -267 281c0 254 187 437 369 437c148 0 261 -110 261 -286c0 -252 -179 -432 -363 -432zM318 36c157 0 245 199 245 419c0 103 -29 202 -152 202c-162 0 -254 -205 -254 -416c0 -110 32 -205 161 -205zM300 753l-32 14c38 83 68 124 110 124
c41 0 118 -41 143 -41c21 0 38 20 67 66l31 -13c-38 -83 -68 -124 -110 -124c-41 0 -115 41 -143 41c-21 0 -37 -20 -66 -67z" />
    <glyph glyph-name="OE" unicode="&#x152;" horiz-adv-x="965" 
d="M344 0c-171 0 -299 93 -299 269c0 261 188 424 404 424h502l-1 -177h-34c-18 49 -28 77 -38 94c-22 34 -41 39 -130 39c-62 0 -86 -4 -107 -9l-45 -257h46c65 0 89 2 108 30c11 17 21 38 34 70h35l-43 -248h-34c-2 33 -4 50 -9 71c-8 28 -26 31 -115 31h-30l-33 -185
c-16 -95 -11 -108 103 -108c98 0 120 10 149 41c19 21 54 69 85 124h38l-59 -209h-527zM354 42c60 0 79 16 90 75l77 438c15 80 -4 96 -70 96c-207 0 -294 -172 -294 -409c0 -136 65 -200 197 -200z" />
    <glyph glyph-name="oe" unicode="&#x153;" horiz-adv-x="794" 
d="M215 -14c-124 0 -189 96 -189 205c0 217 160 334 276 334c91 0 145 -60 164 -136c63 85 150 136 216 136c91 0 121 -36 121 -96c0 -82 -144 -179 -331 -218c-3 -20 -4 -40 -4 -60c0 -71 34 -111 88 -111c60 0 104 36 158 79l21 -24c-42 -45 -114 -109 -216 -109
c-68 0 -108 38 -124 92c-52 -61 -121 -92 -180 -92zM215 28c107 0 179 160 179 331c0 80 -38 125 -94 125c-105 0 -176 -154 -176 -331c0 -80 33 -125 91 -125zM667 484c-64 0 -156 -100 -188 -234c86 22 141 47 178 78c34 28 50 65 50 105c0 33 -16 51 -40 51z" />
    <glyph glyph-name="endash" unicode="&#x2013;" horiz-adv-x="408" 
d="M51 261l11 51h307l-10 -51h-308z" />
    <glyph glyph-name="emdash" unicode="&#x2014;" horiz-adv-x="641" 
d="M51 261l11 51h540l-10 -51h-541z" />
    <glyph glyph-name="quotedblleft" unicode="&#x201c;" horiz-adv-x="421" 
d="M146 447c-48 0 -79 35 -79 92c0 73 66 150 192 170l9 -29c-94 -28 -134 -73 -139 -120c8 5 19 8 29 8c25 0 55 -20 55 -60c0 -35 -30 -61 -67 -61zM352 447c-48 0 -79 35 -79 92c0 73 66 150 192 170l9 -29c-94 -28 -134 -73 -139 -120c8 5 19 8 29 8c25 0 55 -20 55 -60
c0 -35 -30 -61 -67 -61z" />
    <glyph glyph-name="quotedblright" unicode="&#x201d;" horiz-adv-x="421" 
d="M52 445l-8 30c94 28 133 72 138 119c-8 -5 -19 -8 -29 -8c-25 0 -55 20 -55 60c0 35 30 61 67 61c48 0 79 -35 79 -92c0 -73 -66 -150 -192 -170zM258 445l-8 30c94 28 133 72 138 119c-8 -5 -19 -8 -29 -8c-25 0 -55 20 -55 60c0 35 30 61 67 61c48 0 79 -35 79 -92
c0 -73 -66 -150 -192 -170z" />
    <glyph glyph-name="quoteleft" unicode="&#x2018;" horiz-adv-x="215" 
d="M146 447c-48 0 -79 35 -79 92c0 73 66 150 192 170l9 -29c-94 -28 -134 -73 -139 -120c8 5 19 8 29 8c25 0 55 -20 55 -60c0 -35 -30 -61 -67 -61z" />
    <glyph glyph-name="quoteright" unicode="&#x2019;" horiz-adv-x="216" 
d="M52 445l-8 30c94 28 133 72 138 119c-8 -5 -19 -8 -29 -8c-25 0 -55 20 -55 60c0 35 30 61 67 61c48 0 79 -35 79 -92c0 -73 -66 -150 -192 -170z" />
    <glyph glyph-name="divide" unicode="&#xf7;" horiz-adv-x="460" 
d="M244 102c-38 0 -68 29 -68 67c0 36 30 66 68 66c39 0 69 -30 69 -66c0 -38 -30 -67 -69 -67zM244 438c-38 0 -68 29 -68 66s30 67 68 67c39 0 69 -30 69 -67s-30 -66 -69 -66zM55 309v56h380v-56h-380z" />
    <glyph glyph-name="ydieresis" unicode="&#xff;" horiz-adv-x="492" 
d="M-10 -232c-46 0 -69 24 -69 55c0 34 20 52 46 52c44 0 47 -35 78 -35c26 0 77 34 147 117c-24 195 -45 344 -64 418c-21 75 -31 75 -71 48l-24 -16l-16 24c55 58 103 93 137 93c26 0 44 -12 58 -71c29 -126 46 -271 56 -388h5c80 116 144 245 144 315c0 46 -32 57 -32 99
c0 26 21 46 52 46c37 0 61 -24 61 -64c0 -90 -86 -280 -206 -443c-110 -152 -217 -250 -302 -250zM219 616c-33 0 -61 26 -61 60c0 36 31 66 68 66c30 0 60 -27 60 -60c0 -35 -32 -66 -67 -66zM419 616c-33 0 -61 26 -61 60c0 36 31 66 67 66c32 0 60 -27 60 -60
c0 -35 -31 -66 -66 -66z" />
    <glyph glyph-name="Ydieresis" unicode="&#x178;" horiz-adv-x="593" 
d="M117 0l6 31l50 9c26 5 33 11 42 60l32 177l-93 290c-20 64 -31 81 -57 89l-24 7l6 30h252l-7 -30l-26 -6c-32 -7 -48 -16 -48 -37c0 -12 5 -32 11 -53l69 -228h5l142 212c26 38 36 57 36 74c0 15 -8 28 -34 33l-24 5l7 30h209l-6 -30l-24 -7c-33 -11 -54 -30 -104 -103
l-182 -269l-33 -184c-9 -48 -6 -55 21 -60l45 -9l-6 -31h-265zM300 751c-33 0 -61 26 -61 60c0 36 31 66 68 66c30 0 60 -27 60 -60c0 -35 -32 -66 -67 -66zM517 751c-33 0 -61 26 -61 60c0 36 31 66 67 66c32 0 60 -27 60 -60c0 -35 -31 -66 -66 -66z" />
    <glyph glyph-name="fraction" unicode="&#x2044;" horiz-adv-x="267" 
d="M-179 -50l593 764h57l-592 -764h-58z" />
    <glyph glyph-name="Euro" unicode="&#x20ac;" horiz-adv-x="581" 
d="M48 394l8 46h70c62 168 200 265 324 265c98 0 154 -39 154 -97c0 -41 -20 -62 -54 -62s-53 11 -57 61c-4 48 -8 57 -50 57c-96 0 -178 -90 -220 -224h232l-16 -46h-228c-6 -30 -11 -61 -14 -94h212l-14 -46h-200v-14c0 -129 48 -191 161 -191c67 0 117 23 157 46l-5 -41
c-44 -36 -107 -66 -195 -66c-145 0 -220 100 -220 258v8h-71l9 46h64c3 33 8 64 16 94h-63z" />
    <glyph glyph-name="guilsinglleft" unicode="&#x2039;" horiz-adv-x="277" 
d="M170 45l-125 198l3 29l187 188h44l-140 -210l71 -205h-40z" />
    <glyph glyph-name="guilsinglright" unicode="&#x203a;" horiz-adv-x="277" 
d="M-4 45l140 210l-70 205h39l126 -198l-4 -29l-187 -188h-44z" />
    <glyph glyph-name="daggerdbl" unicode="&#x2021;" horiz-adv-x="425" 
d="M154 -98c-24 0 -50 21 -50 50c0 30 45 72 59 130c-56 0 -95 -15 -122 -15c-29 0 -44 18 -44 43c0 27 19 46 47 46c34 0 61 -34 124 -43c5 38 1 54 -20 79l56 99h29l23 -106c-28 -17 -45 -36 -54 -74c60 0 96 19 122 19c30 0 44 -19 44 -42c0 -28 -19 -47 -47 -47
c-34 0 -59 29 -124 39c-8 -55 14 -106 14 -129c0 -31 -34 -49 -57 -49zM207 313l-21 105c26 17 43 36 52 74c-60 0 -95 -19 -122 -19c-29 0 -45 19 -45 42c0 28 20 47 47 47c35 0 60 -29 125 -39c8 55 -14 106 -14 129c0 31 34 49 58 49c23 0 50 -21 50 -50
c0 -30 -47 -72 -61 -130c56 0 96 15 124 15s44 -18 44 -43c0 -27 -21 -46 -48 -46c-35 0 -61 34 -125 43c-5 -38 0 -54 23 -79l-58 -98h-29z" />
    <glyph glyph-name="periodcentered" unicode="&#xb7;" horiz-adv-x="282" 
d="M151 268c-40 0 -72 31 -72 70s32 71 72 71c41 0 73 -32 73 -71s-32 -70 -73 -70z" />
    <glyph glyph-name="quotesinglbase" unicode="&#x201a;" horiz-adv-x="215" 
d="M-49 -125l-9 29c95 28 134 73 139 120c-8 -5 -19 -8 -29 -8c-25 0 -55 20 -55 60c0 35 30 61 67 61c48 0 79 -35 79 -92c0 -73 -66 -150 -192 -170z" />
    <glyph glyph-name="quotedblbase" unicode="&#x201e;" horiz-adv-x="421" 
d="M-49 -125l-9 29c95 28 134 73 139 120c-8 -5 -19 -8 -29 -8c-25 0 -55 20 -55 60c0 35 30 61 67 61c48 0 79 -35 79 -92c0 -73 -66 -150 -192 -170zM157 -125l-8 29c94 28 133 73 138 120c-8 -5 -19 -8 -29 -8c-25 0 -55 20 -55 60c0 35 30 61 67 61c48 0 79 -35 79 -92
c0 -73 -66 -150 -192 -170z" />
    <glyph glyph-name="perthousand" unicode="&#x2030;" horiz-adv-x="1138" 
d="M203 383c56 0 104 88 104 197c0 61 -20 88 -58 88c-57 0 -105 -91 -105 -197c0 -59 19 -88 59 -88zM201 348c-70 0 -137 49 -137 144c0 108 87 211 186 211c68 0 137 -49 137 -144c0 -110 -88 -211 -186 -211zM117 -50h-62l609 764h60zM552 22c56 0 104 88 104 197
c0 61 -20 88 -58 88c-57 0 -105 -91 -105 -197c0 -59 19 -88 59 -88zM550 -13c-70 0 -137 49 -137 144c0 108 87 211 186 211c68 0 137 -49 137 -144c0 -110 -88 -211 -186 -211zM918 22c56 0 104 88 104 197c0 61 -20 88 -58 88c-57 0 -105 -91 -105 -197
c0 -59 19 -88 59 -88zM916 -13c-70 0 -137 49 -137 144c0 108 87 211 186 211c68 0 137 -49 137 -144c0 -110 -88 -211 -186 -211z" />
    <glyph glyph-name="Acircumflex" unicode="&#xc2;" horiz-adv-x="647" 
d="M-45 0l6 31l31 7c28 7 41 15 88 103l295 552h66l93 -563c13 -71 22 -87 46 -92l26 -7l-7 -31h-244l5 31l29 7c37 8 43 24 43 43c0 25 -3 38 -6 58l-15 94h-224l-48 -94c-14 -28 -28 -53 -28 -70s6 -26 27 -31l32 -7l-6 -31h-209zM355 563l-145 -285h194l-44 285h-5z
M274 746l-12 21l153 130h43l112 -130l-14 -21l-130 69z" />
    <glyph glyph-name="Ecircumflex" unicode="&#xca;" horiz-adv-x="604" 
d="M-16 0l6 31l47 9c23 5 32 10 41 60l88 494c8 48 5 55 -20 60l-44 9l6 30h482l-1 -177h-34c-18 49 -28 77 -38 94c-22 34 -41 39 -130 39c-62 0 -86 -4 -106 -9l-46 -257h46c65 0 89 2 108 30c11 17 21 38 34 70h35l-43 -248h-34c-2 33 -4 50 -9 71c-8 28 -26 31 -115 31
h-30l-33 -185c-16 -95 -10 -108 103 -108c98 0 120 10 149 41c19 21 54 69 85 124h38l-59 -209h-526zM239 746l-12 21l153 130h43l112 -130l-14 -21l-130 69z" />
    <glyph glyph-name="Aacute" unicode="&#xc1;" horiz-adv-x="647" 
d="M-45 0l6 31l31 7c28 7 41 15 88 103l295 552h66l93 -563c13 -71 22 -87 46 -92l26 -7l-7 -31h-244l5 31l29 7c37 8 43 24 43 43c0 25 -3 38 -6 58l-15 94h-224l-48 -94c-14 -28 -28 -53 -28 -70s6 -26 27 -31l32 -7l-6 -31h-209zM355 563l-145 -285h194l-44 285h-5z
M336 748l-10 22l162 114c16 11 28 15 39 15c24 0 39 -21 39 -39c0 -22 -12 -39 -42 -49z" />
    <glyph glyph-name="Edieresis" unicode="&#xcb;" horiz-adv-x="604" 
d="M-16 0l6 31l47 9c23 5 32 10 41 60l88 494c8 48 5 55 -20 60l-44 9l6 30h482l-1 -177h-34c-18 49 -28 77 -38 94c-22 34 -41 39 -130 39c-62 0 -86 -4 -106 -9l-46 -257h46c65 0 89 2 108 30c11 17 21 38 34 70h35l-43 -248h-34c-2 33 -4 50 -9 71c-8 28 -26 31 -115 31
h-30l-33 -185c-16 -95 -10 -108 103 -108c98 0 120 10 149 41c19 21 54 69 85 124h38l-59 -209h-526zM280 751c-33 0 -61 26 -61 60c0 36 31 66 68 66c30 0 60 -27 60 -60c0 -35 -32 -66 -67 -66zM497 751c-33 0 -61 26 -61 60c0 36 31 66 67 66c32 0 60 -27 60 -60
c0 -35 -31 -66 -66 -66z" />
    <glyph glyph-name="Egrave" unicode="&#xc8;" horiz-adv-x="604" 
d="M-16 0l6 31l47 9c23 5 32 10 41 60l88 494c8 48 5 55 -20 60l-44 9l6 30h482l-1 -177h-34c-18 49 -28 77 -38 94c-22 34 -41 39 -130 39c-62 0 -86 -4 -106 -9l-46 -257h46c65 0 89 2 108 30c11 17 21 38 34 70h35l-43 -248h-34c-2 33 -4 50 -9 71c-8 28 -26 31 -115 31
h-30l-33 -185c-16 -95 -10 -108 103 -108c98 0 120 10 149 41c19 21 54 69 85 124h38l-59 -209h-526zM480 748l-195 64c-28 9 -37 29 -37 46c0 21 18 43 41 43c12 0 24 -5 39 -15l163 -114z" />
    <glyph glyph-name="Iacute" unicode="&#xcd;" horiz-adv-x="327" 
d="M-16 0l6 31l51 9c25 5 32 10 41 60l88 494c8 48 5 55 -20 60l-48 9l6 30h267l-6 -30l-51 -9c-23 -4 -31 -11 -41 -60l-87 -494c-9 -48 -7 -55 19 -60l48 -9l-6 -31h-267zM172 748l-10 22l162 114c16 11 28 15 39 15c24 0 39 -21 39 -39c0 -22 -12 -39 -42 -49z" />
    <glyph glyph-name="Icircumflex" unicode="&#xce;" horiz-adv-x="327" 
d="M-16 0l6 31l51 9c25 5 32 10 41 60l88 494c8 48 5 55 -20 60l-48 9l6 30h267l-6 -30l-51 -9c-23 -4 -31 -11 -41 -60l-87 -494c-9 -48 -7 -55 19 -60l48 -9l-6 -31h-267zM110 746l-12 21l153 130h43l112 -130l-14 -21l-130 69z" />
    <glyph glyph-name="Idieresis" unicode="&#xcf;" horiz-adv-x="327" 
d="M-16 0l6 31l51 9c25 5 32 10 41 60l88 494c8 48 5 55 -20 60l-48 9l6 30h267l-6 -30l-51 -9c-23 -4 -31 -11 -41 -60l-87 -494c-9 -48 -7 -55 19 -60l48 -9l-6 -31h-267zM151 751c-33 0 -61 26 -61 60c0 36 31 66 68 66c30 0 60 -27 60 -60c0 -35 -32 -66 -67 -66z
M368 751c-33 0 -61 26 -61 60c0 36 31 66 67 66c32 0 60 -27 60 -60c0 -35 -31 -66 -66 -66z" />
    <glyph glyph-name="Igrave" unicode="&#xcc;" horiz-adv-x="327" 
d="M-16 0l6 31l51 9c25 5 32 10 41 60l88 494c8 48 5 55 -20 60l-48 9l6 30h267l-6 -30l-51 -9c-23 -4 -31 -11 -41 -60l-87 -494c-9 -48 -7 -55 19 -60l48 -9l-6 -31h-267zM351 748l-195 64c-28 9 -37 29 -37 46c0 21 18 43 41 43c12 0 24 -5 39 -15l163 -114z" />
    <glyph glyph-name="Oacute" unicode="&#xd3;" horiz-adv-x="691" 
d="M312 -12c-146 0 -267 103 -267 281c0 254 187 437 369 437c148 0 261 -110 261 -286c0 -252 -179 -432 -363 -432zM318 36c157 0 245 199 245 419c0 103 -29 202 -152 202c-162 0 -254 -205 -254 -416c0 -110 32 -205 161 -205zM350 748l-10 22l162 114
c16 11 28 15 39 15c24 0 39 -21 39 -39c0 -22 -12 -39 -42 -49z" />
    <glyph glyph-name="Ocircumflex" unicode="&#xd4;" horiz-adv-x="691" 
d="M312 -12c-146 0 -267 103 -267 281c0 254 187 437 369 437c148 0 261 -110 261 -286c0 -252 -179 -432 -363 -432zM318 36c157 0 245 199 245 419c0 103 -29 202 -152 202c-162 0 -254 -205 -254 -416c0 -110 32 -205 161 -205zM288 746l-12 21l153 130h43l112 -130
l-14 -21l-130 69z" />
    <glyph glyph-name="Ograve" unicode="&#xd2;" horiz-adv-x="691" 
d="M312 -12c-146 0 -267 103 -267 281c0 254 187 437 369 437c148 0 261 -110 261 -286c0 -252 -179 -432 -363 -432zM318 36c157 0 245 199 245 419c0 103 -29 202 -152 202c-162 0 -254 -205 -254 -416c0 -110 32 -205 161 -205zM529 748l-195 64c-28 9 -37 29 -37 46
c0 21 18 43 41 43c12 0 24 -5 39 -15l163 -114z" />
    <glyph glyph-name="Uacute" unicode="&#xda;" horiz-adv-x="680" 
d="M332 -12c-172 0 -273 79 -241 258l62 348c8 48 5 55 -20 60l-43 9l6 30h257l-6 -30l-46 -9c-26 -5 -32 -10 -41 -60l-64 -358c-25 -138 22 -195 151 -195c123 0 163 66 183 176l65 367c11 60 -2 68 -36 73l-38 6l8 30h216l-7 -30l-36 -7c-27 -5 -44 -16 -54 -72l-69 -381
c-21 -117 -86 -215 -247 -215zM371 748l-10 22l162 114c16 11 28 15 39 15c24 0 39 -21 39 -39c0 -22 -12 -39 -42 -49z" />
    <glyph glyph-name="Ucircumflex" unicode="&#xdb;" horiz-adv-x="680" 
d="M332 -12c-172 0 -273 79 -241 258l62 348c8 48 5 55 -20 60l-43 9l6 30h257l-6 -30l-46 -9c-26 -5 -32 -10 -41 -60l-64 -358c-25 -138 22 -195 151 -195c123 0 163 66 183 176l65 367c11 60 -2 68 -36 73l-38 6l8 30h216l-7 -30l-36 -7c-27 -5 -44 -16 -54 -72l-69 -381
c-21 -117 -86 -215 -247 -215zM309 746l-12 21l153 130h43l112 -130l-14 -21l-130 69z" />
    <glyph glyph-name="Ugrave" unicode="&#xd9;" horiz-adv-x="680" 
d="M332 -12c-172 0 -273 79 -241 258l62 348c8 48 5 55 -20 60l-43 9l6 30h257l-6 -30l-46 -9c-26 -5 -32 -10 -41 -60l-64 -358c-25 -138 22 -195 151 -195c123 0 163 66 183 176l65 367c11 60 -2 68 -36 73l-38 6l8 30h216l-7 -30l-36 -7c-27 -5 -44 -16 -54 -72l-69 -381
c-21 -117 -86 -215 -247 -215zM550 748l-195 64c-28 9 -37 29 -37 46c0 21 18 43 41 43c12 0 24 -5 39 -15l163 -114z" />
    <glyph glyph-name="dotlessi" unicode="&#x131;" horiz-adv-x="286" 
d="M90 -9c-27 0 -43 21 -43 47c0 28 4 49 12 80l67 269c3 15 7 30 7 39c0 22 -18 19 -55 -4l-23 -14l-15 21c67 65 116 95 159 95c25 0 36 -18 36 -42c0 -28 -7 -63 -18 -108l-62 -255c-3 -12 -5 -22 -5 -35c0 -23 18 -24 60 0l25 16l15 -23c-59 -54 -104 -86 -160 -86z" />
    <glyph glyph-name="circumflex" unicode="&#x2c6;" horiz-adv-x="520" 
d="M174 582l-14 20l159 150h43l106 -150l-16 -20l-122 88z" />
    <glyph glyph-name="tilde" unicode="&#x2dc;" horiz-adv-x="520" 
d="M181 583l-32 14c38 83 68 124 110 124c41 0 108 -41 133 -41c21 0 38 20 67 66l31 -13c-38 -83 -68 -124 -110 -124c-41 0 -105 41 -133 41c-21 0 -37 -20 -66 -67z" />
    <glyph glyph-name="macron" unicode="&#xaf;" horiz-adv-x="510" 
d="M187 624l12 63h274l-12 -63h-274z" />
    <glyph glyph-name="breve" unicode="&#x2d8;" horiz-adv-x="510" 
d="M371 594c-75 0 -122 65 -119 148l28 6c8 -47 30 -86 97 -86c61 0 101 39 120 86l28 -8c-17 -83 -79 -146 -154 -146z" />
    <glyph glyph-name="dotaccent" unicode="&#x2d9;" horiz-adv-x="510" 
d="M319 615c-38 0 -67 32 -67 64c0 35 29 64 67 64c37 0 66 -29 66 -64c0 -32 -29 -64 -66 -64z" />
    <glyph glyph-name="ring" unicode="&#x2da;" horiz-adv-x="510" 
d="M324 588c-58 0 -102 45 -102 98c0 55 44 99 102 99s102 -44 102 -99c0 -53 -44 -98 -102 -98zM324 626c35 0 58 25 58 60s-23 61 -58 61s-58 -26 -58 -61s23 -60 58 -60z" />
    <glyph glyph-name="cedilla" unicode="&#xb8;" horiz-adv-x="520" 
d="M102 -241l4 26c88 18 122 41 122 72c0 19 -15 34 -59 37l-6 14l60 92h48l-49 -55c53 -7 83 -37 83 -72c0 -55 -66 -101 -203 -114z" />
    <glyph glyph-name="hungarumlaut" unicode="&#x2dd;" horiz-adv-x="510" 
d="M215 592l-18 20l95 123c11 15 22 21 35 21c16 0 44 -18 44 -40c0 -14 -4 -26 -26 -40zM389 592l-17 20l96 123c11 14 21 21 34 21c17 0 44 -18 44 -40c0 -14 -4 -27 -25 -40z" />
    <glyph glyph-name="ogonek" unicode="&#x2db;" horiz-adv-x="510" 
d="M213 -223c-53 0 -91 29 -91 74c0 71 78 118 135 149h32c-43 -40 -82 -85 -82 -132c0 -26 20 -46 53 -46c16 0 34 4 46 9l-4 -29c-18 -13 -48 -25 -89 -25z" />
    <glyph glyph-name="caron" unicode="&#x2c7;" horiz-adv-x="510" 
d="M287 597l-106 149l16 21l122 -88l156 88l14 -21l-159 -149h-43z" />
    <glyph glyph-name="space_uni0326" horiz-adv-x="510" 
d="M157 -286l-8 25c82 23 106 57 112 95c-5 -4 -15 -9 -27 -9c-38 0 -53 22 -53 52c0 29 28 56 65 56c45 0 77 -27 77 -75c0 -67 -52 -124 -166 -144z" />
    <glyph glyph-name="caron.alt" horiz-adv-x="510" 
d="M289 566l-23 11l32 145c5 24 16 43 44 43c22 0 45 -15 45 -40c0 -12 -5 -24 -13 -36z" />
    <glyph glyph-name="space_uni0326.alt" horiz-adv-x="510" 
d="M347 825l8 -25c-82 -23 -106 -57 -112 -95c5 4 15 9 27 9c38 0 53 -22 53 -52c0 -29 -28 -56 -65 -56c-45 0 -77 27 -77 75c0 67 52 124 166 144z" />
    <glyph glyph-name="acute.pl" horiz-adv-x="510" 
d="M216 573l-21 18l87 158c11 19 25 33 46 33s43 -17 43 -43c0 -14 -6 -27 -18 -39z" />
    <glyph glyph-name="grave.uc" horiz-adv-x="510" 
d="M457 748l-195 64c-28 9 -37 29 -37 46c0 21 18 43 41 43c12 0 24 -5 39 -15l163 -114z" />
    <glyph glyph-name="dieresis.uc" horiz-adv-x="510" 
d="M244 751c-33 0 -61 26 -61 60c0 36 31 66 68 66c30 0 60 -27 60 -60c0 -35 -32 -66 -67 -66zM461 751c-33 0 -61 26 -61 60c0 36 31 66 67 66c32 0 60 -27 60 -60c0 -35 -31 -66 -66 -66z" />
    <glyph glyph-name="macron.uc" horiz-adv-x="510" 
d="M201 777l12 63h284l-12 -63h-284z" />
    <glyph glyph-name="acute.uc" horiz-adv-x="510" 
d="M249 748l-10 22l162 114c16 11 28 15 39 15c24 0 39 -21 39 -39c0 -22 -12 -39 -42 -49z" />
    <glyph glyph-name="circumflex.uc" horiz-adv-x="510" 
d="M194 746l-12 21l153 130h43l112 -130l-14 -21l-130 69z" />
    <glyph glyph-name="caron.uc" horiz-adv-x="510" 
d="M498 909l12 -21l-153 -130h-43l-112 130l14 21l130 -69z" />
    <glyph glyph-name="breve.uc" horiz-adv-x="510" 
d="M343 755c-75 0 -127 65 -124 132l28 6c8 -39 35 -70 102 -70c61 0 107 31 125 70l28 -8c-16 -66 -84 -130 -159 -130z" />
    <glyph glyph-name="dotaccent.uc" horiz-adv-x="510" 
d="M355 750c-38 0 -67 32 -67 64c0 35 29 64 67 64c37 0 66 -29 66 -64c0 -32 -29 -64 -66 -64z" />
    <glyph glyph-name="ring.uc" horiz-adv-x="510" 
d="M355 738c-58 0 -102 45 -102 98c0 55 44 99 102 99s102 -44 102 -99c0 -53 -44 -98 -102 -98zM355 776c35 0 58 25 58 60s-23 61 -58 61s-58 -26 -58 -61s23 -60 58 -60z" />
    <glyph glyph-name="tilde.uc" horiz-adv-x="510" 
d="M205 753l-32 14c38 83 68 124 110 124c41 0 118 -41 143 -41c21 0 38 20 67 66l31 -13c-38 -83 -68 -124 -110 -124c-41 0 -115 41 -143 41c-21 0 -37 -20 -66 -67z" />
    <glyph glyph-name="hungarumlaut.uc" horiz-adv-x="510" 
d="M415 762l-17 20l96 123c11 14 21 21 34 21c17 0 44 -18 44 -40c0 -14 -4 -27 -25 -40zM241 762l-18 20l95 123c11 15 22 21 35 21c16 0 44 -18 44 -40c0 -14 -4 -26 -26 -40z" />
    <glyph glyph-name="acute.ucpl" horiz-adv-x="510" 
d="M334 749l-21 17l70 133c11 20 24 32 45 32c23 0 44 -16 44 -42c0 -15 -6 -29 -20 -41z" />
    <glyph glyph-name="Dcroat" unicode="&#x110;" horiz-adv-x="687" 
d="M45 329l8 43h73l40 222c9 49 3 55 -20 60l-44 9l6 30h270c177 0 293 -93 293 -269c0 -267 -178 -424 -404 -424h-283l6 31l47 9c23 4 32 10 41 60l41 229h-74zM268 42c217 0 291 175 291 409c0 131 -52 200 -190 200c-48 0 -70 -4 -88 -9l-48 -270h180l-8 -43h-179
l-33 -190c-16 -80 -4 -97 75 -97z" />
    <glyph glyph-name="Eng" unicode="&#x14a;" horiz-adv-x="683" 
d="M491 -4l-265 619h-3l-91 -505c-10 -57 1 -67 40 -74l32 -5l-5 -31h-215l6 31l36 7c32 6 44 15 55 79l85 477c8 48 5 55 -20 60l-44 9l6 30h195l218 -513h3l72 404c10 55 2 67 -29 72l-43 7l7 30h210l-6 -30l-32 -7c-31 -7 -43 -18 -55 -82l-100 -551
c-16 -89 -49 -186 -170 -186c-67 0 -105 34 -105 72c0 27 22 49 56 49c37 0 46 -14 51 -59c2 -17 8 -21 22 -21c37 0 68 19 89 118z" />
    <glyph glyph-name="IJ" unicode="&#x132;" horiz-adv-x="632" 
d="M-16 0l6 31l51 9c25 5 32 10 41 60l88 494c8 48 5 55 -20 60l-48 9l6 30h267l-6 -30l-51 -9c-23 -4 -31 -11 -41 -60l-87 -494c-9 -48 -7 -55 19 -60l48 -9l-6 -31h-267zM293 -163c-67 0 -105 34 -105 72c0 27 22 49 56 49c37 0 46 -14 51 -59c2 -17 8 -21 22 -21
c30 0 52 21 67 107l109 609c8 48 5 55 -20 60l-45 9l6 30h260l-6 -30l-47 -9c-24 -5 -32 -10 -41 -60l-97 -530c-24 -132 -97 -227 -210 -227z" />
    <glyph glyph-name="uni0237" unicode="&#x237;" horiz-adv-x="278" 
d="M-57 -226c-62 0 -93 32 -93 64c0 33 19 50 45 50c34 0 48 -13 56 -54c3 -18 8 -23 16 -23c28 0 60 28 77 127l82 449c3 17 7 30 7 39c0 22 -16 20 -55 -4l-23 -14l-15 21c67 65 116 95 159 95c25 0 36 -18 36 -42c0 -28 -7 -63 -16 -108l-66 -337
c-40 -204 -125 -263 -210 -263z" />
    <glyph glyph-name="dcroat" unicode="&#x111;" horiz-adv-x="567" 
d="M270 598l7 41h171l3 14c6 34 0 41 -25 51l-43 17l5 28l176 16l9 -8s-16 -53 -28 -117v-1h78l-7 -41h-80l-94 -478c-3 -12 -5 -23 -5 -36c0 -21 19 -24 58 0l21 14l15 -23c-58 -53 -102 -84 -153 -84c-31 0 -41 29 -41 53c0 22 6 59 13 87h-4c-45 -63 -123 -144 -207 -144
c-72 0 -118 56 -118 141c0 217 185 396 322 396c39 0 63 -6 78 -14h4s5 36 12 75l2 13h-169zM176 50c65 0 136 90 186 156l46 226c-9 26 -29 51 -72 51c-105 0 -218 -170 -218 -346c0 -63 26 -87 58 -87z" />
    <glyph glyph-name="eng" unicode="&#x14b;" horiz-adv-x="560" 
d="M338 -62l71 392c18 99 17 122 -15 122c-52 0 -134 -80 -188 -142l-67 -310h-97l84 387c3 14 7 31 7 40c0 21 -14 20 -56 -5l-20 -12l-14 21c64 63 106 93 149 93c25 0 37 -18 37 -42c0 -28 -13 -90 -19 -116h5c78 90 151 158 226 158c53 0 79 -38 79 -88
c0 -20 -4 -56 -14 -99l-59 -300c-40 -204 -125 -263 -210 -263c-62 0 -93 32 -93 64c0 33 19 50 45 50c34 0 48 -13 56 -54c3 -18 8 -23 16 -23c28 0 59 28 77 127z" />
    <glyph glyph-name="ij" unicode="&#x133;" horiz-adv-x="547" 
d="M90 -9c-27 0 -43 21 -43 47c0 28 4 49 12 80l67 269c3 15 7 30 7 39c0 22 -18 19 -55 -4l-23 -14l-15 21c67 65 116 95 159 95c25 0 36 -18 36 -42c0 -28 -7 -63 -18 -108l-62 -255c-3 -12 -5 -22 -5 -35c0 -23 18 -24 60 0l25 16l15 -23c-59 -54 -104 -86 -160 -86z
M209 615c-38 0 -67 32 -67 64c0 35 29 64 67 64c37 0 66 -29 66 -64c0 -32 -29 -64 -66 -64zM212 -226c-62 0 -93 32 -93 64c0 33 19 50 45 50c34 0 48 -13 56 -54c3 -18 8 -23 16 -23c28 0 60 28 77 127l82 449c3 17 7 30 7 39c0 22 -16 20 -55 -4l-23 -14l-15 21
c67 65 116 95 159 95c25 0 36 -18 36 -42c0 -28 -7 -63 -16 -108l-66 -337c-40 -204 -125 -263 -210 -263zM478 615c-38 0 -67 32 -67 64c0 35 29 64 67 64c37 0 66 -29 66 -64c0 -32 -29 -64 -66 -64z" />
    <glyph glyph-name="Abreve" unicode="&#x102;" horiz-adv-x="647" 
d="M-45 0l6 31l31 7c28 7 41 15 88 103l295 552h66l93 -563c13 -71 22 -87 46 -92l26 -7l-7 -31h-244l5 31l29 7c37 8 43 24 43 43c0 25 -3 38 -6 58l-15 94h-224l-48 -94c-14 -28 -28 -53 -28 -70s6 -26 27 -31l32 -7l-6 -31h-209zM355 563l-145 -285h194l-44 285h-5z
M415 755c-75 0 -127 65 -124 132l28 6c8 -39 35 -70 102 -70c61 0 107 31 125 70l28 -8c-16 -66 -84 -130 -159 -130z" />
    <glyph glyph-name="Amacron" unicode="&#x100;" horiz-adv-x="647" 
d="M-45 0l6 31l31 7c28 7 41 15 88 103l295 552h66l93 -563c13 -71 22 -87 46 -92l26 -7l-7 -31h-244l5 31l29 7c37 8 43 24 43 43c0 25 -3 38 -6 58l-15 94h-224l-48 -94c-14 -28 -28 -53 -28 -70s6 -26 27 -31l32 -7l-6 -31h-209zM355 563l-145 -285h194l-44 285h-5z
M276 777l12 63h284l-12 -63h-284z" />
    <glyph glyph-name="Aogonek" unicode="&#x104;" horiz-adv-x="647" 
d="M445 14l-34 219h-224l-48 -94c-14 -28 -28 -53 -28 -70s6 -26 27 -31l32 -7l-6 -31h-209l6 31l31 7c28 7 41 15 88 103l295 552h66l93 -563c13 -71 22 -87 46 -92l26 -7l-7 -31h-42c-109 0 -175 -68 -175 -132c0 -26 20 -46 53 -46c16 0 34 4 46 9l-4 -29
c-18 -13 -48 -25 -89 -25c-53 0 -91 29 -91 74c0 71 64 116 148 163zM355 563l-145 -285h194l-44 285h-5z" />
    <glyph glyph-name="Aringacute" unicode="&#x1fa;" horiz-adv-x="647" 
d="M-45 0l6 31l31 7c28 7 41 15 88 103l295 552h66l93 -563c13 -71 22 -87 46 -92l26 -7l-7 -31h-244l5 31l29 7c37 8 43 24 43 43c0 25 -3 38 -6 58l-15 94h-224l-48 -94c-14 -28 -28 -53 -28 -70s6 -26 27 -31l32 -7l-6 -31h-209zM429 738c-58 0 -102 45 -102 98
c0 55 44 99 102 99s102 -44 102 -99c0 -53 -44 -98 -102 -98zM355 563l-145 -285h194l-44 285h-5zM356 950l-10 22l162 114c16 11 28 15 39 15c24 0 39 -21 39 -39c0 -22 -12 -39 -42 -49zM429 776c35 0 58 25 58 60s-23 61 -58 61s-58 -26 -58 -61s23 -60 58 -60z" />
    <glyph glyph-name="AEacute" unicode="&#x1fc;" horiz-adv-x="939" 
d="M-41 0l7 31l25 6c29 7 42 14 108 104l376 512c-1 0 -2 1 -2 1l-53 9l7 30h498l-1 -177h-33c-18 49 -28 77 -38 94c-22 34 -42 39 -131 39c-62 0 -81 -4 -101 -9l-45 -257h41c65 0 89 2 108 30c10 17 21 38 34 70h35l-43 -248h-34c-2 33 -4 50 -10 71
c-7 28 -25 31 -114 31h-25l-33 -185c-17 -95 -12 -108 97 -108c98 0 121 10 150 41c19 21 54 69 85 124h37l-59 -209h-519l7 31l46 9c23 5 31 10 40 60l22 121h-222l-59 -82c-23 -34 -39 -58 -39 -75c0 -15 9 -22 29 -26l32 -7l-6 -31h-217zM508 620l-256 -354h197l63 354
h-4zM633 748l-10 22l162 114c16 11 28 15 39 15c24 0 39 -21 39 -39c0 -22 -12 -39 -42 -49z" />
    <glyph glyph-name="Cacute" unicode="&#x106;" horiz-adv-x="614" 
d="M323 -12c-165 0 -277 105 -277 284c0 253 181 433 390 433c76 0 139 -14 183 -34l-17 -188h-36c-10 49 -26 107 -44 140c-16 29 -34 37 -91 37c-180 0 -273 -198 -273 -412c0 -145 51 -215 174 -215c60 0 82 13 111 46c31 33 63 81 92 133h34l-47 -191
c-41 -19 -109 -33 -199 -33zM346 748l-10 22l162 114c16 11 28 15 39 15c24 0 39 -21 39 -39c0 -22 -12 -39 -42 -49z" />
    <glyph glyph-name="Ccaron" unicode="&#x10c;" horiz-adv-x="614" 
d="M323 -12c-165 0 -277 105 -277 284c0 253 181 433 390 433c76 0 139 -14 183 -34l-17 -188h-36c-10 49 -26 107 -44 140c-16 29 -34 37 -91 37c-180 0 -273 -198 -273 -412c0 -145 51 -215 174 -215c60 0 82 13 111 46c31 33 63 81 92 133h34l-47 -191
c-41 -19 -109 -33 -199 -33zM588 909l12 -21l-153 -130h-43l-112 130l14 21l130 -69z" />
    <glyph glyph-name="Ccircumflex" unicode="&#x108;" horiz-adv-x="614" 
d="M323 -12c-165 0 -277 105 -277 284c0 253 181 433 390 433c76 0 139 -14 183 -34l-17 -188h-36c-10 49 -26 107 -44 140c-16 29 -34 37 -91 37c-180 0 -273 -198 -273 -412c0 -145 51 -215 174 -215c60 0 82 13 111 46c31 33 63 81 92 133h34l-47 -191
c-41 -19 -109 -33 -199 -33zM284 746l-12 21l153 130h43l112 -130l-14 -21l-130 69z" />
    <glyph glyph-name="Cdotaccent" unicode="&#x10a;" horiz-adv-x="614" 
d="M323 -12c-165 0 -277 105 -277 284c0 253 181 433 390 433c76 0 139 -14 183 -34l-17 -188h-36c-10 49 -26 107 -44 140c-16 29 -34 37 -91 37c-180 0 -273 -198 -273 -412c0 -145 51 -215 174 -215c60 0 82 13 111 46c31 33 63 81 92 133h34l-47 -191
c-41 -19 -109 -33 -199 -33zM434 750c-38 0 -67 32 -67 64c0 35 29 64 67 64c37 0 66 -29 66 -64c0 -32 -29 -64 -66 -64z" />
    <glyph glyph-name="Cacute.pl" horiz-adv-x="614" 
d="M323 -12c-165 0 -277 105 -277 284c0 253 181 433 390 433c76 0 139 -14 183 -34l-17 -188h-36c-10 49 -26 107 -44 140c-16 29 -34 37 -91 37c-180 0 -273 -198 -273 -412c0 -145 51 -215 174 -215c60 0 82 13 111 46c31 33 63 81 92 133h34l-47 -191
c-41 -19 -109 -33 -199 -33zM432 749l-21 17l70 133c11 20 24 32 45 32c23 0 44 -16 44 -42c0 -15 -6 -29 -20 -41z" />
    <glyph glyph-name="Dcaron" unicode="&#x10e;" horiz-adv-x="687" 
d="M-16 0l6 31l47 9c23 4 32 10 41 60l88 494c9 49 3 55 -20 60l-44 9l6 30h270c177 0 293 -93 293 -269c0 -267 -178 -424 -404 -424h-283zM268 42c217 0 291 175 291 409c0 131 -52 200 -190 200c-48 0 -70 -4 -88 -9l-88 -503c-16 -80 -4 -97 75 -97zM555 909l12 -21
l-153 -130h-43l-112 130l14 21l130 -69z" />
    <glyph glyph-name="Ebreve" unicode="&#x114;" horiz-adv-x="604" 
d="M-16 0l6 31l47 9c23 5 32 10 41 60l88 494c8 48 5 55 -20 60l-44 9l6 30h482l-1 -177h-34c-18 49 -28 77 -38 94c-22 34 -41 39 -130 39c-62 0 -86 -4 -106 -9l-46 -257h46c65 0 89 2 108 30c11 17 21 38 34 70h35l-43 -248h-34c-2 33 -4 50 -9 71c-8 28 -26 31 -115 31
h-30l-33 -185c-16 -95 -10 -108 103 -108c98 0 120 10 149 41c19 21 54 69 85 124h38l-59 -209h-526zM380 755c-75 0 -127 65 -124 132l28 6c8 -39 35 -70 102 -70c61 0 107 31 125 70l28 -8c-16 -66 -84 -130 -159 -130z" />
    <glyph glyph-name="Ecaron" unicode="&#x11a;" horiz-adv-x="604" 
d="M-16 0l6 31l47 9c23 5 32 10 41 60l88 494c8 48 5 55 -20 60l-44 9l6 30h482l-1 -177h-34c-18 49 -28 77 -38 94c-22 34 -41 39 -130 39c-62 0 -86 -4 -106 -9l-46 -257h46c65 0 89 2 108 30c11 17 21 38 34 70h35l-43 -248h-34c-2 33 -4 50 -9 71c-8 28 -26 31 -115 31
h-30l-33 -185c-16 -95 -10 -108 103 -108c98 0 120 10 149 41c19 21 54 69 85 124h38l-59 -209h-526zM543 909l12 -21l-153 -130h-43l-112 130l14 21l130 -69z" />
    <glyph glyph-name="Edotaccent" unicode="&#x116;" horiz-adv-x="604" 
d="M-16 0l6 31l47 9c23 5 32 10 41 60l88 494c8 48 5 55 -20 60l-44 9l6 30h482l-1 -177h-34c-18 49 -28 77 -38 94c-22 34 -41 39 -130 39c-62 0 -86 -4 -106 -9l-46 -257h46c65 0 89 2 108 30c11 17 21 38 34 70h35l-43 -248h-34c-2 33 -4 50 -9 71c-8 28 -26 31 -115 31
h-30l-33 -185c-16 -95 -10 -108 103 -108c98 0 120 10 149 41c19 21 54 69 85 124h38l-59 -209h-526zM389 750c-38 0 -67 32 -67 64c0 35 29 64 67 64c37 0 66 -29 66 -64c0 -32 -29 -64 -66 -64z" />
    <glyph glyph-name="Emacron" unicode="&#x112;" horiz-adv-x="604" 
d="M-16 0l6 31l47 9c23 5 32 10 41 60l88 494c8 48 5 55 -20 60l-44 9l6 30h482l-1 -177h-34c-18 49 -28 77 -38 94c-22 34 -41 39 -130 39c-62 0 -86 -4 -106 -9l-46 -257h46c65 0 89 2 108 30c11 17 21 38 34 70h35l-43 -248h-34c-2 33 -4 50 -9 71c-8 28 -26 31 -115 31
h-30l-33 -185c-16 -95 -10 -108 103 -108c98 0 120 10 149 41c19 21 54 69 85 124h38l-59 -209h-526zM241 777l12 63h284l-12 -63h-284z" />
    <glyph glyph-name="Eogonek" unicode="&#x118;" horiz-adv-x="604" 
d="M-16 0l6 31l47 9c23 5 32 10 41 60l88 494c8 48 5 55 -20 60l-44 9l6 30h482l-1 -177h-34c-18 49 -28 77 -38 94c-22 34 -41 39 -130 39c-62 0 -86 -4 -106 -9l-46 -257h46c65 0 89 2 108 30c11 17 21 38 34 70h35l-43 -248h-34c-2 33 -4 50 -9 71c-8 28 -26 31 -115 31
h-30l-33 -185c-16 -95 -10 -108 103 -108c98 0 120 10 149 41c19 21 54 69 85 124h38l-59 -209h-90c-43 -40 -82 -85 -82 -132c0 -26 20 -46 53 -46c16 0 34 4 46 9l-4 -29c-18 -13 -48 -25 -89 -25c-53 0 -91 29 -91 74c0 67 71 117 126 149h-395z" />
    <glyph glyph-name="Gbreve" unicode="&#x11e;" horiz-adv-x="672" 
d="M340 -12c-170 0 -295 88 -295 278c0 282 200 439 397 439c87 0 147 -12 191 -27l-17 -191h-34c-15 61 -27 101 -42 127c-21 33 -34 46 -108 46c-160 0 -276 -167 -276 -427c0 -122 46 -200 189 -200c47 0 78 10 106 27l23 138c8 46 8 54 -27 61l-38 8l6 31h250l-6 -31
l-35 -8c-25 -6 -34 -11 -43 -61l-30 -175c-50 -19 -123 -35 -211 -35zM439 755c-75 0 -127 65 -124 132l28 6c8 -39 35 -70 102 -70c61 0 107 31 125 70l28 -8c-16 -66 -84 -130 -159 -130z" />
    <glyph glyph-name="Gcircumflex" unicode="&#x11c;" horiz-adv-x="672" 
d="M340 -12c-170 0 -295 88 -295 278c0 282 200 439 397 439c87 0 147 -12 191 -27l-17 -191h-34c-15 61 -27 101 -42 127c-21 33 -34 46 -108 46c-160 0 -276 -167 -276 -427c0 -122 46 -200 189 -200c47 0 78 10 106 27l23 138c8 46 8 54 -27 61l-38 8l6 31h250l-6 -31
l-35 -8c-25 -6 -34 -11 -43 -61l-30 -175c-50 -19 -123 -35 -211 -35zM294 746l-12 21l153 130h43l112 -130l-14 -21l-130 69z" />
    <glyph glyph-name="Gcommaaccent" unicode="&#x122;" horiz-adv-x="672" 
d="M340 -12c-170 0 -295 88 -295 278c0 282 200 439 397 439c87 0 147 -12 191 -27l-17 -191h-34c-15 61 -27 101 -42 127c-21 33 -34 46 -108 46c-160 0 -276 -167 -276 -427c0 -122 46 -200 189 -200c47 0 78 10 106 27l23 138c8 46 8 54 -27 61l-38 8l6 31h250l-6 -31
l-35 -8c-25 -6 -34 -11 -43 -61l-30 -175c-50 -19 -123 -35 -211 -35zM184 -286l-8 25c82 23 106 57 112 95c-5 -4 -15 -9 -27 -9c-38 0 -53 22 -53 52c0 29 28 56 65 56c45 0 77 -27 77 -75c0 -67 -52 -124 -166 -144z" />
    <glyph glyph-name="Gdotaccent" unicode="&#x120;" horiz-adv-x="672" 
d="M340 -12c-170 0 -295 88 -295 278c0 282 200 439 397 439c87 0 147 -12 191 -27l-17 -191h-34c-15 61 -27 101 -42 127c-21 33 -34 46 -108 46c-160 0 -276 -167 -276 -427c0 -122 46 -200 189 -200c47 0 78 10 106 27l23 138c8 46 8 54 -27 61l-38 8l6 31h250l-6 -31
l-35 -8c-25 -6 -34 -11 -43 -61l-30 -175c-50 -19 -123 -35 -211 -35zM444 750c-38 0 -67 32 -67 64c0 35 29 64 67 64c37 0 66 -29 66 -64c0 -32 -29 -64 -66 -64z" />
    <glyph glyph-name="Hbar" unicode="&#x126;" horiz-adv-x="726" 
d="M59 493l8 44h89l10 57c8 48 5 55 -20 60l-44 9l6 30h261l-6 -30l-49 -9c-24 -5 -32 -10 -41 -60l-11 -57h301l10 57c8 48 5 55 -21 60l-45 9l6 30h261l-6 -30l-47 -9c-23 -5 -32 -10 -41 -60l-10 -57h95l-8 -44h-95l-70 -393c-8 -48 -6 -55 20 -60l44 -9l-6 -31h-261
l6 31l48 9c25 5 33 10 42 60l41 230h-301l-40 -230c-8 -48 -7 -55 20 -60l46 -9l-6 -31h-261l6 31l47 9c23 5 32 10 41 60l70 393h-89zM233 376h301l21 117h-301z" />
    <glyph glyph-name="Hcircumflex" unicode="&#x124;" horiz-adv-x="726" 
d="M-16 0l6 31l47 9c23 5 32 10 41 60l88 494c8 48 5 55 -20 60l-44 9l6 30h261l-6 -30l-49 -9c-24 -5 -32 -10 -41 -60l-40 -218h301l39 218c8 48 5 55 -21 60l-45 9l6 30h261l-6 -30l-47 -9c-23 -5 -32 -10 -41 -60l-88 -494c-8 -48 -6 -55 20 -60l44 -9l-6 -31h-261l6 31
l48 9c25 5 33 10 42 60l41 230h-301l-40 -230c-8 -48 -7 -55 20 -60l46 -9l-6 -31h-261zM310 746l-12 21l153 130h43l112 -130l-14 -21l-130 69z" />
    <glyph glyph-name="Idotaccent" unicode="&#x130;" horiz-adv-x="327" 
d="M-16 0l6 31l51 9c25 5 32 10 41 60l88 494c8 48 5 55 -20 60l-48 9l6 30h267l-6 -30l-51 -9c-23 -4 -31 -11 -41 -60l-87 -494c-9 -48 -7 -55 19 -60l48 -9l-6 -31h-267zM260 750c-38 0 -67 32 -67 64c0 35 29 64 67 64c37 0 66 -29 66 -64c0 -32 -29 -64 -66 -64z" />
    <glyph glyph-name="Ibreve" unicode="&#x12c;" horiz-adv-x="327" 
d="M-16 0l6 31l51 9c25 5 32 10 41 60l88 494c8 48 5 55 -20 60l-48 9l6 30h267l-6 -30l-51 -9c-23 -4 -31 -11 -41 -60l-87 -494c-9 -48 -7 -55 19 -60l48 -9l-6 -31h-267zM251 755c-75 0 -127 65 -124 132l28 6c8 -39 35 -70 102 -70c61 0 107 31 125 70l28 -8
c-16 -66 -84 -130 -159 -130z" />
    <glyph glyph-name="Imacron" unicode="&#x12a;" horiz-adv-x="327" 
d="M-16 0l6 31l51 9c25 5 32 10 41 60l88 494c8 48 5 55 -20 60l-48 9l6 30h267l-6 -30l-51 -9c-23 -4 -31 -11 -41 -60l-87 -494c-9 -48 -7 -55 19 -60l48 -9l-6 -31h-267zM112 777l12 63h284l-12 -63h-284z" />
    <glyph glyph-name="Iogonek" unicode="&#x12e;" horiz-adv-x="327" 
d="M-16 0l6 31l51 9c25 5 32 10 41 60l88 494c8 48 5 55 -20 60l-48 9l6 30h267l-6 -30l-51 -9c-23 -4 -31 -11 -41 -60l-87 -494c-9 -48 -7 -55 19 -60l48 -9l-6 -31h-87c-38 -39 -73 -85 -73 -132c0 -26 20 -46 53 -46c16 0 34 4 46 9l-4 -29c-18 -13 -48 -25 -89 -25
c-53 0 -91 29 -91 74c0 68 69 118 118 149h-140z" />
    <glyph glyph-name="Itilde" unicode="&#x128;" horiz-adv-x="327" 
d="M-16 0l6 31l51 9c25 5 32 10 41 60l88 494c8 48 5 55 -20 60l-48 9l6 30h267l-6 -30l-51 -9c-23 -4 -31 -11 -41 -60l-87 -494c-9 -48 -7 -55 19 -60l48 -9l-6 -31h-267zM122 753l-32 14c38 83 68 124 110 124c41 0 118 -41 143 -41c21 0 38 20 67 66l31 -13
c-38 -83 -68 -124 -110 -124c-41 0 -115 41 -143 41c-21 0 -37 -20 -66 -67z" />
    <glyph glyph-name="Jcircumflex" unicode="&#x134;" horiz-adv-x="305" 
d="M-34 -163c-67 0 -105 34 -105 72c0 27 22 49 56 49c37 0 46 -14 51 -59c2 -17 8 -21 22 -21c30 0 52 21 67 107l109 609c8 48 5 55 -20 60l-45 9l6 30h260l-6 -30l-47 -9c-24 -5 -32 -10 -41 -60l-97 -530c-24 -132 -97 -227 -210 -227zM108 746l-12 21l153 130h43
l112 -130l-14 -21l-130 69z" />
    <glyph glyph-name="Kcommaaccent" unicode="&#x136;" horiz-adv-x="641" 
d="M435 0c-63 97 -129 240 -174 351l3 13l210 204c35 35 44 42 44 61c0 12 -9 21 -36 28l-24 6l7 30h223l-6 -30l-20 -5c-34 -9 -60 -27 -109 -74l-199 -192c52 -123 112 -240 164 -328c9 -15 23 -20 44 -25l38 -8l-6 -31h-159zM-16 0l6 31l47 9c23 5 32 10 41 60l88 494
c8 48 5 55 -20 60l-44 9l6 30h261l-6 -30l-49 -9c-24 -5 -32 -10 -41 -60l-88 -494c-8 -48 -7 -55 20 -60l46 -9l-6 -31h-261zM177 -286l-8 25c82 23 106 57 112 95c-5 -4 -15 -9 -27 -9c-38 0 -53 22 -53 52c0 29 28 56 65 56c45 0 77 -27 77 -75c0 -67 -52 -124 -166 -144
z" />
    <glyph glyph-name="Lacute" unicode="&#x139;" horiz-adv-x="573" 
d="M-16 0l6 31l47 9c23 5 32 10 41 60l88 494c8 48 5 55 -20 60l-44 9l6 30h265l-6 -30l-53 -10c-25 -5 -32 -9 -41 -59l-80 -452c-16 -82 -8 -99 91 -99c88 0 109 10 144 47c20 21 49 65 83 130h36l-53 -220h-510zM161 748l-10 22l162 114c16 11 28 15 39 15
c24 0 39 -21 39 -39c0 -22 -12 -39 -42 -49z" />
    <glyph glyph-name="Lcaron" unicode="&#x13d;" horiz-adv-x="584" 
d="M433 499l-23 11l38 160c6 24 16 43 44 43c22 0 45 -15 45 -40c0 -12 -5 -24 -13 -36zM-16 0l6 31l47 9c23 5 32 10 41 60l88 494c8 48 5 55 -20 60l-44 9l6 30h265l-6 -30l-53 -10c-25 -5 -32 -9 -41 -59l-80 -452c-16 -82 -8 -99 91 -99c88 0 109 10 144 47
c20 21 49 65 83 130h36l-53 -220h-510z" />
    <glyph glyph-name="Lcommaaccent" unicode="&#x13b;" horiz-adv-x="573" 
d="M-16 0l6 31l47 9c23 5 32 10 41 60l88 494c8 48 5 55 -20 60l-44 9l6 30h265l-6 -30l-53 -10c-25 -5 -32 -9 -41 -59l-80 -452c-16 -82 -8 -99 91 -99c88 0 109 10 144 47c20 21 49 65 83 130h36l-53 -220h-510zM152 -286l-8 25c82 23 106 57 112 95c-5 -4 -15 -9 -27 -9
c-38 0 -53 22 -53 52c0 29 28 56 65 56c45 0 77 -27 77 -75c0 -67 -52 -124 -166 -144z" />
    <glyph glyph-name="Ldot" unicode="&#x13f;" horiz-adv-x="584" 
d="M-16 0l6 31l47 9c23 5 32 10 41 60l88 494c8 48 5 55 -20 60l-44 9l6 30h265l-6 -30l-53 -10c-25 -5 -32 -9 -41 -59l-80 -452c-16 -82 -8 -99 91 -99c88 0 109 10 144 47c20 21 49 65 83 130h36l-53 -220h-510zM509 332c-35 0 -64 28 -64 63s29 63 64 63
c37 0 65 -28 65 -63s-28 -63 -65 -63z" />
    <glyph glyph-name="Nacute" unicode="&#x143;" horiz-adv-x="683" 
d="M491 -4l-265 619h-3l-91 -505c-10 -57 1 -67 40 -74l32 -5l-5 -31h-215l6 31l36 7c32 6 44 15 55 79l85 477c8 48 5 55 -20 60l-44 9l6 30h195l218 -513h3l72 404c10 55 2 67 -29 72l-43 7l7 30h210l-6 -30l-32 -7c-31 -7 -44 -18 -55 -82l-105 -578h-52zM368 748l-10 22
l162 114c16 11 28 15 39 15c24 0 39 -21 39 -39c0 -22 -12 -39 -42 -49z" />
    <glyph glyph-name="Ncaron" unicode="&#x147;" horiz-adv-x="683" 
d="M491 -4l-265 619h-3l-91 -505c-10 -57 1 -67 40 -74l32 -5l-5 -31h-215l6 31l36 7c32 6 44 15 55 79l85 477c8 48 5 55 -20 60l-44 9l6 30h195l218 -513h3l72 404c10 55 2 67 -29 72l-43 7l7 30h210l-6 -30l-32 -7c-31 -7 -44 -18 -55 -82l-105 -578h-52zM610 909l12 -21
l-153 -130h-43l-112 130l14 21l130 -69z" />
    <glyph glyph-name="Ncommaaccent" unicode="&#x145;" horiz-adv-x="683" 
d="M491 -4l-265 619h-3l-91 -505c-10 -57 1 -67 40 -74l32 -5l-5 -31h-215l6 31l36 7c32 6 44 15 55 79l85 477c8 48 5 55 -20 60l-44 9l6 30h195l218 -513h3l72 404c10 55 2 67 -29 72l-43 7l7 30h210l-6 -30l-32 -7c-31 -7 -44 -18 -55 -82l-105 -578h-52zM196 -286l-8 25
c82 23 106 57 112 95c-5 -4 -15 -9 -27 -9c-38 0 -53 22 -53 52c0 29 28 56 65 56c45 0 77 -27 77 -75c0 -67 -52 -124 -166 -144z" />
    <glyph glyph-name="Nacute.pl" horiz-adv-x="683" 
d="M491 -4l-265 619h-3l-91 -505c-10 -57 1 -67 40 -74l32 -5l-5 -31h-215l6 31l36 7c32 6 44 15 55 79l85 477c8 48 5 55 -20 60l-44 9l6 30h195l218 -513h3l72 404c10 55 2 67 -29 72l-43 7l7 30h210l-6 -30l-32 -7c-31 -7 -44 -18 -55 -82l-105 -578h-52zM455 749l-21 17
l70 133c11 20 24 32 45 32c23 0 44 -16 44 -42c0 -15 -6 -29 -20 -41z" />
    <glyph glyph-name="Obreve" unicode="&#x14e;" horiz-adv-x="691" 
d="M312 -12c-146 0 -267 103 -267 281c0 254 187 437 369 437c148 0 261 -110 261 -286c0 -252 -179 -432 -363 -432zM318 36c157 0 245 199 245 419c0 103 -29 202 -152 202c-162 0 -254 -205 -254 -416c0 -110 32 -205 161 -205zM429 755c-75 0 -127 65 -124 132l28 6
c8 -39 35 -70 102 -70c61 0 107 31 125 70l28 -8c-16 -66 -84 -130 -159 -130z" />
    <glyph glyph-name="Ohungarumlaut" unicode="&#x150;" horiz-adv-x="691" 
d="M312 -12c-146 0 -267 103 -267 281c0 254 187 437 369 437c148 0 261 -110 261 -286c0 -252 -179 -432 -363 -432zM318 36c157 0 245 199 245 419c0 103 -29 202 -152 202c-162 0 -254 -205 -254 -416c0 -110 32 -205 161 -205zM520 762l-17 20l96 123c11 14 21 21 34 21
c17 0 44 -18 44 -40c0 -14 -4 -27 -25 -40zM346 762l-18 20l95 123c11 15 22 21 35 21c16 0 44 -18 44 -40c0 -14 -4 -26 -26 -40z" />
    <glyph glyph-name="Omacron" unicode="&#x14c;" horiz-adv-x="691" 
d="M312 -12c-146 0 -267 103 -267 281c0 254 187 437 369 437c148 0 261 -110 261 -286c0 -252 -179 -432 -363 -432zM318 36c157 0 245 199 245 419c0 103 -29 202 -152 202c-162 0 -254 -205 -254 -416c0 -110 32 -205 161 -205zM290 777l12 63h284l-12 -63h-284z" />
    <glyph glyph-name="Oacute.pl" horiz-adv-x="691" 
d="M312 -12c-146 0 -267 103 -267 281c0 254 187 437 369 437c148 0 261 -110 261 -286c0 -252 -179 -432 -363 -432zM318 36c157 0 245 199 245 419c0 103 -29 202 -152 202c-162 0 -254 -205 -254 -416c0 -110 32 -205 161 -205zM436 749l-21 17l70 133c11 20 24 32 45 32
c23 0 44 -16 44 -42c0 -15 -6 -29 -20 -41z" />
    <glyph glyph-name="Oslashacute" unicode="&#x1fe;" horiz-adv-x="691" 
d="M19 -64l100 130c-46 48 -74 117 -74 203c0 254 187 437 369 437c60 0 114 -18 157 -51l58 75h57l-82 -106c44 -50 71 -119 71 -204c0 -252 -179 -432 -363 -432c-59 0 -114 16 -159 48l-77 -100h-57zM156 241c0 -44 2 -81 11 -112l367 478c-22 32 -60 50 -123 50
c-162 0 -255 -205 -255 -416zM318 36c157 0 246 199 246 419c0 39 -2 75 -9 104l-366 -476c23 -31 63 -47 129 -47zM350 748l-10 22l162 114c16 11 28 15 39 15c24 0 39 -21 39 -39c0 -22 -12 -39 -42 -49z" />
    <glyph glyph-name="Racute" unicode="&#x154;" horiz-adv-x="638" 
d="M-16 0l6 31l47 9c23 5 32 10 41 60l88 494c8 48 5 55 -20 60l-44 9l6 30h251c153 0 221 -79 221 -170c0 -90 -60 -160 -170 -185v-6c39 -102 82 -196 124 -265c9 -14 18 -23 44 -30l29 -6l-6 -31h-148c-57 95 -103 207 -140 313h-90l-38 -213c-8 -48 -7 -55 20 -60l46 -9
l-6 -31h-261zM294 359c127 0 178 52 178 182c0 84 -34 108 -124 108c-27 0 -49 -3 -67 -7l-49 -279s27 -4 62 -4zM285 748l-10 22l162 114c16 11 28 15 39 15c24 0 39 -21 39 -39c0 -22 -12 -39 -42 -49z" />
    <glyph glyph-name="Rcaron" unicode="&#x158;" horiz-adv-x="638" 
d="M-16 0l6 31l47 9c23 5 32 10 41 60l88 494c8 48 5 55 -20 60l-44 9l6 30h251c153 0 221 -79 221 -170c0 -90 -60 -160 -170 -185v-6c39 -102 82 -196 124 -265c9 -14 18 -23 44 -30l29 -6l-6 -31h-148c-57 95 -103 207 -140 313h-90l-38 -213c-8 -48 -7 -55 20 -60l46 -9
l-6 -31h-261zM294 359c127 0 178 52 178 182c0 84 -34 108 -124 108c-27 0 -49 -3 -67 -7l-49 -279s27 -4 62 -4zM527 909l12 -21l-153 -130h-43l-112 130l14 21l130 -69z" />
    <glyph glyph-name="Rcommaaccent" unicode="&#x156;" horiz-adv-x="638" 
d="M-16 0l6 31l47 9c23 5 32 10 41 60l88 494c8 48 5 55 -20 60l-44 9l6 30h251c153 0 221 -79 221 -170c0 -90 -60 -160 -170 -185v-6c39 -102 82 -196 124 -265c9 -14 18 -23 44 -30l29 -6l-6 -31h-148c-57 95 -103 207 -140 313h-90l-38 -213c-8 -48 -7 -55 20 -60l46 -9
l-6 -31h-261zM294 359c127 0 178 52 178 182c0 84 -34 108 -124 108c-27 0 -49 -3 -67 -7l-49 -279s27 -4 62 -4zM214 -286l-8 25c82 23 106 57 112 95c-5 -4 -15 -9 -27 -9c-38 0 -53 22 -53 52c0 29 28 56 65 56c45 0 77 -27 77 -75c0 -67 -52 -124 -166 -144z" />
    <glyph glyph-name="Sacute" unicode="&#x15a;" horiz-adv-x="516" 
d="M209 -12c-87 0 -164 25 -204 49l13 169h38c13 -52 22 -77 39 -109c20 -38 46 -61 119 -61c102 0 147 54 147 123c0 58 -35 101 -131 162c-92 60 -133 113 -133 188c0 125 113 196 225 196c95 0 142 -18 169 -32l-10 -155h-34c-12 44 -19 61 -34 88c-16 30 -35 52 -98 52
c-76 0 -136 -40 -136 -116c0 -45 29 -83 115 -137c113 -74 157 -133 157 -212c0 -127 -117 -205 -242 -205zM254 748l-10 22l162 114c16 11 28 15 39 15c24 0 39 -21 39 -39c0 -22 -12 -39 -42 -49z" />
    <glyph glyph-name="Scedilla" unicode="&#x15e;" horiz-adv-x="516" 
d="M45 -241l4 26c88 18 122 41 122 72c0 19 -15 34 -59 37l-6 14l54 83c-67 7 -123 26 -155 46l13 169h38c13 -52 22 -77 39 -109c20 -38 46 -61 119 -61c102 0 147 54 147 123c0 58 -35 101 -131 162c-92 60 -133 113 -133 188c0 125 113 196 225 196c95 0 142 -18 169 -32
l-10 -155h-34c-12 44 -19 61 -34 88c-16 30 -35 52 -98 52c-76 0 -136 -40 -136 -116c0 -45 29 -83 115 -137c113 -74 157 -133 157 -212c0 -127 -117 -205 -242 -205h-6l-38 -43c53 -7 83 -37 83 -72c0 -55 -66 -101 -203 -114z" />
    <glyph glyph-name="Scircumflex" unicode="&#x15c;" horiz-adv-x="516" 
d="M209 -12c-87 0 -164 25 -204 49l13 169h38c13 -52 22 -77 39 -109c20 -38 46 -61 119 -61c102 0 147 54 147 123c0 58 -35 101 -131 162c-92 60 -133 113 -133 188c0 125 113 196 225 196c95 0 142 -18 169 -32l-10 -155h-34c-12 44 -19 61 -34 88c-16 30 -35 52 -98 52
c-76 0 -136 -40 -136 -116c0 -45 29 -83 115 -137c113 -74 157 -133 157 -212c0 -127 -117 -205 -242 -205zM192 746l-12 21l153 130h43l112 -130l-14 -21l-130 69z" />
    <glyph glyph-name="Scommaaccent" unicode="&#x218;" horiz-adv-x="516" 
d="M209 -12c-87 0 -164 25 -204 49l13 169h38c13 -52 22 -77 39 -109c20 -38 46 -61 119 -61c102 0 147 54 147 123c0 58 -35 101 -131 162c-92 60 -133 113 -133 188c0 125 113 196 225 196c95 0 142 -18 169 -32l-10 -155h-34c-12 44 -19 61 -34 88c-16 30 -35 52 -98 52
c-76 0 -136 -40 -136 -116c0 -45 29 -83 115 -137c113 -74 157 -133 157 -212c0 -127 -117 -205 -242 -205zM82 -286l-8 25c82 23 106 57 112 95c-5 -4 -15 -9 -27 -9c-38 0 -53 22 -53 52c0 29 28 56 65 56c45 0 77 -27 77 -75c0 -67 -52 -124 -166 -144z" />
    <glyph glyph-name="Sacute.pl" horiz-adv-x="516" 
d="M209 -12c-87 0 -164 25 -204 49l13 169h38c13 -52 22 -77 39 -109c20 -38 46 -61 119 -61c102 0 147 54 147 123c0 58 -35 101 -131 162c-92 60 -133 113 -133 188c0 125 113 196 225 196c95 0 142 -18 169 -32l-10 -155h-34c-12 44 -19 61 -34 88c-16 30 -35 52 -98 52
c-76 0 -136 -40 -136 -116c0 -45 29 -83 115 -137c113 -74 157 -133 157 -212c0 -127 -117 -205 -242 -205zM340 749l-21 17l70 133c11 20 24 32 45 32c23 0 44 -16 44 -42c0 -15 -6 -29 -20 -41z" />
    <glyph glyph-name="Tcaron" unicode="&#x164;" horiz-adv-x="599" 
d="M121 0l6 31l49 9c26 5 33 10 42 60l98 551h-15c-90 0 -102 -4 -134 -45c-27 -34 -43 -69 -70 -125h-36l47 212h533l-23 -212h-36c-9 56 -12 90 -24 125c-13 37 -22 45 -119 45h-16l-98 -551c-8 -48 -7 -55 20 -60l47 -9l-7 -31h-264zM546 909l12 -21l-153 -130h-43
l-112 130l14 21l130 -69z" />
    <glyph glyph-name="Tcommaaccent" unicode="&#x162;" horiz-adv-x="599" 
d="M121 0l6 31l49 9c26 5 33 10 42 60l98 551h-15c-90 0 -102 -4 -134 -45c-27 -34 -43 -69 -70 -125h-36l47 212h533l-23 -212h-36c-9 56 -12 90 -24 125c-13 37 -22 45 -119 45h-16l-98 -551c-8 -48 -7 -55 20 -60l47 -9l-7 -31h-264zM132 -286l-8 25c82 23 106 57 112 95
c-5 -4 -15 -9 -27 -9c-38 0 -53 22 -53 52c0 29 28 56 65 56c45 0 77 -27 77 -75c0 -67 -52 -124 -166 -144z" />
    <glyph glyph-name="Tbar" unicode="&#x166;" horiz-adv-x="599" 
d="M107 359l9 44h156l44 248h-15c-90 0 -102 -4 -134 -45c-27 -34 -43 -69 -70 -125h-36l47 212h533l-23 -212h-36c-9 56 -12 90 -24 125c-13 37 -22 45 -119 45h-16l-44 -248h161l-9 -44h-160l-46 -259c-8 -48 -7 -55 20 -60l47 -9l-7 -31h-264l6 31l49 9c26 5 33 10 42 60
l46 259h-157z" />
    <glyph glyph-name="Ubreve" unicode="&#x16c;" horiz-adv-x="680" 
d="M332 -12c-172 0 -273 79 -241 258l62 348c8 48 5 55 -20 60l-43 9l6 30h257l-6 -30l-46 -9c-26 -5 -32 -10 -41 -60l-64 -358c-25 -138 22 -195 151 -195c123 0 163 66 183 176l65 367c11 60 -2 68 -36 73l-38 6l8 30h216l-7 -30l-36 -7c-27 -5 -44 -16 -54 -72l-69 -381
c-21 -117 -86 -215 -247 -215zM450 755c-75 0 -127 65 -124 132l28 6c8 -39 35 -70 102 -70c61 0 107 31 125 70l28 -8c-16 -66 -84 -130 -159 -130z" />
    <glyph glyph-name="Uhungarumlaut" unicode="&#x170;" horiz-adv-x="680" 
d="M332 -12c-172 0 -273 79 -241 258l62 348c8 48 5 55 -20 60l-43 9l6 30h257l-6 -30l-46 -9c-26 -5 -32 -10 -41 -60l-64 -358c-25 -138 22 -195 151 -195c123 0 163 66 183 176l65 367c11 60 -2 68 -36 73l-38 6l8 30h216l-7 -30l-36 -7c-27 -5 -44 -16 -54 -72l-69 -381
c-21 -117 -86 -215 -247 -215zM541 762l-17 20l96 123c11 14 21 21 34 21c17 0 44 -18 44 -40c0 -14 -4 -27 -25 -40zM367 762l-18 20l95 123c11 15 22 21 35 21c16 0 44 -18 44 -40c0 -14 -4 -26 -26 -40z" />
    <glyph glyph-name="Umacron" unicode="&#x16a;" horiz-adv-x="680" 
d="M332 -12c-172 0 -273 79 -241 258l62 348c8 48 5 55 -20 60l-43 9l6 30h257l-6 -30l-46 -9c-26 -5 -32 -10 -41 -60l-64 -358c-25 -138 22 -195 151 -195c123 0 163 66 183 176l65 367c11 60 -2 68 -36 73l-38 6l8 30h216l-7 -30l-36 -7c-27 -5 -44 -16 -54 -72l-69 -381
c-21 -117 -86 -215 -247 -215zM312 777l12 63h284l-12 -63h-284z" />
    <glyph glyph-name="Uogonek" unicode="&#x172;" horiz-adv-x="680" 
d="M332 -12c-172 0 -273 79 -241 258l62 348c8 48 5 55 -20 60l-43 9l6 30h257l-6 -30l-46 -9c-26 -5 -32 -10 -41 -60l-64 -358c-25 -138 22 -195 151 -195c123 0 163 66 183 176l65 367c11 60 -2 68 -36 73l-38 6l8 30h216l-7 -30l-36 -7c-27 -5 -44 -16 -54 -72l-69 -381
c-15 -82 -52 -153 -126 -190c-80 -40 -143 -73 -143 -145c0 -26 20 -46 53 -46c16 0 34 4 46 9l-4 -29c-18 -13 -48 -25 -89 -25c-53 0 -91 29 -91 74c0 63 65 109 122 137h-15z" />
    <glyph glyph-name="Uring" unicode="&#x16e;" horiz-adv-x="680" 
d="M332 -12c-172 0 -273 79 -241 258l62 348c8 48 5 55 -20 60l-43 9l6 30h257l-6 -30l-46 -9c-26 -5 -32 -10 -41 -60l-64 -358c-25 -138 22 -195 151 -195c123 0 163 66 183 176l65 367c11 60 -2 68 -36 73l-38 6l8 30h216l-7 -30l-36 -7c-27 -5 -44 -16 -54 -72l-69 -381
c-21 -117 -86 -215 -247 -215zM455 717c-58 0 -102 45 -102 98c0 55 44 99 102 99s102 -44 102 -99c0 -53 -44 -98 -102 -98zM455 755c35 0 58 25 58 60s-23 61 -58 61s-58 -26 -58 -61s23 -60 58 -60z" />
    <glyph glyph-name="Utilde" unicode="&#x168;" horiz-adv-x="680" 
d="M332 -12c-172 0 -273 79 -241 258l62 348c8 48 5 55 -20 60l-43 9l6 30h257l-6 -30l-46 -9c-26 -5 -32 -10 -41 -60l-64 -358c-25 -138 22 -195 151 -195c123 0 163 66 183 176l65 367c11 60 -2 68 -36 73l-38 6l8 30h216l-7 -30l-36 -7c-27 -5 -44 -16 -54 -72l-69 -381
c-21 -117 -86 -215 -247 -215zM321 753l-32 14c38 83 68 124 110 124c41 0 118 -41 143 -41c21 0 38 20 67 66l31 -13c-38 -83 -68 -124 -110 -124c-41 0 -115 41 -143 41c-21 0 -37 -20 -66 -67z" />
    <glyph glyph-name="Wacute" unicode="&#x1e82;" horiz-adv-x="919" 
d="M212 0l-69 576c-9 73 -17 73 -43 80l-26 7l6 30h243l-6 -30l-32 -7c-31 -6 -41 -20 -41 -47c0 -15 4 -36 6 -54l44 -412h5l193 380l-5 53c-7 61 -17 72 -44 80l-25 7l7 30h241l-6 -30l-33 -7c-29 -6 -41 -25 -41 -52c0 -15 1 -29 4 -52l44 -409h6l193 424
c12 28 17 41 17 59c0 17 -8 26 -30 31l-25 6l7 30h199l-7 -30l-27 -7c-33 -7 -42 -21 -78 -98l-265 -558h-67l-50 442h-3l-226 -442h-66zM471 748l-10 22l162 114c16 11 28 15 39 15c24 0 39 -21 39 -39c0 -22 -12 -39 -42 -49z" />
    <glyph glyph-name="Wcircumflex" unicode="&#x174;" horiz-adv-x="919" 
d="M212 0l-69 576c-9 73 -17 73 -43 80l-26 7l6 30h243l-6 -30l-32 -7c-31 -6 -41 -20 -41 -47c0 -15 4 -36 6 -54l44 -412h5l193 380l-5 53c-7 61 -17 72 -44 80l-25 7l7 30h241l-6 -30l-33 -7c-29 -6 -41 -25 -41 -52c0 -15 1 -29 4 -52l44 -409h6l193 424
c12 28 17 41 17 59c0 17 -8 26 -30 31l-25 6l7 30h199l-7 -30l-27 -7c-33 -7 -42 -21 -78 -98l-265 -558h-67l-50 442h-3l-226 -442h-66zM409 746l-12 21l153 130h43l112 -130l-14 -21l-130 69z" />
    <glyph glyph-name="Wdieresis" unicode="&#x1e84;" horiz-adv-x="919" 
d="M212 0l-69 576c-9 73 -17 73 -43 80l-26 7l6 30h243l-6 -30l-32 -7c-31 -6 -41 -20 -41 -47c0 -15 4 -36 6 -54l44 -412h5l193 380l-5 53c-7 61 -17 72 -44 80l-25 7l7 30h241l-6 -30l-33 -7c-29 -6 -41 -25 -41 -52c0 -15 1 -29 4 -52l44 -409h6l193 424
c12 28 17 41 17 59c0 17 -8 26 -30 31l-25 6l7 30h199l-7 -30l-27 -7c-33 -7 -42 -21 -78 -98l-265 -558h-67l-50 442h-3l-226 -442h-66zM450 751c-33 0 -61 26 -61 60c0 36 31 66 68 66c30 0 60 -27 60 -60c0 -35 -32 -66 -67 -66zM667 751c-33 0 -61 26 -61 60
c0 36 31 66 67 66c32 0 60 -27 60 -60c0 -35 -31 -66 -66 -66z" />
    <glyph glyph-name="Wgrave" unicode="&#x1e80;" horiz-adv-x="919" 
d="M212 0l-69 576c-9 73 -17 73 -43 80l-26 7l6 30h243l-6 -30l-32 -7c-31 -6 -41 -20 -41 -47c0 -15 4 -36 6 -54l44 -412h5l193 380l-5 53c-7 61 -17 72 -44 80l-25 7l7 30h241l-6 -30l-33 -7c-29 -6 -41 -25 -41 -52c0 -15 1 -29 4 -52l44 -409h6l193 424
c12 28 17 41 17 59c0 17 -8 26 -30 31l-25 6l7 30h199l-7 -30l-27 -7c-33 -7 -42 -21 -78 -98l-265 -558h-67l-50 442h-3l-226 -442h-66zM650 748l-195 64c-28 9 -37 29 -37 46c0 21 18 43 41 43c12 0 24 -5 39 -15l163 -114z" />
    <glyph glyph-name="Ycircumflex" unicode="&#x176;" horiz-adv-x="593" 
d="M117 0l6 31l50 9c26 5 33 11 42 60l32 177l-93 290c-20 64 -31 81 -57 89l-24 7l6 30h252l-7 -30l-26 -6c-32 -7 -48 -16 -48 -37c0 -12 5 -32 11 -53l69 -228h5l142 212c26 38 36 57 36 74c0 15 -8 28 -34 33l-24 5l7 30h209l-6 -30l-24 -7c-33 -11 -54 -30 -104 -103
l-182 -269l-33 -184c-9 -48 -6 -55 21 -60l45 -9l-6 -31h-265zM259 746l-12 21l153 130h43l112 -130l-14 -21l-130 69z" />
    <glyph glyph-name="Ygrave" unicode="&#x1ef2;" horiz-adv-x="593" 
d="M117 0l6 31l50 9c26 5 33 11 42 60l32 177l-93 290c-20 64 -31 81 -57 89l-24 7l6 30h252l-7 -30l-26 -6c-32 -7 -48 -16 -48 -37c0 -12 5 -32 11 -53l69 -228h5l142 212c26 38 36 57 36 74c0 15 -8 28 -34 33l-24 5l7 30h209l-6 -30l-24 -7c-33 -11 -54 -30 -104 -103
l-182 -269l-33 -184c-9 -48 -6 -55 21 -60l45 -9l-6 -31h-265zM500 748l-195 64c-28 9 -37 29 -37 46c0 21 18 43 41 43c12 0 24 -5 39 -15l163 -114z" />
    <glyph glyph-name="Zacute" unicode="&#x179;" horiz-adv-x="549" 
d="M-17 0l8 40l473 606v4h-54c-160 0 -178 -4 -212 -46c-25 -29 -40 -61 -68 -112h-35l41 201h459l-9 -40l-470 -606v-4h57c174 0 193 6 227 43c25 27 44 64 81 131h37l-42 -217h-493zM287 748l-10 22l162 114c16 11 28 15 39 15c24 0 39 -21 39 -39c0 -22 -12 -39 -42 -49z
" />
    <glyph glyph-name="Zacute.pl" horiz-adv-x="549" 
d="M-17 0l8 40l473 606v4h-54c-160 0 -178 -4 -212 -46c-25 -29 -40 -61 -68 -112h-35l41 201h459l-9 -40l-470 -606v-4h57c174 0 193 6 227 43c25 27 44 64 81 131h37l-42 -217h-493zM353 749l-21 17l70 133c11 20 24 32 45 32c23 0 44 -16 44 -42c0 -15 -6 -29 -20 -41z
" />
    <glyph glyph-name="Zdotaccent" unicode="&#x17b;" horiz-adv-x="549" 
d="M-17 0l8 40l473 606v4h-54c-160 0 -178 -4 -212 -46c-25 -29 -40 -61 -68 -112h-35l41 201h459l-9 -40l-470 -606v-4h57c174 0 193 6 227 43c25 27 44 64 81 131h37l-42 -217h-493zM375 750c-38 0 -67 32 -67 64c0 35 29 64 67 64c37 0 66 -29 66 -64
c0 -32 -29 -64 -66 -64z" />
    <glyph glyph-name="abreve" unicode="&#x103;" horiz-adv-x="551" 
d="M131 -13c-71 0 -111 58 -111 133c0 227 183 404 311 404c68 0 86 -15 110 -33h4l50 38l20 -7s-19 -40 -42 -156l-46 -246c-2 -13 -4 -23 -4 -36c0 -21 16 -23 57 0l22 14l15 -23c-58 -53 -102 -84 -153 -84c-32 0 -42 29 -42 53c0 22 5 56 12 84h-4
c-44 -63 -114 -141 -199 -141zM169 50c64 0 128 87 178 153l47 231c-10 25 -27 49 -70 49c-95 0 -207 -163 -207 -354c0 -53 20 -79 52 -79zM344 594c-75 0 -122 65 -119 148l28 6c8 -47 30 -86 97 -86c61 0 101 39 120 86l28 -8c-17 -83 -79 -146 -154 -146z" />
    <glyph glyph-name="amacron" unicode="&#x101;" horiz-adv-x="551" 
d="M131 -13c-71 0 -111 58 -111 133c0 227 183 404 311 404c68 0 86 -15 110 -33h4l50 38l20 -7s-19 -40 -42 -156l-46 -246c-2 -13 -4 -23 -4 -36c0 -21 16 -23 57 0l22 14l15 -23c-58 -53 -102 -84 -153 -84c-32 0 -42 29 -42 53c0 22 5 56 12 84h-4
c-44 -63 -114 -141 -199 -141zM169 50c64 0 128 87 178 153l47 231c-10 25 -27 49 -70 49c-95 0 -207 -163 -207 -354c0 -53 20 -79 52 -79zM208 624l12 63h274l-12 -63h-274z" />
    <glyph glyph-name="aogonek" unicode="&#x105;" horiz-adv-x="551" 
d="M322 -223c-53 0 -91 29 -91 74c0 66 66 111 121 142c-23 6 -30 30 -30 51c0 22 5 56 12 84h-4c-44 -63 -114 -141 -199 -141c-71 0 -111 58 -111 133c0 227 183 404 311 404c68 0 86 -15 110 -33h4l50 38l20 -7s-19 -40 -42 -156l-46 -246c-2 -13 -4 -23 -4 -36
c0 -21 16 -23 57 0l22 14l15 -23c-39 -35 -72 -61 -103 -75c-53 -24 -98 -85 -98 -132c0 -26 20 -46 53 -46c16 0 34 4 46 9l-4 -29c-18 -13 -48 -25 -89 -25zM169 50c64 0 128 87 178 153l47 231c-10 25 -27 49 -70 49c-95 0 -207 -163 -207 -354c0 -53 20 -79 52 -79z" />
    <glyph glyph-name="aringacute" unicode="&#x1fb;" horiz-adv-x="551" 
d="M131 -13c-71 0 -111 58 -111 133c0 227 183 404 311 404c68 0 86 -15 110 -33h4l50 38l20 -7s-19 -40 -42 -156l-46 -246c-2 -13 -4 -23 -4 -36c0 -21 16 -23 57 0l22 14l15 -23c-58 -53 -102 -84 -153 -84c-32 0 -42 29 -42 53c0 22 5 56 12 84h-4
c-44 -63 -114 -141 -199 -141zM169 50c64 0 128 87 178 153l47 231c-10 25 -27 49 -70 49c-95 0 -207 -163 -207 -354c0 -53 20 -79 52 -79zM356 588c-58 0 -102 45 -102 98c0 55 44 99 102 99s102 -44 102 -99c0 -53 -44 -98 -102 -98zM356 626c35 0 58 25 58 60
s-23 61 -58 61s-58 -26 -58 -61s23 -60 58 -60zM280 813l-10 22l162 114c16 11 28 15 39 15c24 0 39 -21 39 -39c0 -22 -12 -39 -42 -49z" />
    <glyph glyph-name="aeacute" unicode="&#x1fd;" horiz-adv-x="721" 
d="M130 -14c-76 0 -114 47 -114 111c0 104 96 154 301 187l11 67c17 100 0 134 -74 134c-39 0 -49 -8 -51 -38c-3 -44 -21 -63 -56 -63c-32 0 -49 18 -49 48c0 60 81 93 164 93c87 0 143 -29 151 -102c60 66 133 102 190 102c92 0 121 -36 121 -96
c0 -81 -136 -169 -325 -191c-6 -28 -9 -57 -9 -87c0 -71 32 -111 86 -111c58 0 107 34 160 79l21 -24c-42 -45 -115 -109 -217 -109c-71 0 -121 40 -139 98h-3c-41 -52 -95 -98 -168 -98zM293 137c0 38 6 75 15 108c-158 -32 -195 -58 -195 -140c0 -34 18 -60 53 -60
c38 0 88 35 127 82v10zM588 484c-60 0 -142 -86 -179 -206c81 15 143 35 184 69c24 21 37 48 37 90c0 36 -18 47 -42 47zM429 595l-10 22l162 114c16 11 28 15 39 15c24 0 39 -21 39 -39c0 -22 -12 -39 -42 -49z" />
    <glyph glyph-name="cacute" unicode="&#x107;" horiz-adv-x="452" 
d="M174 -14c-90 0 -148 67 -148 151c0 227 169 387 308 387c83 0 126 -35 126 -77c0 -36 -16 -57 -51 -57c-36 0 -55 14 -59 66c-2 22 -8 27 -30 27c-95 0 -196 -161 -196 -332c0 -75 32 -109 90 -109c54 0 107 38 157 83l21 -25c-43 -49 -113 -114 -218 -114zM257 595
l-10 22l162 114c16 11 28 15 39 15c24 0 39 -21 39 -39c0 -22 -12 -39 -42 -49z" />
    <glyph glyph-name="ccaron" unicode="&#x10d;" horiz-adv-x="452" 
d="M174 -14c-90 0 -148 67 -148 151c0 227 169 387 308 387c83 0 126 -35 126 -77c0 -36 -16 -57 -51 -57c-36 0 -55 14 -59 66c-2 22 -8 27 -30 27c-95 0 -196 -161 -196 -332c0 -75 32 -109 90 -109c54 0 107 38 157 83l21 -25c-43 -49 -113 -114 -218 -114zM304 597
l-106 149l16 21l122 -88l156 88l14 -21l-159 -149h-43z" />
    <glyph glyph-name="ccircumflex" unicode="&#x109;" horiz-adv-x="452" 
d="M174 -14c-90 0 -148 67 -148 151c0 227 169 387 308 387c83 0 126 -35 126 -77c0 -36 -16 -57 -51 -57c-36 0 -55 14 -59 66c-2 22 -8 27 -30 27c-95 0 -196 -161 -196 -332c0 -75 32 -109 90 -109c54 0 107 38 157 83l21 -25c-43 -49 -113 -114 -218 -114zM186 582
l-14 20l159 150h43l106 -150l-16 -20l-122 88z" />
    <glyph glyph-name="cdotaccent" unicode="&#x10b;" horiz-adv-x="452" 
d="M174 -14c-90 0 -148 67 -148 151c0 227 169 387 308 387c83 0 126 -35 126 -77c0 -36 -16 -57 -51 -57c-36 0 -55 14 -59 66c-2 22 -8 27 -30 27c-95 0 -196 -161 -196 -332c0 -75 32 -109 90 -109c54 0 107 38 157 83l21 -25c-43 -49 -113 -114 -218 -114zM337 615
c-38 0 -67 32 -67 64c0 35 29 64 67 64c37 0 66 -29 66 -64c0 -32 -29 -64 -66 -64z" />
    <glyph glyph-name="cacute.pl" horiz-adv-x="452" 
d="M174 -14c-90 0 -148 67 -148 151c0 227 169 387 308 387c83 0 126 -35 126 -77c0 -36 -16 -57 -51 -57c-36 0 -55 14 -59 66c-2 22 -8 27 -30 27c-95 0 -196 -161 -196 -332c0 -75 32 -109 90 -109c54 0 107 38 157 83l21 -25c-43 -49 -113 -114 -218 -114zM312 573
l-21 18l87 158c11 19 25 33 46 33s43 -17 43 -43c0 -14 -6 -27 -18 -39z" />
    <glyph glyph-name="dcaron" unicode="&#x10f;" horiz-adv-x="567" 
d="M139 -13c-72 0 -118 56 -118 141c0 217 185 396 322 396c39 0 63 -6 78 -14h4s5 36 12 75l14 68c6 34 0 41 -25 51l-43 17l5 28l176 16l9 -8s-16 -53 -28 -117l-103 -520c-3 -12 -5 -23 -5 -36c0 -21 19 -24 58 0l21 14l15 -23c-58 -53 -102 -84 -153 -84
c-31 0 -41 29 -41 53c0 22 6 59 13 87h-4c-45 -63 -123 -144 -207 -144zM176 50c65 0 136 90 186 156l46 226c-9 26 -29 51 -72 51c-105 0 -218 -170 -218 -346c0 -63 26 -87 58 -87zM634 566l-23 11l32 145c5 24 16 43 44 43c22 0 45 -15 45 -40c0 -12 -5 -24 -13 -36z" />
    <glyph glyph-name="ebreve" unicode="&#x115;" horiz-adv-x="456" 
d="M174 -14c-94 0 -148 67 -148 151c0 227 196 388 320 388c76 0 113 -42 113 -102c0 -88 -145 -173 -331 -215c-3 -19 -4 -38 -4 -57c0 -71 34 -111 88 -111c60 0 104 36 158 79l21 -24c-42 -45 -115 -109 -217 -109zM323 484c-64 0 -156 -100 -188 -234
c86 22 141 47 178 78c34 28 50 65 50 103c0 35 -16 53 -40 53zM340 594c-75 0 -122 65 -119 148l28 6c8 -47 30 -86 97 -86c61 0 101 39 120 86l28 -8c-17 -83 -79 -146 -154 -146z" />
    <glyph glyph-name="ecaron" unicode="&#x11b;" horiz-adv-x="456" 
d="M174 -14c-94 0 -148 67 -148 151c0 227 196 388 320 388c76 0 113 -42 113 -102c0 -88 -145 -173 -331 -215c-3 -19 -4 -38 -4 -57c0 -71 34 -111 88 -111c60 0 104 36 158 79l21 -24c-42 -45 -115 -109 -217 -109zM323 484c-64 0 -156 -100 -188 -234
c86 22 141 47 178 78c34 28 50 65 50 103c0 35 -16 53 -40 53zM317 597l-106 149l16 21l122 -88l156 88l14 -21l-159 -149h-43z" />
    <glyph glyph-name="edotaccent" unicode="&#x117;" horiz-adv-x="456" 
d="M174 -14c-94 0 -148 67 -148 151c0 227 196 388 320 388c76 0 113 -42 113 -102c0 -88 -145 -173 -331 -215c-3 -19 -4 -38 -4 -57c0 -71 34 -111 88 -111c60 0 104 36 158 79l21 -24c-42 -45 -115 -109 -217 -109zM323 484c-64 0 -156 -100 -188 -234
c86 22 141 47 178 78c34 28 50 65 50 103c0 35 -16 53 -40 53zM350 615c-38 0 -67 32 -67 64c0 35 29 64 67 64c37 0 66 -29 66 -64c0 -32 -29 -64 -66 -64z" />
    <glyph glyph-name="emacron" unicode="&#x113;" horiz-adv-x="456" 
d="M174 -14c-94 0 -148 67 -148 151c0 227 196 388 320 388c76 0 113 -42 113 -102c0 -88 -145 -173 -331 -215c-3 -19 -4 -38 -4 -57c0 -71 34 -111 88 -111c60 0 104 36 158 79l21 -24c-42 -45 -115 -109 -217 -109zM323 484c-64 0 -156 -100 -188 -234
c86 22 141 47 178 78c34 28 50 65 50 103c0 35 -16 53 -40 53zM205 624l12 63h274l-12 -63h-274z" />
    <glyph glyph-name="eogonek" unicode="&#x119;" horiz-adv-x="456" 
d="M174 -14c-94 0 -148 67 -148 151c0 227 196 388 320 388c76 0 113 -42 113 -102c0 -88 -145 -173 -331 -215c-3 -19 -4 -38 -4 -57c0 -71 34 -111 88 -111c60 0 104 36 158 79l21 -24c-30 -34 -77 -67 -116 -97c-47 -36 -95 -83 -95 -130c0 -26 20 -46 53 -46
c16 0 34 4 46 9l-4 -29c-18 -13 -48 -25 -89 -25c-53 0 -91 29 -91 74c0 64 70 109 125 140c-14 -3 -30 -5 -46 -5zM323 484c-64 0 -156 -100 -188 -234c86 22 141 47 178 78c34 28 50 65 50 103c0 35 -16 53 -40 53z" />
    <glyph glyph-name="gbreve" unicode="&#x11f;" horiz-adv-x="508" 
d="M162 -224c-111 0 -214 51 -214 130c0 67 72 111 147 135v4c-29 10 -48 32 -48 69c0 47 49 84 89 103v2c-33 17 -68 57 -68 109c0 127 113 196 209 196c43 0 75 -8 106 -27c34 30 83 61 127 61c32 0 52 -19 52 -44c0 -37 -20 -53 -46 -53c-27 0 -33 19 -40 32
c-8 17 -46 2 -68 -21v-3c26 -25 37 -49 37 -90c0 -129 -114 -190 -209 -190c-27 0 -49 5 -69 13c-17 -9 -40 -28 -40 -57c0 -20 11 -37 43 -39l104 -6c102 -6 158 -51 158 -127c0 -104 -96 -197 -270 -197zM172 -183c114 0 174 56 174 123c0 44 -17 73 -82 79l-126 12
c-40 -16 -100 -57 -100 -121c0 -57 43 -93 134 -93zM237 228c69 0 116 69 116 175c0 52 -26 82 -77 82c-68 0 -116 -80 -116 -179c0 -50 25 -78 77 -78zM308 594c-75 0 -122 65 -119 148l28 6c8 -47 30 -86 97 -86c61 0 101 39 120 86l28 -8c-17 -83 -79 -146 -154 -146z
" />
    <glyph glyph-name="gcircumflex" unicode="&#x11d;" horiz-adv-x="508" 
d="M162 -224c-111 0 -214 51 -214 130c0 67 72 111 147 135v4c-29 10 -48 32 -48 69c0 47 49 84 89 103v2c-33 17 -68 57 -68 109c0 127 113 196 209 196c43 0 75 -8 106 -27c34 30 83 61 127 61c32 0 52 -19 52 -44c0 -37 -20 -53 -46 -53c-27 0 -33 19 -40 32
c-8 17 -46 2 -68 -21v-3c26 -25 37 -49 37 -90c0 -129 -114 -190 -209 -190c-27 0 -49 5 -69 13c-17 -9 -40 -28 -40 -57c0 -20 11 -37 43 -39l104 -6c102 -6 158 -51 158 -127c0 -104 -96 -197 -270 -197zM172 -183c114 0 174 56 174 123c0 44 -17 73 -82 79l-126 12
c-40 -16 -100 -57 -100 -121c0 -57 43 -93 134 -93zM237 228c69 0 116 69 116 175c0 52 -26 82 -77 82c-68 0 -116 -80 -116 -179c0 -50 25 -78 77 -78zM166 582l-14 20l159 150h43l106 -150l-16 -20l-122 88z" />
    <glyph glyph-name="gcommaaccent" unicode="&#x123;" horiz-adv-x="508" 
d="M162 -224c-111 0 -214 51 -214 130c0 67 72 111 147 135v4c-29 10 -48 32 -48 69c0 47 49 84 89 103v2c-33 17 -68 57 -68 109c0 127 113 196 209 196c43 0 75 -8 106 -27c34 30 83 61 127 61c32 0 52 -19 52 -44c0 -37 -20 -53 -46 -53c-27 0 -33 19 -40 32
c-8 17 -46 2 -68 -21v-3c26 -25 37 -49 37 -90c0 -129 -114 -190 -209 -190c-27 0 -49 5 -69 13c-17 -9 -40 -28 -40 -57c0 -20 11 -37 43 -39l104 -6c102 -6 158 -51 158 -127c0 -104 -96 -197 -270 -197zM172 -183c114 0 174 56 174 123c0 44 -17 73 -82 79l-126 12
c-40 -16 -100 -57 -100 -121c0 -57 43 -93 134 -93zM237 228c69 0 116 69 116 175c0 52 -26 82 -77 82c-68 0 -116 -80 -116 -179c0 -50 25 -78 77 -78zM396 825l8 -25c-82 -23 -106 -57 -112 -95c5 4 15 9 27 9c38 0 53 -22 53 -52c0 -29 -28 -56 -65 -56
c-45 0 -77 27 -77 75c0 67 52 124 166 144z" />
    <glyph glyph-name="gdotaccent" unicode="&#x121;" horiz-adv-x="508" 
d="M162 -224c-111 0 -214 51 -214 130c0 67 72 111 147 135v4c-29 10 -48 32 -48 69c0 47 49 84 89 103v2c-33 17 -68 57 -68 109c0 127 113 196 209 196c43 0 75 -8 106 -27c34 30 83 61 127 61c32 0 52 -19 52 -44c0 -37 -20 -53 -46 -53c-27 0 -33 19 -40 32
c-8 17 -46 2 -68 -21v-3c26 -25 37 -49 37 -90c0 -129 -114 -190 -209 -190c-27 0 -49 5 -69 13c-17 -9 -40 -28 -40 -57c0 -20 11 -37 43 -39l104 -6c102 -6 158 -51 158 -127c0 -104 -96 -197 -270 -197zM172 -183c114 0 174 56 174 123c0 44 -17 73 -82 79l-126 12
c-40 -16 -100 -57 -100 -121c0 -57 43 -93 134 -93zM237 228c69 0 116 69 116 175c0 52 -26 82 -77 82c-68 0 -116 -80 -116 -179c0 -50 25 -78 77 -78zM317 615c-38 0 -67 32 -67 64c0 35 29 64 67 64c37 0 66 -29 66 -64c0 -32 -29 -64 -66 -64z" />
    <glyph glyph-name="hbar" unicode="&#x127;" horiz-adv-x="571" 
d="M57 598l7 41h99l3 14c7 33 0 41 -24 51l-43 17l5 28l173 16l9 -8s-16 -54 -28 -117v-1h152l-7 -41h-154l-25 -126c-10 -52 -18 -80 -25 -106h5c77 90 153 158 225 158c53 0 80 -38 80 -88c0 -20 -4 -56 -14 -99l-51 -218c-2 -11 -5 -22 -5 -35c0 -23 14 -28 60 0l21 14
l16 -23c-59 -53 -101 -84 -157 -84c-27 0 -44 21 -44 47c0 28 6 49 13 80l49 212c22 96 18 122 -15 122c-52 0 -131 -79 -187 -142l-68 -310h-96l123 598h-97z" />
    <glyph glyph-name="hcircumflex" unicode="&#x125;" horiz-adv-x="571" 
d="M379 -9c-27 0 -44 21 -44 47c0 28 6 49 13 80l49 212c22 96 18 122 -15 122c-52 0 -131 -79 -187 -142l-68 -310h-96l135 653c7 33 0 41 -24 51l-43 17l5 28l173 16l9 -8s-16 -54 -28 -117l-34 -168c-10 -52 -18 -80 -25 -106h5c77 90 153 158 225 158
c53 0 80 -38 80 -88c0 -20 -4 -56 -14 -99l-51 -218c-2 -11 -5 -22 -5 -35c0 -23 14 -28 60 0l21 14l16 -23c-59 -53 -101 -84 -157 -84zM246 816l-12 21l153 130h43l112 -130l-14 -21l-130 69z" />
    <glyph glyph-name="ibreve" unicode="&#x12d;" horiz-adv-x="286" 
d="M90 -9c-27 0 -43 21 -43 47c0 28 4 49 12 80l67 269c3 15 7 30 7 39c0 22 -18 19 -55 -4l-23 -14l-15 21c67 65 116 95 159 95c25 0 36 -18 36 -42c0 -28 -7 -63 -18 -108l-62 -255c-3 -12 -5 -22 -5 -35c0 -23 18 -24 60 0l25 16l15 -23c-59 -54 -104 -86 -160 -86z
M205 594c-75 0 -122 65 -119 148l28 6c8 -47 30 -86 97 -86c61 0 101 39 120 86l28 -8c-17 -83 -79 -146 -154 -146z" />
    <glyph glyph-name="imacron" unicode="&#x12b;" horiz-adv-x="286" 
d="M79 624l12 63h234l-12 -63h-234zM90 -9c-27 0 -43 21 -43 47c0 28 4 49 12 80l67 269c3 15 7 30 7 39c0 22 -18 19 -55 -4l-23 -14l-15 21c67 65 116 95 159 95c25 0 36 -18 36 -42c0 -28 -7 -63 -18 -108l-62 -255c-3 -12 -5 -22 -5 -35c0 -23 18 -24 60 0l25 16l15 -23
c-59 -54 -104 -86 -160 -86z" />
    <glyph glyph-name="iogonek" unicode="&#x12f;" horiz-adv-x="286" 
d="M62 -223c-53 0 -91 29 -91 74c0 65 64 109 118 140c-26 1 -42 21 -42 47c0 28 4 49 12 80l67 269c3 15 7 30 7 39c0 22 -18 19 -55 -4l-23 -14l-15 21c67 65 116 95 159 95c25 0 36 -18 36 -42c0 -28 -7 -63 -18 -108l-62 -255c-3 -12 -5 -22 -5 -35c0 -23 18 -24 60 0
l25 16l15 -23c-42 -39 -75 -59 -107 -82c-47 -34 -87 -80 -87 -127c0 -26 20 -46 53 -46c16 0 34 4 46 9l-4 -29c-18 -13 -48 -25 -89 -25zM209 615c-38 0 -67 32 -67 64c0 35 29 64 67 64c37 0 66 -29 66 -64c0 -32 -29 -64 -66 -64z" />
    <glyph glyph-name="itilde" unicode="&#x129;" horiz-adv-x="286" 
d="M90 -9c-27 0 -43 21 -43 47c0 28 4 49 12 80l67 269c3 15 7 30 7 39c0 22 -18 19 -55 -4l-23 -14l-15 21c67 65 116 95 159 95c25 0 36 -18 36 -42c0 -28 -7 -63 -18 -108l-62 -255c-3 -12 -5 -22 -5 -35c0 -23 18 -24 60 0l25 16l15 -23c-59 -54 -104 -86 -160 -86z
M76 583l-32 14c38 83 68 124 110 124c41 0 108 -41 133 -41c21 0 38 20 67 66l31 -13c-38 -83 -68 -124 -110 -124c-41 0 -105 41 -133 41c-21 0 -37 -20 -66 -67z" />
    <glyph glyph-name="idotaccent" horiz-adv-x="286" 
d="M90 -9c-27 0 -43 21 -43 47c0 28 4 49 12 80l67 269c3 15 7 30 7 39c0 22 -18 19 -55 -4l-23 -14l-15 21c67 65 116 95 159 95c25 0 36 -18 36 -42c0 -28 -7 -63 -18 -108l-62 -255c-3 -12 -5 -22 -5 -35c0 -23 18 -24 60 0l25 16l15 -23c-59 -54 -104 -86 -160 -86z
M209 615c-38 0 -67 32 -67 64c0 35 29 64 67 64c37 0 66 -29 66 -64c0 -32 -29 -64 -66 -64z" />
    <glyph glyph-name="jcircumflex" unicode="&#x135;" horiz-adv-x="278" 
d="M-57 -226c-62 0 -93 32 -93 64c0 33 19 50 45 50c34 0 48 -13 56 -54c3 -18 8 -23 16 -23c28 0 60 28 77 127l82 449c3 17 7 30 7 39c0 22 -16 20 -55 -4l-23 -14l-15 21c67 65 116 95 159 95c25 0 36 -18 36 -42c0 -28 -7 -63 -16 -108l-66 -337
c-40 -204 -125 -263 -210 -263zM58 582l-14 20l159 150h43l106 -150l-16 -20l-122 88z" />
    <glyph glyph-name="kcommaaccent" unicode="&#x137;" horiz-adv-x="520" 
d="M350 -9c-19 0 -41 23 -63 74c-21 45 -45 103 -81 199v13c128 186 198 247 266 247c29 0 57 -17 57 -60c0 -35 -21 -54 -47 -54c-43 0 -41 46 -53 46c-33 0 -106 -83 -148 -142c38 -99 60 -146 83 -197c29 -61 42 -62 86 -33l23 15l17 -24c-61 -55 -100 -84 -140 -84z
M31 0l135 653c7 33 0 41 -24 51l-43 17l5 28l173 16l9 -8s-15 -54 -28 -117l-131 -640h-96zM107 -286l-8 25c82 23 106 57 112 95c-5 -4 -15 -9 -27 -9c-38 0 -53 22 -53 52c0 29 28 56 65 56c45 0 77 -27 77 -75c0 -67 -52 -124 -166 -144z" />
    <glyph glyph-name="lacute" unicode="&#x13a;" horiz-adv-x="287" 
d="M89 -9c-27 0 -43 21 -43 47c0 28 6 49 12 80l105 535c6 33 0 42 -24 51l-46 17l5 28l176 16l9 -8s-16 -54 -28 -117l-99 -521c-2 -11 -5 -22 -5 -35c0 -23 19 -24 64 2l22 14l15 -23c-61 -56 -107 -86 -163 -86zM149 818l-10 22l162 114c16 11 28 15 39 15
c24 0 39 -21 39 -39c0 -22 -12 -39 -42 -49z" />
    <glyph glyph-name="lcaron" unicode="&#x13e;" horiz-adv-x="287" 
d="M89 -9c-27 0 -43 21 -43 47c0 28 6 49 12 80l105 535c6 33 0 42 -24 51l-46 17l5 28l176 16l9 -8s-16 -54 -28 -117l-99 -521c-2 -11 -5 -22 -5 -35c0 -23 19 -24 64 2l22 14l15 -23c-61 -56 -107 -86 -163 -86zM344 566l-23 11l32 145c5 24 16 43 44 43
c22 0 45 -15 45 -40c0 -12 -5 -24 -13 -36z" />
    <glyph glyph-name="lcommaaccent" unicode="&#x13c;" horiz-adv-x="287" 
d="M89 -9c-27 0 -43 21 -43 47c0 28 6 49 12 80l105 535c6 33 0 42 -24 51l-46 17l5 28l176 16l9 -8s-16 -54 -28 -117l-99 -521c-2 -11 -5 -22 -5 -35c0 -23 19 -24 64 2l22 14l15 -23c-61 -56 -107 -86 -163 -86zM-23 -286l-8 25c82 23 106 57 112 95c-5 -4 -15 -9 -27 -9
c-38 0 -53 22 -53 52c0 29 28 56 65 56c45 0 77 -27 77 -75c0 -67 -52 -124 -166 -144z" />
    <glyph glyph-name="ldot" unicode="&#x140;" horiz-adv-x="394" 
d="M89 -9c-27 0 -43 21 -43 47c0 28 6 49 12 80l105 535c6 33 0 42 -24 51l-46 17l5 28l176 16l9 -8s-16 -54 -28 -117l-99 -521c-2 -11 -5 -22 -5 -35c0 -23 19 -24 64 2l22 14l15 -23c-61 -56 -107 -86 -163 -86zM353 313c-35 0 -64 28 -64 63s29 63 64 63
c37 0 65 -28 65 -63s-28 -63 -65 -63z" />
    <glyph glyph-name="nacute" unicode="&#x144;" horiz-adv-x="582" 
d="M390 -9c-27 0 -43 21 -43 47c0 28 5 49 12 80l49 212c22 96 18 122 -14 122c-52 0 -134 -80 -188 -142l-67 -310h-97l84 387c3 14 7 31 7 40c0 21 -14 20 -56 -5l-20 -12l-14 21c64 63 106 93 149 93c25 0 37 -18 37 -42c0 -28 -13 -90 -19 -116h5c78 90 151 158 226 158
c53 0 79 -38 79 -88c0 -20 -4 -56 -14 -99l-51 -218c-2 -11 -5 -22 -5 -35c0 -23 14 -28 60 0l21 14l16 -23c-59 -53 -101 -84 -157 -84zM283 595l-10 22l162 114c16 11 28 15 39 15c24 0 39 -21 39 -39c0 -22 -12 -39 -42 -49z" />
    <glyph glyph-name="napostrophe" unicode="&#x149;" horiz-adv-x="637" 
d="M-55 445l-8 30c94 28 133 72 138 119c-8 -5 -19 -8 -29 -8c-25 0 -55 20 -55 60c0 35 30 61 67 61c48 0 79 -35 79 -92c0 -73 -66 -150 -192 -170zM445 -9c-27 0 -43 21 -43 47c0 28 5 49 12 80l49 212c22 96 18 122 -14 122c-52 0 -134 -80 -188 -142l-67 -310h-97
l84 387c3 14 7 31 7 40c0 21 -14 20 -56 -5l-20 -12l-14 21c64 63 106 93 149 93c25 0 37 -18 37 -42c0 -28 -13 -90 -19 -116h5c78 90 151 158 226 158c53 0 79 -38 79 -88c0 -20 -4 -56 -14 -99l-51 -218c-2 -11 -5 -22 -5 -35c0 -23 14 -28 60 0l21 14l16 -23
c-59 -53 -101 -84 -157 -84z" />
    <glyph glyph-name="ncaron" unicode="&#x148;" horiz-adv-x="582" 
d="M390 -9c-27 0 -43 21 -43 47c0 28 5 49 12 80l49 212c22 96 18 122 -14 122c-52 0 -134 -80 -188 -142l-67 -310h-97l84 387c3 14 7 31 7 40c0 21 -14 20 -56 -5l-20 -12l-14 21c64 63 106 93 149 93c25 0 37 -18 37 -42c0 -28 -13 -90 -19 -116h5c78 90 151 158 226 158
c53 0 79 -38 79 -88c0 -20 -4 -56 -14 -99l-51 -218c-2 -11 -5 -22 -5 -35c0 -23 14 -28 60 0l21 14l16 -23c-59 -53 -101 -84 -157 -84zM330 597l-106 149l16 21l122 -88l156 88l14 -21l-159 -149h-43z" />
    <glyph glyph-name="ncommaaccent" unicode="&#x146;" horiz-adv-x="582" 
d="M390 -9c-27 0 -43 21 -43 47c0 28 5 49 12 80l49 212c22 96 18 122 -14 122c-52 0 -134 -80 -188 -142l-67 -310h-97l84 387c3 14 7 31 7 40c0 21 -14 20 -56 -5l-20 -12l-14 21c64 63 106 93 149 93c25 0 37 -18 37 -42c0 -28 -13 -90 -19 -116h5c78 90 151 158 226 158
c53 0 79 -38 79 -88c0 -20 -4 -56 -14 -99l-51 -218c-2 -11 -5 -22 -5 -35c0 -23 14 -28 60 0l21 14l16 -23c-59 -53 -101 -84 -157 -84zM140 -286l-8 25c82 23 106 57 112 95c-5 -4 -15 -9 -27 -9c-38 0 -53 22 -53 52c0 29 28 56 65 56c45 0 77 -27 77 -75
c0 -67 -52 -124 -166 -144z" />
    <glyph glyph-name="nacute.pl" horiz-adv-x="582" 
d="M390 -9c-27 0 -43 21 -43 47c0 28 5 49 12 80l49 212c22 96 18 122 -14 122c-52 0 -134 -80 -188 -142l-67 -310h-97l84 387c3 14 7 31 7 40c0 21 -14 20 -56 -5l-20 -12l-14 21c64 63 106 93 149 93c25 0 37 -18 37 -42c0 -28 -13 -90 -19 -116h5c78 90 151 158 226 158
c53 0 79 -38 79 -88c0 -20 -4 -56 -14 -99l-51 -218c-2 -11 -5 -22 -5 -35c0 -23 14 -28 60 0l21 14l16 -23c-59 -53 -101 -84 -157 -84zM337 573l-21 18l87 158c11 19 25 33 46 33s43 -17 43 -43c0 -14 -6 -27 -18 -39z" />
    <glyph glyph-name="obreve" unicode="&#x14f;" horiz-adv-x="530" 
d="M221 -14c-129 0 -193 96 -193 205c0 217 161 334 282 334c126 0 192 -96 192 -202c0 -223 -160 -337 -281 -337zM221 28c112 0 183 160 183 331c0 80 -34 125 -96 125c-110 0 -182 -154 -182 -331c0 -80 31 -125 95 -125zM328 594c-75 0 -122 65 -119 148l28 6
c8 -47 30 -86 97 -86c61 0 101 39 120 86l28 -8c-17 -83 -79 -146 -154 -146z" />
    <glyph glyph-name="ohungarumlaut" unicode="&#x151;" horiz-adv-x="530" 
d="M221 -14c-129 0 -193 96 -193 205c0 217 161 334 282 334c126 0 192 -96 192 -202c0 -223 -160 -337 -281 -337zM221 28c112 0 183 160 183 331c0 80 -34 125 -96 125c-110 0 -182 -154 -182 -331c0 -80 31 -125 95 -125zM238 592l-18 20l95 123c11 15 22 21 35 21
c16 0 44 -18 44 -40c0 -14 -4 -26 -26 -40zM412 592l-17 20l96 123c11 14 21 21 34 21c17 0 44 -18 44 -40c0 -14 -4 -27 -25 -40z" />
    <glyph glyph-name="omacron" unicode="&#x14d;" horiz-adv-x="530" 
d="M221 -14c-129 0 -193 96 -193 205c0 217 161 334 282 334c126 0 192 -96 192 -202c0 -223 -160 -337 -281 -337zM221 28c112 0 183 160 183 331c0 80 -34 125 -96 125c-110 0 -182 -154 -182 -331c0 -80 31 -125 95 -125zM193 624l12 63h274l-12 -63h-274z" />
    <glyph glyph-name="oacute.pl" horiz-adv-x="530" 
d="M221 -14c-129 0 -193 96 -193 205c0 217 161 334 282 334c126 0 192 -96 192 -202c0 -223 -160 -337 -281 -337zM221 28c112 0 183 160 183 331c0 80 -34 125 -96 125c-110 0 -182 -154 -182 -331c0 -80 31 -125 95 -125zM313 573l-21 18l87 158c11 19 25 33 46 33
s43 -17 43 -43c0 -14 -6 -27 -18 -39z" />
    <glyph glyph-name="oslashacute" unicode="&#x1ff;" horiz-adv-x="530" 
d="M6 -64l76 105c-36 38 -54 92 -54 150c0 217 161 334 282 334c40 0 74 -10 102 -27l50 70h55l-71 -97c37 -38 56 -92 56 -148c0 -223 -160 -337 -281 -337c-42 0 -77 10 -105 27l-55 -77h-55zM221 28c112 0 185 160 185 331c0 19 -1 35 -4 50l-257 -356
c15 -16 38 -25 76 -25zM124 153c0 -19 0 -36 2 -50l256 355c-15 17 -38 26 -74 26c-110 0 -184 -154 -184 -331zM258 595l-10 22l162 114c16 11 28 15 39 15c24 0 39 -21 39 -39c0 -22 -12 -39 -42 -49z" />
    <glyph glyph-name="racute" unicode="&#x155;" horiz-adv-x="444" 
d="M42 0l84 387c3 14 7 31 7 40c0 21 -14 20 -56 -5l-20 -12l-14 21c64 63 106 93 149 93c25 0 37 -18 37 -42c0 -28 -20 -123 -26 -149h5c52 86 122 191 196 191c33 0 59 -18 59 -55c0 -38 -26 -61 -55 -61c-40 0 -43 28 -64 28c-26 0 -89 -80 -149 -179l-56 -257h-97z
M234 595l-10 22l162 114c16 11 28 15 39 15c24 0 39 -21 39 -39c0 -22 -12 -39 -42 -49z" />
    <glyph glyph-name="rcaron" unicode="&#x159;" horiz-adv-x="444" 
d="M42 0l84 387c3 14 7 31 7 40c0 21 -14 20 -56 -5l-20 -12l-14 21c64 63 106 93 149 93c25 0 37 -18 37 -42c0 -28 -20 -123 -26 -149h5c52 86 122 191 196 191c33 0 59 -18 59 -55c0 -38 -26 -61 -55 -61c-40 0 -43 28 -64 28c-26 0 -89 -80 -149 -179l-56 -257h-97z
M281 597l-106 149l16 21l122 -88l156 88l14 -21l-159 -149h-43z" />
    <glyph glyph-name="rcommaaccent" unicode="&#x157;" horiz-adv-x="444" 
d="M42 0l84 387c3 14 7 31 7 40c0 21 -14 20 -56 -5l-20 -12l-14 21c64 63 106 93 149 93c25 0 37 -18 37 -42c0 -28 -20 -123 -26 -149h5c52 86 122 191 196 191c33 0 59 -18 59 -55c0 -38 -26 -61 -55 -61c-40 0 -43 28 -64 28c-26 0 -89 -80 -149 -179l-56 -257h-97z
M-24 -286l-8 25c82 23 106 57 112 95c-5 -4 -15 -9 -27 -9c-38 0 -53 22 -53 52c0 29 28 56 65 56c45 0 77 -27 77 -75c0 -67 -52 -124 -166 -144z" />
    <glyph glyph-name="sacute" unicode="&#x15b;" horiz-adv-x="398" 
d="M154 -11c-113 0 -160 46 -160 86c0 33 19 48 49 48c33 0 45 -12 60 -65c5 -19 19 -28 62 -28c53 0 100 29 100 77c0 39 -32 74 -97 127c-61 51 -93 89 -93 143c0 94 90 147 181 147c94 0 137 -43 137 -82c0 -25 -12 -44 -44 -44c-38 0 -49 27 -59 61c-7 19 -20 25 -47 25
c-51 0 -91 -24 -91 -69c0 -36 18 -67 92 -123c66 -49 98 -100 98 -153c0 -91 -88 -150 -188 -150zM191 595l-10 22l162 114c16 11 28 15 39 15c24 0 39 -21 39 -39c0 -22 -12 -39 -42 -49z" />
    <glyph glyph-name="scedilla" unicode="&#x15f;" horiz-adv-x="398" 
d="M-2 -241l4 26c88 18 122 41 122 72c0 19 -15 34 -59 37l-6 14l54 83c-84 9 -119 49 -119 84c0 33 19 48 49 48c33 0 45 -12 60 -65c5 -19 19 -28 62 -28c53 0 100 29 100 77c0 39 -32 74 -97 127c-61 51 -93 89 -93 143c0 94 90 147 181 147c94 0 137 -43 137 -82
c0 -25 -12 -44 -44 -44c-38 0 -49 27 -59 61c-7 19 -20 25 -47 25c-51 0 -91 -24 -91 -69c0 -36 18 -67 92 -123c66 -49 98 -100 98 -153c0 -90 -86 -149 -185 -150l-39 -44c53 -7 83 -37 83 -72c0 -55 -66 -101 -203 -114z" />
    <glyph glyph-name="scircumflex" unicode="&#x15d;" horiz-adv-x="398" 
d="M154 -11c-113 0 -160 46 -160 86c0 33 19 48 49 48c33 0 45 -12 60 -65c5 -19 19 -28 62 -28c53 0 100 29 100 77c0 39 -32 74 -97 127c-61 51 -93 89 -93 143c0 94 90 147 181 147c94 0 137 -43 137 -82c0 -25 -12 -44 -44 -44c-38 0 -49 27 -59 61c-7 19 -20 25 -47 25
c-51 0 -91 -24 -91 -69c0 -36 18 -67 92 -123c66 -49 98 -100 98 -153c0 -91 -88 -150 -188 -150zM119 582l-14 20l159 150h43l106 -150l-16 -20l-122 88z" />
    <glyph glyph-name="scommaaccent" unicode="&#x219;" horiz-adv-x="398" 
d="M154 -11c-113 0 -160 46 -160 86c0 33 19 48 49 48c33 0 45 -12 60 -65c5 -19 19 -28 62 -28c53 0 100 29 100 77c0 39 -32 74 -97 127c-61 51 -93 89 -93 143c0 94 90 147 181 147c94 0 137 -43 137 -82c0 -25 -12 -44 -44 -44c-38 0 -49 27 -59 61c-7 19 -20 25 -47 25
c-51 0 -91 -24 -91 -69c0 -36 18 -67 92 -123c66 -49 98 -100 98 -153c0 -91 -88 -150 -188 -150zM35 -286l-8 25c82 23 106 57 112 95c-5 -4 -15 -9 -27 -9c-38 0 -53 22 -53 52c0 29 28 56 65 56c45 0 77 -27 77 -75c0 -67 -52 -124 -166 -144z" />
    <glyph glyph-name="sacute.pl" horiz-adv-x="398" 
d="M154 -11c-113 0 -160 46 -160 86c0 33 19 48 49 48c33 0 45 -12 60 -65c5 -19 19 -28 62 -28c53 0 100 29 100 77c0 39 -32 74 -97 127c-61 51 -93 89 -93 143c0 94 90 147 181 147c94 0 137 -43 137 -82c0 -25 -12 -44 -44 -44c-38 0 -49 27 -59 61c-7 19 -20 25 -47 25
c-51 0 -91 -24 -91 -69c0 -36 18 -67 92 -123c66 -49 98 -100 98 -153c0 -91 -88 -150 -188 -150zM245 573l-21 18l87 158c11 19 25 33 46 33s43 -17 43 -43c0 -14 -6 -27 -18 -39z" />
    <glyph glyph-name="tbar" unicode="&#x167;" horiz-adv-x="332" 
d="M26 317l8 44h75l22 96h-74l5 29l79 22l18 83l75 38h29l-26 -120h115l-12 -52h-114l-21 -96h122l-8 -44h-124l-39 -181c-4 -18 -9 -36 -9 -51c0 -29 17 -37 101 17l24 15l18 -21c-79 -74 -137 -106 -189 -106c-39 0 -54 24 -54 63c0 17 4 41 9 65l44 199h-74z" />
    <glyph glyph-name="tcaron" unicode="&#x165;" horiz-adv-x="332" 
d="M101 -10c-39 0 -54 24 -54 63c0 17 4 41 9 65l75 339h-74l5 29l79 22l18 83l75 38h29l-26 -120h115l-12 -52h-114l-70 -321c-4 -18 -9 -36 -9 -51c0 -29 17 -37 101 17l24 15l18 -21c-79 -74 -137 -106 -189 -106zM338 566l-23 11l32 145c5 24 16 43 44 43
c22 0 45 -15 45 -40c0 -12 -5 -24 -13 -36z" />
    <glyph glyph-name="tcommaaccent" unicode="&#x163;" horiz-adv-x="332" 
d="M101 -10c-39 0 -54 24 -54 63c0 17 4 41 9 65l75 339h-74l5 29l79 22l18 83l75 38h29l-26 -120h115l-12 -52h-114l-70 -321c-4 -18 -9 -36 -9 -51c0 -29 17 -37 101 17l24 15l18 -21c-79 -74 -137 -106 -189 -106zM-5 -286l-8 25c82 23 106 57 112 95
c-5 -4 -15 -9 -27 -9c-38 0 -53 22 -53 52c0 29 28 56 65 56c45 0 77 -27 77 -75c0 -67 -52 -124 -166 -144z" />
    <glyph glyph-name="ubreve" unicode="&#x16d;" horiz-adv-x="579" 
d="M137 -15c-53 0 -80 38 -80 88c0 20 4 56 14 99l52 219c3 12 6 25 6 36c0 22 -16 20 -57 -5l-19 -12l-15 21c64 63 107 93 151 93c28 0 41 -25 41 -53s-5 -49 -12 -80l-49 -212c-22 -96 -18 -122 15 -122c52 0 129 79 185 142l66 310h97l-85 -390c-2 -11 -5 -22 -5 -35
c0 -23 16 -26 60 0l21 14l15 -23c-58 -53 -113 -90 -156 -90c-25 0 -40 24 -40 48c0 28 12 77 22 110h-5c-78 -90 -148 -158 -222 -158zM343 594c-75 0 -122 65 -119 148l28 6c8 -47 30 -86 97 -86c61 0 101 39 120 86l28 -8c-17 -83 -79 -146 -154 -146z" />
    <glyph glyph-name="uhungarumlaut" unicode="&#x171;" horiz-adv-x="579" 
d="M137 -15c-53 0 -80 38 -80 88c0 20 4 56 14 99l52 219c3 12 6 25 6 36c0 22 -16 20 -57 -5l-19 -12l-15 21c64 63 107 93 151 93c28 0 41 -25 41 -53s-5 -49 -12 -80l-49 -212c-22 -96 -18 -122 15 -122c52 0 129 79 185 142l66 310h97l-85 -390c-2 -11 -5 -22 -5 -35
c0 -23 16 -26 60 0l21 14l15 -23c-58 -53 -113 -90 -156 -90c-25 0 -40 24 -40 48c0 28 12 77 22 110h-5c-78 -90 -148 -158 -222 -158zM252 592l-18 20l95 123c11 15 22 21 35 21c16 0 44 -18 44 -40c0 -14 -4 -26 -26 -40zM426 592l-17 20l96 123c11 14 21 21 34 21
c17 0 44 -18 44 -40c0 -14 -4 -27 -25 -40z" />
    <glyph glyph-name="umacron" unicode="&#x16b;" horiz-adv-x="579" 
d="M137 -15c-53 0 -80 38 -80 88c0 20 4 56 14 99l52 219c3 12 6 25 6 36c0 22 -16 20 -57 -5l-19 -12l-15 21c64 63 107 93 151 93c28 0 41 -25 41 -53s-5 -49 -12 -80l-49 -212c-22 -96 -18 -122 15 -122c52 0 129 79 185 142l66 310h97l-85 -390c-2 -11 -5 -22 -5 -35
c0 -23 16 -26 60 0l21 14l15 -23c-58 -53 -113 -90 -156 -90c-25 0 -40 24 -40 48c0 28 12 77 22 110h-5c-78 -90 -148 -158 -222 -158zM207 624l12 63h274l-12 -63h-274z" />
    <glyph glyph-name="uogonek" unicode="&#x173;" horiz-adv-x="579" 
d="M345 -223c-53 0 -91 29 -91 74c0 63 60 107 113 137c-16 7 -25 26 -25 45c0 28 12 77 22 110h-5c-78 -90 -148 -158 -222 -158c-53 0 -80 38 -80 88c0 20 4 56 14 99l52 219c3 12 6 25 6 36c0 22 -16 20 -57 -5l-19 -12l-15 21c64 63 107 93 151 93c28 0 41 -25 41 -53
s-5 -49 -12 -80l-49 -212c-22 -96 -18 -122 15 -122c52 0 129 79 185 142l66 310h97l-85 -390c-2 -11 -5 -22 -5 -35c0 -23 16 -26 60 0l21 14l15 -23c-46 -42 -86 -66 -119 -89c-46 -32 -80 -68 -80 -118c0 -26 20 -46 53 -46c16 0 34 4 46 9l-4 -29
c-18 -13 -48 -25 -89 -25z" />
    <glyph glyph-name="uring" unicode="&#x16f;" horiz-adv-x="579" 
d="M137 -15c-53 0 -80 38 -80 88c0 20 4 56 14 99l52 219c3 12 6 25 6 36c0 22 -16 20 -57 -5l-19 -12l-15 21c64 63 107 93 151 93c28 0 41 -25 41 -53s-5 -49 -12 -80l-49 -212c-22 -96 -18 -122 15 -122c52 0 129 79 185 142l66 310h97l-85 -390c-2 -11 -5 -22 -5 -35
c0 -23 16 -26 60 0l21 14l15 -23c-58 -53 -113 -90 -156 -90c-25 0 -40 24 -40 48c0 28 12 77 22 110h-5c-78 -90 -148 -158 -222 -158zM355 588c-58 0 -102 45 -102 98c0 55 44 99 102 99s102 -44 102 -99c0 -53 -44 -98 -102 -98zM355 626c35 0 58 25 58 60s-23 61 -58 61
s-58 -26 -58 -61s23 -60 58 -60z" />
    <glyph glyph-name="utilde" unicode="&#x169;" horiz-adv-x="579" 
d="M137 -15c-53 0 -80 38 -80 88c0 20 4 56 14 99l52 219c3 12 6 25 6 36c0 22 -16 20 -57 -5l-19 -12l-15 21c64 63 107 93 151 93c28 0 41 -25 41 -53s-5 -49 -12 -80l-49 -212c-22 -96 -18 -122 15 -122c52 0 129 79 185 142l66 310h97l-85 -390c-2 -11 -5 -22 -5 -35
c0 -23 16 -26 60 0l21 14l15 -23c-58 -53 -113 -90 -156 -90c-25 0 -40 24 -40 48c0 28 12 77 22 110h-5c-78 -90 -148 -158 -222 -158zM213 583l-32 14c38 83 68 124 110 124c41 0 108 -41 133 -41c21 0 38 20 67 66l31 -13c-38 -83 -68 -124 -110 -124
c-41 0 -105 41 -133 41c-21 0 -37 -20 -66 -67z" />
    <glyph glyph-name="wacute" unicode="&#x1e83;" horiz-adv-x="714" 
d="M128 0c0 203 -8 304 -18 384c-8 66 -19 70 -66 40l-25 -15l-15 22c55 58 103 93 146 93c33 0 43 -31 51 -110c9 -84 16 -160 15 -303h4c59 73 124 166 165 236c-1 22 -1 33 -3 58c-4 48 -17 50 -60 24l-23 -14l-16 22c41 43 99 87 136 87c34 0 48 -31 52 -110
c4 -84 5 -166 0 -307h4c93 103 162 228 162 284c0 43 -31 51 -31 89c0 26 24 45 54 45c38 0 60 -24 60 -64c0 -97 -142 -318 -285 -461h-47c1 119 4 208 2 277h-2c-56 -90 -139 -201 -208 -277h-52zM351 595l-10 22l162 114c16 11 28 15 39 15c24 0 39 -21 39 -39
c0 -22 -12 -39 -42 -49z" />
    <glyph glyph-name="wcircumflex" unicode="&#x175;" horiz-adv-x="714" 
d="M128 0c0 203 -8 304 -18 384c-8 66 -19 70 -66 40l-25 -15l-15 22c55 58 103 93 146 93c33 0 43 -31 51 -110c9 -84 16 -160 15 -303h4c59 73 124 166 165 236c-1 22 -1 33 -3 58c-4 48 -17 50 -60 24l-23 -14l-16 22c41 43 99 87 136 87c34 0 48 -31 52 -110
c4 -84 5 -166 0 -307h4c93 103 162 228 162 284c0 43 -31 51 -31 89c0 26 24 45 54 45c38 0 60 -24 60 -64c0 -97 -142 -318 -285 -461h-47c1 119 4 208 2 277h-2c-56 -90 -139 -201 -208 -277h-52zM279 582l-14 20l159 150h43l106 -150l-16 -20l-122 88z" />
    <glyph glyph-name="wdieresis" unicode="&#x1e85;" horiz-adv-x="714" 
d="M128 0c0 203 -8 304 -18 384c-8 66 -19 70 -66 40l-25 -15l-15 22c55 58 103 93 146 93c33 0 43 -31 51 -110c9 -84 16 -160 15 -303h4c59 73 124 166 165 236c-1 22 -1 33 -3 58c-4 48 -17 50 -60 24l-23 -14l-16 22c41 43 99 87 136 87c34 0 48 -31 52 -110
c4 -84 5 -166 0 -307h4c93 103 162 228 162 284c0 43 -31 51 -31 89c0 26 24 45 54 45c38 0 60 -24 60 -64c0 -97 -142 -318 -285 -461h-47c1 119 4 208 2 277h-2c-56 -90 -139 -201 -208 -277h-52zM331 616c-33 0 -61 26 -61 60c0 36 31 66 68 66c30 0 60 -27 60 -60
c0 -35 -32 -66 -67 -66zM531 616c-33 0 -61 26 -61 60c0 36 31 66 67 66c32 0 60 -27 60 -60c0 -35 -31 -66 -66 -66z" />
    <glyph glyph-name="wgrave" unicode="&#x1e81;" horiz-adv-x="714" 
d="M128 0c0 203 -8 304 -18 384c-8 66 -19 70 -66 40l-25 -15l-15 22c55 58 103 93 146 93c33 0 43 -31 51 -110c9 -84 16 -160 15 -303h4c59 73 124 166 165 236c-1 22 -1 33 -3 58c-4 48 -17 50 -60 24l-23 -14l-16 22c41 43 99 87 136 87c34 0 48 -31 52 -110
c4 -84 5 -166 0 -307h4c93 103 162 228 162 284c0 43 -31 51 -31 89c0 26 24 45 54 45c38 0 60 -24 60 -64c0 -97 -142 -318 -285 -461h-47c1 119 4 208 2 277h-2c-56 -90 -139 -201 -208 -277h-52zM520 593l-195 64c-28 9 -37 29 -37 46c0 21 18 43 41 43
c12 0 24 -5 39 -15l163 -114z" />
    <glyph glyph-name="ycircumflex" unicode="&#x177;" horiz-adv-x="492" 
d="M-10 -232c-46 0 -69 24 -69 55c0 34 20 52 46 52c44 0 47 -35 78 -35c26 0 77 34 147 117c-24 195 -45 344 -64 418c-21 75 -31 75 -71 48l-24 -16l-16 24c55 58 103 93 137 93c26 0 44 -12 58 -71c29 -126 46 -271 56 -388h5c80 116 144 245 144 315c0 46 -32 57 -32 99
c0 26 21 46 52 46c37 0 61 -24 61 -64c0 -90 -86 -280 -206 -443c-110 -152 -217 -250 -302 -250zM168 582l-14 20l159 150h43l106 -150l-16 -20l-122 88z" />
    <glyph glyph-name="ygrave" unicode="&#x1ef3;" horiz-adv-x="492" 
d="M-10 -232c-46 0 -69 24 -69 55c0 34 20 52 46 52c44 0 47 -35 78 -35c26 0 77 34 147 117c-24 195 -45 344 -64 418c-21 75 -31 75 -71 48l-24 -16l-16 24c55 58 103 93 137 93c26 0 44 -12 58 -71c29 -126 46 -271 56 -388h5c80 116 144 245 144 315c0 46 -32 57 -32 99
c0 26 21 46 52 46c37 0 61 -24 61 -64c0 -90 -86 -280 -206 -443c-110 -152 -217 -250 -302 -250zM408 593l-195 64c-28 9 -37 29 -37 46c0 21 18 43 41 43c12 0 24 -5 39 -15l163 -114z" />
    <glyph glyph-name="zacute" unicode="&#x17a;" horiz-adv-x="454" 
d="M270 -18c-78 0 -107 90 -179 90c-24 0 -42 -26 -63 -86h-12l-49 36v12c48 34 79 59 123 104l245 258c-94 10 -124 59 -196 59c-11 0 -18 -6 -18 -13c0 -12 37 -24 37 -52c0 -24 -19 -45 -47 -45c-33 0 -49 25 -49 51c0 43 61 128 144 128c76 0 122 -87 159 -87
c19 0 35 30 53 86h13l54 -36v-13c-35 -24 -61 -43 -113 -97l-246 -263c87 -7 139 -43 178 -43c23 0 46 13 85 68l23 -15c-45 -78 -84 -142 -142 -142zM222 595l-10 22l162 114c16 11 28 15 39 15c24 0 39 -21 39 -39c0 -22 -12 -39 -42 -49z" />
    <glyph glyph-name="zacute.pl" horiz-adv-x="454" 
d="M270 -18c-78 0 -107 90 -179 90c-24 0 -42 -26 -63 -86h-12l-49 36v12c48 34 79 59 123 104l245 258c-94 10 -124 59 -196 59c-11 0 -18 -6 -18 -13c0 -12 37 -24 37 -52c0 -24 -19 -45 -47 -45c-33 0 -49 25 -49 51c0 43 61 128 144 128c76 0 122 -87 159 -87
c19 0 35 30 53 86h13l54 -36v-13c-35 -24 -61 -43 -113 -97l-246 -263c87 -7 139 -43 178 -43c23 0 46 13 85 68l23 -15c-45 -78 -84 -142 -142 -142zM293 573l-21 18l87 158c11 19 25 33 46 33s43 -17 43 -43c0 -14 -6 -27 -18 -39z" />
    <glyph glyph-name="zdotaccent" unicode="&#x17c;" horiz-adv-x="454" 
d="M270 -18c-78 0 -107 90 -179 90c-24 0 -42 -26 -63 -86h-12l-49 36v12c48 34 79 59 123 104l245 258c-94 10 -124 59 -196 59c-11 0 -18 -6 -18 -13c0 -12 37 -24 37 -52c0 -24 -19 -45 -47 -45c-33 0 -49 25 -49 51c0 43 61 128 144 128c76 0 122 -87 159 -87
c19 0 35 30 53 86h13l54 -36v-13c-35 -24 -61 -43 -113 -97l-246 -263c87 -7 139 -43 178 -43c23 0 46 13 85 68l23 -15c-45 -78 -84 -142 -142 -142zM301 615c-38 0 -67 32 -67 64c0 35 29 64 67 64c37 0 66 -29 66 -64c0 -32 -29 -64 -66 -64z" />
    <glyph glyph-name="oneeighth" unicode="&#x215b;" horiz-adv-x="800" 
d="M85 -50l593 764h57l-592 -764h-58zM33 271l5 26l27 6c23 5 35 9 41 42l46 252h-62l5 29c61 12 119 38 155 72l13 -3l-63 -350c-6 -34 -3 -38 16 -42l33 -6l-5 -26h-211zM551 -112c-85 0 -151 40 -151 100c0 55 48 96 111 120v2c-36 26 -52 52 -52 88c0 79 71 128 149 128
c68 0 129 -36 129 -93c0 -51 -47 -85 -100 -107v-2c50 -31 76 -58 76 -102c0 -74 -70 -134 -162 -134zM553 -76c52 0 86 28 86 67c0 38 -36 60 -104 101c-25 -22 -60 -47 -60 -99c0 -44 25 -69 78 -69zM612 142c26 21 57 45 57 88c0 38 -22 60 -65 60c-44 0 -75 -23 -75 -60
c0 -35 30 -58 83 -88z" />
    <glyph glyph-name="onethird" unicode="&#x2153;" horiz-adv-x="800" 
d="M96 -50l593 764h57l-592 -764h-58zM33 271l5 26l27 6c23 5 35 9 41 42l46 252h-62l5 29c61 12 119 38 155 72l13 -3l-63 -350c-6 -34 -3 -38 16 -42l33 -6l-5 -26h-211zM540 -112c-77 0 -127 23 -127 69c0 28 14 47 41 47c28 0 42 -13 45 -47c3 -29 4 -37 34 -37
c63 0 93 56 93 119c0 38 -20 59 -66 59h-31l8 38h26c64 0 86 39 86 105c0 35 -18 51 -54 51c-21 0 -32 -5 -34 -26c-4 -38 -15 -48 -43 -48s-42 15 -42 38c0 40 52 70 126 70c84 0 133 -40 133 -94c0 -55 -34 -97 -117 -112v-2c63 -9 104 -43 104 -94
c0 -82 -79 -136 -182 -136z" />
    <glyph glyph-name="threeeighths" unicode="&#x215c;" horiz-adv-x="830" 
d="M127 -50l593 764h57l-592 -764h-58zM172 263c-77 0 -126 23 -126 69c0 28 14 47 41 47s41 -12 44 -46c3 -30 4 -38 34 -38c63 0 93 56 93 119c0 38 -19 59 -65 59h-31l7 38h26c64 0 86 39 86 105c0 35 -18 51 -54 51c-21 0 -32 -5 -34 -26c-4 -38 -15 -48 -43 -48
c-27 0 -41 15 -41 38c0 40 52 70 125 70c84 0 133 -40 133 -94c0 -55 -34 -97 -117 -112v-2c64 -9 104 -43 104 -94c0 -82 -79 -136 -182 -136zM586 -112c-85 0 -151 40 -151 100c0 55 48 96 111 120v2c-36 26 -52 52 -52 88c0 79 71 128 149 128c68 0 129 -36 129 -93
c0 -51 -47 -85 -100 -107v-2c50 -31 76 -58 76 -102c0 -74 -70 -134 -162 -134zM588 -76c52 0 86 28 86 67c0 38 -36 60 -104 101c-25 -22 -60 -47 -60 -99c0 -44 25 -69 78 -69zM647 142c26 21 57 45 57 88c0 38 -22 60 -65 60c-44 0 -75 -23 -75 -60c0 -35 30 -58 83 -88z
" />
    <glyph glyph-name="fiveeighths" unicode="&#x215d;" horiz-adv-x="820" 
d="M123 -50l593 764h57l-592 -764h-58zM167 263c-70 0 -118 23 -118 68c0 23 14 47 43 47c26 0 39 -8 40 -44c1 -31 6 -38 38 -38c53 0 97 31 97 92c0 58 -39 85 -93 85c-35 0 -57 -8 -70 -13l-9 6l63 227h158c17 0 22 3 39 32h26l-26 -101h-179l-23 -88c12 3 27 6 54 6
c84 0 144 -42 144 -118c0 -101 -97 -161 -184 -161zM591 -112c-85 0 -151 40 -151 100c0 55 48 96 111 120v2c-36 26 -52 52 -52 88c0 79 71 128 149 128c68 0 129 -36 129 -93c0 -51 -47 -85 -100 -107v-2c50 -31 76 -58 76 -102c0 -74 -70 -134 -162 -134zM593 -76
c52 0 86 28 86 67c0 38 -36 60 -104 101c-25 -22 -60 -47 -60 -99c0 -44 25 -69 78 -69zM652 142c26 21 57 45 57 88c0 38 -22 60 -65 60c-44 0 -75 -23 -75 -60c0 -35 30 -58 83 -88z" />
    <glyph glyph-name="twothirds" unicode="&#x2154;" horiz-adv-x="863" 
d="M146 -50l593 764h57l-592 -764h-58zM34 271l9 47c60 43 110 77 145 112c61 54 100 104 100 182c0 43 -26 55 -60 55c-18 0 -28 -7 -31 -28c-4 -39 -18 -50 -46 -50c-31 0 -41 19 -41 40c0 41 52 72 128 72c79 0 139 -39 139 -110c0 -100 -115 -172 -249 -249v-3h131
c30 0 36 8 64 50h24l-30 -118h-283zM605 -112c-77 0 -127 23 -127 69c0 28 14 47 41 47c28 0 42 -13 45 -47c3 -29 4 -37 34 -37c63 0 93 56 93 119c0 38 -20 59 -66 59h-31l8 38h26c64 0 86 39 86 105c0 35 -18 51 -54 51c-21 0 -32 -5 -34 -26c-4 -38 -15 -48 -43 -48
s-42 15 -42 38c0 40 52 70 126 70c84 0 133 -40 133 -94c0 -55 -34 -97 -117 -112v-2c63 -9 104 -43 104 -94c0 -82 -79 -136 -182 -136z" />
    <glyph glyph-name="seveneighths" unicode="&#x215e;" horiz-adv-x="800" 
d="M62 -50l593 764h57l-592 -764h-58zM77 271c51 156 150 263 242 353h-161c-24 0 -30 -7 -53 -47h-25l28 116h279l-7 -40c-108 -115 -169 -228 -204 -382h-99zM541 -112c-85 0 -151 40 -151 100c0 55 48 96 111 120v2c-36 26 -52 52 -52 88c0 79 71 128 149 128
c68 0 129 -36 129 -93c0 -51 -47 -85 -100 -107v-2c50 -31 76 -58 76 -102c0 -74 -70 -134 -162 -134zM543 -76c52 0 86 28 86 67c0 38 -36 60 -104 101c-25 -22 -60 -47 -60 -99c0 -44 25 -69 78 -69zM602 142c26 21 57 45 57 88c0 38 -22 60 -65 60c-44 0 -75 -23 -75 -60
c0 -35 30 -58 83 -88z" />
    <glyph glyph-name="uni24C5" unicode="&#x24c5;" horiz-adv-x="814" 
d="M423 -14c-205 0 -361 161 -361 358s156 356 361 356c204 0 363 -159 363 -356s-159 -358 -363 -358zM423 26c184 0 316 143 316 318s-132 316 -316 316c-185 0 -313 -141 -313 -316s128 -318 313 -318zM389 493v-266c0 -31 4 -35 23 -37l33 -4v-29h-179v29l25 3
c18 2 22 7 22 38v235c0 32 -4 35 -21 38l-26 5v27h172c99 0 152 -36 152 -115c0 -77 -59 -116 -131 -116c-26 0 -37 4 -42 7v26c65 -3 96 19 96 81c0 66 -26 82 -78 82c-23 0 -46 -4 -46 -4z" />
    <glyph glyph-name="dollar.old" horiz-adv-x="486" 
d="M154 -108l17 98c-133 7 -176 62 -176 110c0 37 21 54 50 54c35 0 53 -12 57 -60c2 -41 11 -60 76 -64l47 271c-97 57 -135 104 -135 175c0 115 100 184 198 190l11 63h47l-11 -63c107 -8 152 -53 152 -98c0 -38 -21 -59 -50 -59c-33 0 -51 17 -54 67c-2 32 -12 47 -55 51
l-43 -247c106 -63 147 -114 147 -189c0 -116 -104 -194 -215 -201l-17 -98h-46zM349 155c0 50 -27 85 -83 121l-42 -246c82 7 125 60 125 125zM166 509c0 -38 21 -68 77 -104l39 223c-68 -6 -116 -49 -116 -119z" />
    <glyph glyph-name="Euro.old" horiz-adv-x="562" 
d="M49 374l7 46h69c59 158 189 250 307 250c94 0 148 -39 148 -94c0 -40 -22 -59 -53 -59c-33 0 -52 13 -56 59c-4 44 -9 53 -46 53c-89 0 -166 -84 -206 -209h218l-15 -46h-215c-6 -28 -11 -58 -13 -89h201l-14 -45h-189v-11c0 -123 46 -182 154 -182c63 0 110 22 148 44
l-5 -41c-41 -34 -101 -62 -186 -62c-138 0 -209 96 -209 247v5h-69l8 45h63c3 31 8 61 15 89h-62z" />
    <glyph glyph-name="sterling.old" horiz-adv-x="469" 
d="M45 314l7 45h58c-3 25 -5 50 -5 74c1 137 96 237 242 237c90 0 141 -33 141 -81c0 -40 -23 -57 -54 -57c-34 0 -53 16 -57 55c-5 36 -10 42 -42 42c-58 0 -113 -44 -124 -139c-5 -34 -7 -85 -8 -131h170l-7 -45h-164c0 -19 -1 -35 -2 -46c-7 -68 -44 -132 -114 -181v-5
h226c42 0 52 8 97 76h27l-43 -158h-413l12 67c94 50 126 103 128 189c0 17 -2 37 -4 58h-71z" />
    <glyph glyph-name="yen.old" horiz-adv-x="548" 
d="M60 284l7 45h154l-71 208c-20 58 -31 78 -53 84l-24 7l7 30h237l-8 -30l-24 -6c-28 -6 -42 -17 -43 -34c-1 -13 5 -28 12 -51l58 -186h3l120 183c17 26 26 48 26 60c-1 12 -5 21 -28 27l-24 7l7 30h191l-7 -30l-24 -6c-33 -9 -43 -27 -92 -98l-134 -195h157l-8 -45h-168
l-16 -88h167l-7 -45h-168l-9 -54c-8 -46 -5 -53 21 -58l44 -8l-5 -31h-257l6 31l47 8c24 5 31 10 40 58l9 54h-168l8 45h168l16 88h-167z" />
    <glyph glyph-name="zero.old" horiz-adv-x="579" 
d="M258 -13c-121 0 -216 81 -216 236c0 213 155 370 303 370c119 0 217 -79 217 -238c0 -212 -155 -368 -304 -368zM262 30c111 0 197 156 197 356c0 115 -40 165 -116 165c-114 0 -198 -167 -198 -360c0 -111 37 -161 117 -161z" />
    <glyph glyph-name="one.old" horiz-adv-x="361" 
d="M0 0l5 30l63 10c31 5 36 10 44 53l67 381h-102l4 31c94 19 142 45 194 96l24 -6l-88 -502c-7 -41 -4 -51 23 -53l63 -10l-5 -30h-292z" />
    <glyph glyph-name="two.old" horiz-adv-x="483" 
d="M426 78l-24 -78h-420l9 48c72 49 179 119 259 186c74 62 118 126 118 209c0 79 -43 110 -109 110c-36 0 -53 -13 -55 -43c-4 -42 -24 -67 -61 -67c-39 0 -54 27 -54 55c0 55 68 95 181 95c122 0 199 -61 199 -162c0 -153 -197 -242 -364 -350v-3h321z" />
    <glyph glyph-name="three.old" horiz-adv-x="480" 
d="M178 -122c-116 0 -182 41 -182 102c0 34 23 53 55 53c33 0 50 -19 57 -59c7 -45 14 -56 66 -56c103 0 167 72 167 202c0 76 -40 112 -124 112h-57l7 45h49c90 0 139 50 139 172c0 76 -34 104 -102 104c-50 0 -62 -16 -66 -51c-5 -44 -22 -60 -54 -60c-35 0 -54 22 -54 52
c0 52 68 99 182 99c128 0 193 -75 193 -153c0 -88 -52 -162 -166 -183v-3c98 -15 158 -61 158 -152c0 -134 -127 -224 -268 -224z" />
    <glyph glyph-name="four.old" horiz-adv-x="557" 
d="M374 -112h-98l27 164h-297l7 44l419 501h62l-82 -487h111l-14 -58h-107zM367 449l-277 -337v-2h223l57 339h-3z" />
    <glyph glyph-name="five.old" horiz-adv-x="490" 
d="M484 578l-21 -83h-280l-45 -184c26 8 52 12 85 12c115 0 219 -65 219 -196c0 -154 -128 -249 -263 -249c-109 0 -174 39 -174 98c0 33 20 54 55 54s52 -18 59 -60c8 -44 15 -52 64 -52c100 0 165 63 165 171s-74 147 -160 147c-49 0 -93 -11 -114 -21l-7 6l88 357h329z
" />
    <glyph glyph-name="six.old" horiz-adv-x="545" 
d="M262 -13c-132 0 -218 102 -218 266c0 279 187 452 361 452c95 0 150 -31 150 -82c0 -35 -23 -56 -56 -56c-36 0 -53 24 -58 59c-4 32 -16 42 -47 42c-89 0 -190 -95 -232 -300c39 28 97 54 158 54c118 0 184 -72 184 -186c0 -155 -113 -249 -242 -249zM266 30
c93 0 136 85 136 206c0 92 -38 136 -113 136c-48 0 -97 -19 -135 -43c-5 -36 -10 -71 -10 -121c0 -90 22 -178 122 -178z" />
    <glyph glyph-name="seven.old" horiz-adv-x="482" 
d="M66 418l36 160h428l-6 -43c-172 -196 -283 -370 -343 -647h-110c80 277 231 449 375 607h-280c-32 0 -40 -12 -72 -77h-28z" />
    <glyph glyph-name="eight.old" horiz-adv-x="523" 
d="M246 -13c-117 0 -226 60 -226 171c0 97 81 157 179 203v3c-72 54 -93 109 -93 158c0 95 84 183 210 183c103 0 193 -58 193 -155c0 -84 -74 -140 -156 -184v-3c90 -62 128 -109 128 -181c0 -103 -95 -195 -235 -195zM249 30c84 0 143 52 143 128c0 79 -60 112 -164 181
c-44 -31 -120 -83 -120 -175c0 -79 54 -134 141 -134zM326 388c42 34 100 78 100 161c0 68 -42 113 -114 113c-75 0 -122 -50 -122 -113c0 -68 67 -117 136 -161z" />
    <glyph glyph-name="nine.old" horiz-adv-x="548" 
d="M162 -122c-100 0 -148 34 -148 83c0 31 18 53 52 53c31 0 50 -16 57 -55c5 -29 17 -44 48 -44c106 0 196 85 230 298c-43 -30 -99 -55 -160 -55c-111 0 -178 74 -178 186c0 154 117 249 238 249c133 0 218 -97 218 -273c0 -266 -163 -442 -357 -442zM273 208
c55 0 99 21 136 45c8 39 11 71 11 120c0 86 -20 177 -121 177c-90 0 -135 -87 -135 -206c0 -87 34 -136 109 -136z" />
    <glyph glyph-name="percent.old" horiz-adv-x="753" 
d="M64 467c0 103 83 200 177 200c65 0 131 -46 131 -137c0 -104 -83 -200 -176 -200c-68 0 -132 47 -132 137zM61 -48l575 726h58l-572 -726h-61zM535 -12c-68 0 -131 46 -131 137c0 103 83 200 176 200c65 0 132 -47 132 -137c0 -105 -85 -200 -177 -200zM198 365
c52 0 97 83 97 185c0 58 -19 83 -55 83c-53 0 -98 -86 -98 -185c0 -56 17 -83 56 -83zM537 23c53 0 97 82 97 185c0 57 -19 82 -55 82c-53 0 -98 -85 -98 -185c0 -56 18 -82 56 -82z" />
    <glyph glyph-name="perthousand.old" horiz-adv-x="1113" 
d="M64 -48l575 726h59l-573 -726h-61zM64 467c0 103 84 200 178 200c65 0 132 -46 132 -137c0 -104 -84 -200 -177 -200c-68 0 -133 47 -133 137zM543 -12c-67 0 -132 46 -132 137c0 103 84 200 177 200c66 0 133 -47 133 -137c0 -105 -85 -200 -178 -200zM198 365
c53 0 99 83 99 185c0 58 -20 83 -56 83c-54 0 -99 -86 -99 -185c0 -56 18 -83 56 -83zM545 23c53 0 98 82 98 185c0 57 -19 82 -55 82c-54 0 -100 -85 -100 -185c0 -56 19 -82 57 -82zM894 -12c-67 0 -132 46 -132 137c0 103 84 200 178 200c65 0 132 -47 132 -137
c0 -105 -84 -200 -178 -200zM896 23c54 0 98 82 98 185c0 57 -18 82 -55 82c-54 0 -99 -85 -99 -185c0 -56 18 -82 56 -82z" />
    <glyph glyph-name="plus.old" horiz-adv-x="469" 
d="M212 96v179h-156v56h156v179h65v-179h156v-56h-156v-179h-65z" />
    <glyph glyph-name="minus.old" horiz-adv-x="469" 
d="M57 275v56h380v-56h-380z" />
    <glyph glyph-name="multiply.old" horiz-adv-x="451" 
d="M98 102l-43 42l139 144l-139 144l45 43l137 -144l140 144l42 -42l-140 -144l140 -144l-44 -43l-140 144z" />
    <glyph glyph-name="divide.old" horiz-adv-x="469" 
d="M246 71c-38 0 -68 29 -68 67c0 36 30 66 68 66c39 0 69 -30 69 -66c0 -38 -30 -67 -69 -67zM246 399c-38 0 -68 29 -68 66s30 67 68 67c39 0 69 -30 69 -67s-30 -66 -69 -66zM57 275v56h380v-56h-380z" />
    <glyph glyph-name="equal.old" horiz-adv-x="500" 
d="M55 177v56h410v-56h-410zM55 339v57h410v-57h-410z" />
    <glyph glyph-name="less.old" horiz-adv-x="469" 
d="M433 84l-380 171v66l380 170v-63l-321 -140l321 -140v-64z" />
    <glyph glyph-name="greater.old" horiz-adv-x="469" 
d="M434 255l-380 -171v64l321 140l-321 140v63l380 -170v-66z" />
    <glyph glyph-name="plusminus.old" horiz-adv-x="469" 
d="M57 0v56h380v-56h-380zM214 156v159h-156v56h156v159h65v-159h157v-56h-157v-159h-65z" />
    <glyph glyph-name="notequal.old" horiz-adv-x="500" 
d="M55 340v55h232l68 131h56l-68 -131h122v-55h-150l-56 -108h206v-54h-234l-67 -131h-55l67 131h-121v54h149l55 108h-204z" />
    <glyph glyph-name="approxequal.old" horiz-adv-x="500" 
d="M429 438l44 -20c-24 -52 -55 -97 -113 -97c-57 0 -145 44 -192 44c-30 0 -52 -30 -64 -61l-46 17c18 49 56 98 113 98c56 0 142 -44 192 -44c31 0 50 29 66 63zM429 285l44 -20c-24 -52 -55 -97 -113 -97c-57 0 -145 44 -192 44c-30 0 -52 -30 -64 -61l-46 17
c18 49 56 98 113 98c56 0 142 -44 192 -44c31 0 50 29 66 63z" />
    <glyph glyph-name="lessequal.old" horiz-adv-x="469" 
d="M53 0v56h380v-56h-380zM433 122l-380 161v66l380 161v-63l-325 -131l325 -131v-63z" />
    <glyph glyph-name="greaterequal.old" horiz-adv-x="469" 
d="M433 56v-56h-380v56h380zM433 283l-380 -161v63l325 131l-325 131v63l380 -161v-66z" />
    <glyph glyph-name="numbersign.old" horiz-adv-x="492" 
d="M59 0l50 186h-81l18 71h86l40 147h-83l16 70h86l52 184h56l-53 -184h102l52 184h55l-52 -184h83l-17 -70h-86l-38 -147h82l-19 -71h-86l-49 -186h-55l50 186h-103l-50 -186h-56zM187 257h103l38 147h-102z" />
    <glyph glyph-name="dollar.tab" 
d="M498 201c0 -123 -111 -204 -228 -210l-17 -101h-47l18 101c-140 7 -185 63 -185 113c0 40 22 56 52 56c37 0 55 -11 58 -62c2 -41 7 -64 82 -69l51 289c-101 60 -142 109 -142 184c0 121 108 192 211 198l11 64h47l-12 -64c118 -8 159 -57 159 -100
c0 -40 -22 -62 -52 -62c-36 0 -52 17 -55 70c-2 33 -13 49 -59 54l-47 -262c112 -67 155 -121 155 -199zM412 164c0 53 -29 89 -88 128l-47 -263c90 7 135 65 135 135zM219 536c0 -40 23 -73 82 -111l43 237c-72 -6 -125 -52 -125 -126z" />
    <glyph glyph-name="Euro.tab" 
d="M65 394l8 46h70c59 168 191 265 309 265c101 0 154 -39 154 -97c0 -41 -20 -62 -54 -62s-54 11 -58 61c-4 48 -9 57 -49 57c-90 0 -167 -90 -205 -224h217l-16 -46h-212c-6 -30 -11 -61 -13 -94h195l-14 -46h-183v-14c0 -129 41 -191 152 -191c63 0 109 19 149 42l-5 -41
c-45 -35 -98 -62 -186 -62c-143 0 -213 100 -213 258v8h-72l9 46h65c3 33 8 64 16 94h-64z" />
    <glyph glyph-name="sterling.tab" 
d="M108 334l8 45h58c-3 26 -5 53 -5 78c1 144 102 248 250 248c91 0 144 -32 144 -82c0 -43 -22 -60 -54 -60c-34 0 -55 14 -59 57c-5 38 -8 44 -44 44c-59 0 -117 -47 -129 -147c-5 -36 -7 -89 -9 -138h178l-8 -45h-171l-3 -53c-8 -72 -48 -138 -121 -190v-5h241
c41 0 51 6 100 78h27l-47 -164h-431l13 69c100 53 134 110 136 201c0 19 -1 40 -4 64h-70z" />
    <glyph glyph-name="yen.tab" 
d="M70 289l9 46h167l-80 232c-21 61 -31 83 -54 89l-25 7l7 30h246l-8 -30l-26 -6c-31 -7 -46 -20 -46 -39c0 -15 5 -29 12 -51l64 -205h4l133 203c16 26 28 51 28 63s-2 21 -29 28l-26 7l7 30h200l-6 -30l-28 -7c-32 -8 -47 -30 -97 -103l-149 -218h169l-8 -46h-178
l-13 -69h178l-8 -46h-178l-13 -74c-9 -48 -6 -55 20 -60l47 -9l-6 -31h-265l6 31l49 9c26 5 33 10 42 60l13 74h-179l9 46h179l12 69h-179z" />
    <glyph glyph-name="zero.tab" 
d="M265 -11c-103 0 -212 84 -212 273c0 263 188 443 318 443c102 0 208 -89 208 -277c0 -249 -162 -439 -314 -439zM265 35c151 0 209 310 209 466c0 102 -38 158 -104 158c-140 0 -211 -294 -211 -467c0 -100 39 -157 106 -157z" />
    <glyph glyph-name="one.tab" 
d="M80 0l7 31l83 9c30 5 42 10 51 60l82 466h-124l5 30c113 18 175 56 228 106l20 -6l-105 -596c-8 -48 -2 -55 25 -60l82 -9l-6 -31h-348z" />
    <glyph glyph-name="two.tab" 
d="M24 0l11 57c90 66 191 142 249 193c99 89 171 166 171 292c0 93 -48 122 -116 122c-38 0 -57 -15 -59 -47c-3 -45 -26 -65 -64 -65c-41 0 -52 23 -52 52c0 61 75 101 185 101c119 0 210 -67 210 -181c0 -159 -188 -286 -414 -434v-4h225c54 0 65 8 111 78h28l-45 -164
h-440z" />
    <glyph glyph-name="three.tab" 
d="M224 -12c-116 0 -189 33 -189 103c0 32 16 61 60 61c40 0 58 -20 61 -55c5 -58 13 -67 62 -67c114 0 173 77 173 199c0 66 -31 111 -118 111h-53l8 46h47c94 0 147 41 147 177c0 74 -33 101 -105 101c-39 0 -64 -11 -66 -51c-3 -48 -23 -61 -58 -61c-36 0 -53 19 -53 52
c0 61 82 101 184 101c136 0 201 -74 201 -155c0 -94 -57 -163 -182 -186v-3c106 -17 157 -75 157 -153c0 -138 -137 -220 -276 -220z" />
    <glyph glyph-name="four.tab" 
d="M225 0l5 31l46 9c24 5 33 8 43 60l17 98h-292l9 46l419 449h50l-79 -434h95l-15 -61h-91l-16 -98c-9 -48 -7 -55 19 -60l46 -9l-6 -31h-250zM126 259h221l53 294h-3l-271 -292v-2z" />
    <glyph glyph-name="five.tab" 
d="M234 -12c-106 0 -181 38 -181 102c0 34 17 60 62 60c37 0 55 -14 59 -66c2 -39 7 -54 66 -54c105 0 176 63 176 171c0 107 -69 151 -158 151c-52 0 -98 -13 -120 -23l-7 6l96 358h258c26 0 33 6 61 52h29l-39 -140h-284l-47 -178c20 8 41 14 92 14
c119 0 216 -67 216 -196c0 -173 -155 -257 -279 -257z" />
    <glyph glyph-name="six.tab" 
d="M285 -12c-130 0 -211 98 -211 255c0 276 205 462 375 462c109 0 144 -33 144 -82c0 -33 -17 -59 -54 -59c-41 0 -55 16 -59 62c-3 32 -13 38 -45 38c-89 0 -189 -99 -238 -297c39 27 88 52 158 52c110 0 173 -67 173 -177c0 -159 -114 -254 -243 -254zM288 35
c94 0 136 87 136 211c0 86 -28 125 -100 125c-58 0 -98 -22 -136 -45c-7 -41 -13 -83 -13 -141c0 -81 20 -150 113 -150z" />
    <glyph glyph-name="seven.tab" 
d="M125 0c92 277 251 461 392 606h-280c-33 0 -43 -10 -75 -68h-29l40 155h435l-8 -45c-175 -189 -294 -372 -366 -648h-109z" />
    <glyph glyph-name="eight.tab" 
d="M277 -12c-118 0 -229 60 -229 168c0 95 84 159 189 205v3c-56 42 -91 87 -91 147c0 114 97 195 216 195c103 0 197 -63 197 -157c0 -88 -78 -139 -165 -184v-3c76 -53 122 -99 122 -173c0 -107 -102 -201 -239 -201zM278 35c98 0 147 58 147 124c0 75 -73 122 -159 180
c-48 -32 -127 -83 -127 -178c0 -75 51 -126 139 -126zM367 388c45 34 108 76 108 163c0 65 -42 109 -116 109c-77 0 -126 -49 -126 -112c0 -68 64 -116 134 -160z" />
    <glyph glyph-name="nine.tab" 
d="M187 -12c-102 0 -148 32 -148 82c0 32 22 58 57 58c37 0 51 -20 58 -59c5 -33 15 -39 45 -39c117 0 196 99 234 294c-39 -26 -86 -50 -157 -50c-109 0 -173 68 -173 176c0 161 130 255 243 255c128 0 211 -92 211 -267c0 -255 -171 -450 -370 -450zM308 323
c55 0 98 22 134 45c11 46 15 85 15 140c0 77 -22 151 -114 151c-91 0 -136 -91 -136 -212c0 -81 30 -124 101 -124z" />
    <glyph glyph-name="cent.tab" 
d="M251 -110l17 97c-9 -1 -18 -1 -27 -1c-85 0 -153 61 -153 153c0 202 145 348 275 379l14 78h48l-13 -72h1c97 0 143 -35 143 -77c0 -36 -16 -57 -51 -57c-37 0 -55 14 -59 66c-2 20 -12 29 -41 30l-78 -441c47 14 90 46 127 80l22 -25c-33 -37 -84 -83 -157 -103
l-19 -107h-49zM187 161c0 -80 38 -121 91 -122l77 437c-84 -37 -168 -174 -168 -315z" />
    <glyph glyph-name="percent.tab" horiz-adv-x="800" 
d="M207 383c56 0 104 88 104 197c0 61 -20 88 -58 88c-57 0 -105 -91 -105 -197c0 -59 19 -88 59 -88zM205 348c-70 0 -137 49 -137 144c0 108 87 211 186 211c68 0 137 -49 137 -144c0 -110 -88 -211 -186 -211zM131 -50h-62l609 764h60zM576 22c56 0 104 88 104 197
c0 61 -20 88 -58 88c-57 0 -105 -91 -105 -197c0 -59 19 -88 59 -88zM574 -13c-70 0 -137 49 -137 144c0 108 87 211 186 211c68 0 137 -49 137 -144c0 -110 -88 -211 -186 -211z" />
    <glyph glyph-name="perthousand.tab" horiz-adv-x="1100" 
d="M186 383c56 0 104 88 104 197c0 61 -20 88 -58 88c-57 0 -105 -91 -105 -197c0 -59 19 -88 59 -88zM184 348c-70 0 -137 49 -137 144c0 108 87 211 186 211c68 0 137 -49 137 -144c0 -110 -88 -211 -186 -211zM36 -50l608 764h61l-608 -764h-61zM535 22
c56 0 104 88 104 197c0 61 -20 88 -58 88c-57 0 -105 -91 -105 -197c0 -59 19 -88 59 -88zM533 -13c-70 0 -137 49 -137 144c0 108 87 211 186 211c68 0 137 -49 137 -144c0 -110 -88 -211 -186 -211zM897 22c56 0 104 88 104 197c0 61 -20 88 -58 88
c-57 0 -105 -91 -105 -197c0 -59 19 -88 59 -88zM895 -13c-70 0 -137 49 -137 144c0 108 87 211 186 211c68 0 137 -49 137 -144c0 -110 -88 -211 -186 -211z" />
    <glyph glyph-name="plus.tab" 
d="M280 120v189h-166v56h166v189h65v-189h166v-56h-166v-189h-65z" />
    <glyph glyph-name="minus.tab" 
d="M113 309v56h400v-56h-400z" />
    <glyph glyph-name="multiply.tab" 
d="M164 141l-44 42l150 154l-150 154l46 43l146 -154l150 154l41 -42l-149 -154l149 -154l-44 -43l-149 154z" />
    <glyph glyph-name="divide.tab" 
d="M312 102c-38 0 -68 29 -68 67c0 36 30 66 68 66c39 0 69 -30 69 -66c0 -38 -30 -67 -69 -67zM312 438c-38 0 -68 29 -68 66s30 67 68 67c39 0 69 -30 69 -67s-30 -66 -69 -66zM126 309v56h375v-56h-375z" />
    <glyph glyph-name="equal.tab" 
d="M96 223v56h430v-56h-430zM96 385v57h430v-57h-430z" />
    <glyph glyph-name="less.tab" 
d="M487 124l-387 171v66l387 171v-63l-332 -141l332 -141v-63z" />
    <glyph glyph-name="greater.tab" 
d="M511 295l-387 -171v63l332 141l-332 141v63l387 -171v-66z" />
    <glyph glyph-name="florin.tab" 
d="M133 350l9 45h103l27 101c40 150 132 206 218 206c71 0 102 -31 102 -68c0 -28 -15 -52 -49 -52c-31 0 -48 10 -50 52c-1 27 -5 32 -20 32c-32 0 -64 -26 -89 -116l-42 -155h132l-9 -45h-136l-88 -327c-44 -158 -115 -219 -195 -219c-63 0 -91 28 -91 61
c0 29 18 44 45 44c26 0 40 -10 43 -37c4 -31 9 -35 20 -35c23 0 39 16 54 73l116 440h-100z" />
    <glyph glyph-name="plusminus.tab" 
d="M114 0v56h397v-56h-397zM280 151v169h-166v56h166v169h65v-169h166v-56h-166v-169h-65z" />
    <glyph glyph-name="notequal.tab" 
d="M96 386v55h245l70 131h56l-70 -131h129v-55h-159l-58 -108h217v-54h-246l-70 -131h-55l70 131h-129v54h158l57 108h-215z" />
    <glyph glyph-name="approxequal.tab" 
d="M490 468l44 -20c-24 -52 -55 -97 -113 -97c-57 0 -176 44 -223 44c-30 0 -52 -30 -64 -61l-46 17c18 49 56 98 113 98c56 0 173 -44 223 -44c31 0 50 29 66 63zM490 315l44 -20c-24 -52 -55 -97 -113 -97c-57 0 -176 44 -223 44c-30 0 -52 -30 -64 -61l-46 17
c18 49 56 98 113 98c56 0 173 -44 223 -44c31 0 50 29 66 63z" />
    <glyph glyph-name="lessequal.tab" 
d="M115 0v56h387v-56h-387zM502 134l-387 161v66l387 161v-63l-332 -131l332 -131v-63z" />
    <glyph glyph-name="greaterequal.tab" 
d="M503 56v-56h-387v56h387zM503 295l-387 -161v63l332 131l-332 131v63l387 -161v-66z" />
    <glyph glyph-name="period.tab" horiz-adv-x="300" 
d="M120 -6c-40 0 -72 31 -72 70s32 71 72 71c41 0 73 -32 73 -71s-32 -70 -73 -70z" />
    <glyph glyph-name="comma.tab" horiz-adv-x="300" 
d="M-38 -162l-7 29c110 36 171 84 174 146c-5 -4 -17 -10 -31 -10c-41 0 -64 29 -64 66c0 39 33 66 75 66c49 0 91 -40 91 -110c0 -81 -89 -165 -238 -187z" />
    <glyph glyph-name="colon.tab" horiz-adv-x="300" 
d="M122 -6c-40 0 -72 31 -72 70s32 71 72 71c41 0 73 -32 73 -71s-32 -70 -73 -70zM172 275c-40 0 -72 31 -72 70s32 71 72 71c41 0 73 -32 73 -71s-32 -70 -73 -70z" />
    <glyph glyph-name="semicolon.tab" horiz-adv-x="300" 
d="M-38 -162l-8 29c110 36 171 84 174 146c-5 -4 -17 -10 -31 -10c-41 0 -64 29 -64 66c0 39 33 66 75 66c49 0 91 -40 91 -110c0 -81 -89 -165 -237 -187zM158 275c-40 0 -72 31 -72 70s32 71 72 71c41 0 73 -32 73 -71s-32 -70 -73 -70z" />
    <glyph glyph-name="parenleft.tab" horiz-adv-x="400" 
d="M263 -140c-80 85 -170 214 -170 385c0 237 172 406 313 499l22 -26c-148 -125 -243 -301 -243 -507c1 -145 53 -248 111 -329z" />
    <glyph glyph-name="parenright.tab" horiz-adv-x="400" 
d="M13 -140l-22 26c148 125 243 301 243 507c-1 145 -53 248 -111 329l33 22c80 -85 170 -214 170 -385c0 -237 -172 -406 -313 -499z" />
    <glyph glyph-name="bracketleft.tab" horiz-adv-x="400" 
d="M60 -130l155 864h210l-6 -30l-89 -11c-33 -4 -40 -11 -49 -63l-117 -656c-10 -50 -8 -59 26 -63l87 -11l-7 -30h-210z" />
    <glyph glyph-name="bracketright.tab" horiz-adv-x="400" 
d="M-10 -130l6 30l92 11c34 4 39 11 48 63l117 656c10 50 8 59 -25 63l-89 11l6 30h209l-155 -864h-209z" />
    <glyph glyph-name="braceleft.tab" horiz-adv-x="400" 
d="M268 -130c-137 23 -189 47 -189 105c0 65 94 211 94 260c0 30 -20 52 -105 65l7 38c111 2 127 38 127 76c0 46 -13 140 -13 196c0 92 48 117 224 124l-6 -30c-115 -15 -129 -23 -129 -119c0 -58 4 -95 4 -146c0 -61 -17 -99 -145 -122v-4c78 -20 108 -50 108 -94
c0 -60 -76 -180 -76 -257c0 -29 26 -41 106 -63z" />
    <glyph glyph-name="braceright.tab" horiz-adv-x="400" 
d="M2 -130l7 30c114 15 128 23 128 119c0 58 -4 99 -4 150c0 61 17 98 145 121v4c-78 20 -108 51 -108 95c0 60 76 176 76 253c0 29 -25 41 -105 63l6 29c137 -23 189 -47 189 -105c0 -65 -94 -207 -94 -256c0 -30 20 -52 105 -65l-7 -38c-111 -2 -127 -38 -127 -76
c0 -46 13 -144 13 -200c0 -92 -48 -117 -224 -124z" />
    <glyph glyph-name="parenleft.uctab" horiz-adv-x="400" 
d="M271 -93c-80 85 -170 214 -170 385c0 237 172 406 313 499l22 -26c-148 -125 -243 -301 -243 -507c1 -145 53 -248 111 -329z" />
    <glyph glyph-name="parenright.uctab" horiz-adv-x="400" 
d="M17 -93l-22 26c148 125 243 301 243 507c-1 145 -53 248 -111 329l33 22c80 -85 170 -214 170 -385c0 -237 -172 -406 -313 -499z" />
    <glyph glyph-name="bracketleft.uctab" horiz-adv-x="400" 
d="M87 -86l155 864h210l-6 -30l-89 -11c-33 -4 -40 -11 -49 -63l-117 -656c-10 -50 -8 -59 26 -63l87 -11l-7 -30h-210z" />
    <glyph glyph-name="bracketright.uctab" horiz-adv-x="400" 
d="M-17 -86l6 30l92 11c34 4 39 11 48 63l117 656c10 50 8 59 -25 63l-89 11l6 30h209l-155 -864h-209z" />
    <glyph glyph-name="braceleft.uctab" horiz-adv-x="400" 
d="M280 -85c-137 23 -189 47 -189 105c0 65 94 211 94 260c0 30 -20 52 -105 65l7 38c111 2 127 38 127 76c0 46 -13 140 -13 196c0 92 48 117 224 124l-6 -30c-115 -15 -129 -23 -129 -119c0 -58 4 -95 4 -146c0 -61 -17 -99 -145 -122v-4c78 -20 108 -50 108 -94
c0 -60 -76 -180 -76 -257c0 -29 26 -41 106 -63z" />
    <glyph glyph-name="braceright.uctab" horiz-adv-x="400" 
d="M-2 -85l7 30c114 15 128 23 128 119c0 58 -4 99 -4 150c0 61 17 98 145 121v4c-78 20 -108 51 -108 95c0 60 76 176 76 253c0 29 -25 41 -105 63l6 29c137 -23 189 -47 189 -105c0 -65 -94 -207 -94 -256c0 -30 20 -52 105 -65l-7 -38c-111 -2 -127 -38 -127 -76
c0 -46 13 -144 13 -200c0 -92 -48 -117 -224 -124z" />
    <glyph glyph-name="space.tab" horiz-adv-x="300" 
 />
    <glyph glyph-name="dollar.oldtab" 
d="M217 -108l17 98c-133 7 -176 62 -176 110c0 37 21 54 50 54c35 0 53 -12 57 -60c2 -41 11 -60 76 -64l47 271c-97 57 -135 104 -135 175c0 115 100 184 198 190l11 63h47l-11 -63c107 -8 152 -53 152 -98c0 -38 -21 -59 -50 -59c-33 0 -51 17 -54 67c-2 32 -12 47 -55 51
l-43 -247c106 -63 147 -114 147 -189c0 -116 -104 -194 -215 -201l-17 -98h-46zM412 155c0 50 -27 85 -83 121l-42 -246c82 7 125 60 125 125zM229 509c0 -38 21 -68 77 -104l39 223c-68 -6 -116 -49 -116 -119z" />
    <glyph glyph-name="Euro.oldtab" 
d="M54 374l7 46h69c59 158 189 250 307 250c94 0 148 -39 148 -94c0 -40 -22 -59 -53 -59c-33 0 -52 13 -56 59c-4 44 -9 53 -46 53c-89 0 -166 -84 -206 -209h218l-15 -46h-215c-6 -28 -11 -58 -13 -89h201l-14 -45h-189v-11c0 -123 46 -182 154 -182c63 0 110 22 148 44
l-5 -41c-41 -34 -101 -62 -186 -62c-138 0 -209 96 -209 247v5h-69l8 45h63c3 31 8 61 15 89h-62z" />
    <glyph glyph-name="sterling.oldtab" 
d="M117 314l7 45h58c-3 25 -5 50 -5 74c1 137 96 237 242 237c90 0 141 -33 141 -81c0 -40 -23 -57 -54 -57c-34 0 -53 16 -57 55c-5 36 -10 42 -42 42c-58 0 -113 -44 -124 -139c-5 -34 -7 -85 -8 -131h170l-7 -45h-164c0 -19 -1 -35 -2 -46c-7 -68 -44 -132 -114 -181v-5
h226c42 0 52 8 97 76h27l-43 -158h-413l12 67c94 50 126 103 128 189c0 17 -2 37 -4 58h-71z" />
    <glyph glyph-name="yen.oldtab" 
d="M99 284l7 45h149l-71 208c-20 58 -31 78 -53 84l-24 7l7 30h237l-8 -30l-24 -6c-28 -6 -42 -17 -43 -34c-1 -13 5 -28 12 -51l58 -186h3l120 183c17 26 26 48 26 60c-1 12 -5 21 -28 27l-24 7l7 30h191l-7 -30l-24 -6c-33 -9 -43 -27 -92 -98l-134 -195h152l-8 -45h-163
l-16 -88h162l-7 -45h-163l-9 -54c-8 -46 -5 -53 21 -58l44 -8l-5 -31h-257l6 31l47 8c24 5 31 10 40 58l9 54h-163l8 45h163l16 88h-162z" />
    <glyph glyph-name="zero.oldtab" 
d="M276 -13c-130 0 -212 84 -212 236c0 213 138 370 295 370c119 0 209 -79 209 -238c0 -212 -134 -368 -292 -368zM276 30c105 0 189 156 189 356c0 115 -38 165 -108 165c-108 0 -190 -167 -190 -360c0 -111 35 -161 109 -161z" />
    <glyph glyph-name="one.oldtab" 
d="M104 0l5 30l74 10c31 4 43 10 51 53l67 381h-119l4 31c80 13 160 47 211 96l24 -6l-88 -502c-7 -41 1 -49 28 -53l75 -10l-5 -30h-327z" />
    <glyph glyph-name="two.oldtab" 
d="M482 78l-24 -78h-420l9 48c72 49 179 119 259 186c74 62 118 126 118 209c0 79 -43 110 -109 110c-36 0 -53 -13 -55 -43c-4 -42 -24 -67 -61 -67c-39 0 -54 27 -54 55c0 55 68 95 181 95c122 0 199 -61 199 -162c0 -153 -197 -242 -364 -350v-3h321z" />
    <glyph glyph-name="three.oldtab" 
d="M224 -122c-116 0 -182 41 -182 102c0 34 23 53 55 53c33 0 50 -19 57 -59c7 -45 14 -56 66 -56c103 0 167 72 167 202c0 76 -40 112 -124 112h-57l7 45h49c90 0 139 50 139 172c0 76 -34 104 -102 104c-50 0 -62 -16 -66 -51c-5 -44 -22 -60 -54 -60c-35 0 -54 22 -54 52
c0 52 68 99 182 99c128 0 193 -75 193 -153c0 -88 -52 -162 -166 -183v-3c98 -15 158 -61 158 -152c0 -134 -127 -224 -268 -224z" />
    <glyph glyph-name="four.oldtab" 
d="M381 -112h-98l27 164h-294l7 44l416 501h62l-82 -487h111l-14 -58h-107zM374 449l-274 -337v-2h220l57 339h-3z" />
    <glyph glyph-name="five.oldtab" 
d="M537 578l-21 -83h-280l-45 -184c26 8 52 12 85 12c115 0 219 -65 219 -196c0 -154 -128 -249 -263 -249c-109 0 -174 39 -174 98c0 33 20 54 55 54s52 -18 59 -60c8 -44 15 -52 64 -52c100 0 165 63 165 171s-74 147 -160 147c-49 0 -93 -11 -114 -21l-7 6l88 357h329z
" />
    <glyph glyph-name="six.oldtab" 
d="M288 -13c-135 0 -212 97 -212 252c0 279 184 466 367 466c95 0 150 -31 150 -82c0 -35 -23 -56 -56 -56c-36 0 -53 24 -58 59c-4 32 -16 42 -47 42c-89 0 -196 -95 -238 -300c39 28 95 54 156 54c115 0 184 -70 184 -184c0 -158 -117 -251 -246 -251zM291 30
c90 0 141 85 141 206c0 92 -41 136 -113 136c-48 0 -95 -19 -133 -43c-5 -36 -10 -71 -10 -121c0 -90 15 -178 115 -178z" />
    <glyph glyph-name="seven.oldtab" 
d="M104 -112c86 279 246 450 397 607h-281c-31 0 -40 -12 -74 -77h-27l41 160h428l-8 -42c-180 -196 -303 -370 -368 -648h-108z" />
    <glyph glyph-name="eight.oldtab" 
d="M286 -12c-115 0 -224 60 -224 168c0 95 84 160 186 206v3c-53 42 -87 86 -87 146c0 114 94 195 210 195c100 0 190 -63 190 -157c0 -88 -76 -140 -161 -185v-3c73 -53 120 -98 120 -172c0 -107 -101 -201 -234 -201zM374 387c44 34 106 77 106 164c0 65 -41 112 -112 112
c-75 0 -123 -52 -123 -115c0 -68 62 -117 129 -161zM287 31c95 0 144 62 144 128c0 75 -72 123 -155 181c-46 -32 -126 -84 -126 -179c0 -75 51 -130 137 -130z" />
    <glyph glyph-name="nine.oldtab" 
d="M183 -122c-100 0 -148 34 -148 83c0 31 20 53 52 53c31 0 50 -16 57 -55c5 -29 17 -44 48 -44c106 0 202 88 236 298c-43 -30 -95 -55 -156 -55c-111 0 -178 74 -178 186c0 151 111 249 238 249c133 0 214 -89 214 -268c0 -269 -166 -447 -363 -447zM304 208
c55 0 95 21 132 45c8 39 11 71 11 120c0 86 -19 177 -117 177c-90 0 -135 -87 -135 -206c0 -87 34 -136 109 -136z" />
    <glyph glyph-name="percent.oldtab" horiz-adv-x="800" 
d="M89 467c0 103 83 200 177 200c65 0 131 -46 131 -137c0 -104 -83 -200 -176 -200c-68 0 -132 47 -132 137zM86 -48l575 726h58l-572 -726h-61zM560 -12c-68 0 -131 46 -131 137c0 103 83 200 176 200c65 0 132 -47 132 -137c0 -105 -85 -200 -177 -200zM223 365
c52 0 97 83 97 185c0 58 -19 83 -55 83c-53 0 -98 -86 -98 -185c0 -56 17 -83 56 -83zM562 23c53 0 97 82 97 185c0 57 -19 82 -55 82c-53 0 -98 -85 -98 -185c0 -56 18 -82 56 -82z" />
    <glyph glyph-name="perthousand.oldtab" horiz-adv-x="1100" 
d="M56 -48l575 726h59l-573 -726h-61zM56 467c0 103 84 200 178 200c65 0 132 -46 132 -137c0 -104 -84 -200 -177 -200c-68 0 -133 47 -133 137zM535 -12c-67 0 -132 46 -132 137c0 103 84 200 177 200c66 0 133 -47 133 -137c0 -105 -85 -200 -178 -200zM190 365
c53 0 99 83 99 185c0 58 -20 83 -56 83c-54 0 -99 -86 -99 -185c0 -56 18 -83 56 -83zM537 23c53 0 98 82 98 185c0 57 -19 82 -55 82c-54 0 -100 -85 -100 -185c0 -56 19 -82 57 -82zM886 -12c-67 0 -132 46 -132 137c0 103 84 200 178 200c65 0 132 -47 132 -137
c0 -105 -84 -200 -178 -200zM888 23c54 0 98 82 98 185c0 57 -18 82 -55 82c-54 0 -99 -85 -99 -185c0 -56 18 -82 56 -82z" />
    <glyph glyph-name="plus.oldtab" 
d="M280 86v189h-166v56h166v189h65v-189h166v-56h-166v-189h-65z" />
    <glyph glyph-name="minus.oldtab" 
d="M113 275v56h400v-56h-400z" />
    <glyph glyph-name="multiply.oldtab" 
d="M164 92l-44 42l150 154l-150 154l46 43l146 -154l150 154l41 -42l-149 -154l149 -154l-44 -43l-149 154z" />
    <glyph glyph-name="divide.oldtab" 
d="M311 71c-38 0 -68 29 -68 67c0 36 30 66 68 66c39 0 69 -30 69 -66c0 -38 -30 -67 -69 -67zM311 399c-38 0 -68 29 -68 66s30 67 68 67c39 0 69 -30 69 -67s-30 -66 -69 -66zM122 275v56h380v-56h-380z" />
    <glyph glyph-name="equal.oldtab" 
d="M95 177v56h430v-56h-430zM95 339v57h430v-57h-430z" />
    <glyph glyph-name="less.oldtab" 
d="M496 84l-387 171v66l387 171v-63l-332 -141l332 -141v-63z" />
    <glyph glyph-name="greater.oldtab" 
d="M511 255l-387 -171v63l332 141l-332 141v63l387 -171v-66z" />
    <glyph glyph-name="plusminus.oldtab" 
d="M113 0v56h397v-56h-397zM279 146v169h-166v56h166v169h65v-169h166v-56h-166v-169h-65z" />
    <glyph glyph-name="notequal.oldtab" 
d="M95 340v55h245l70 131h56l-70 -131h129v-55h-159l-58 -108h217v-54h-246l-70 -131h-55l70 131h-129v54h158l57 108h-215z" />
    <glyph glyph-name="approxequal.oldtab" 
d="M477 438l44 -20c-24 -52 -55 -97 -113 -97c-57 0 -145 44 -192 44c-30 0 -52 -30 -64 -61l-46 17c18 49 56 98 113 98c56 0 142 -44 192 -44c31 0 50 29 66 63zM477 285l44 -20c-24 -52 -55 -97 -113 -97c-57 0 -145 44 -192 44c-30 0 -52 -30 -64 -61l-46 17
c18 49 56 98 113 98c56 0 142 -44 192 -44c31 0 50 29 66 63z" />
    <glyph glyph-name="lessequal.oldtab" 
d="M109 0v56h387v-56h-387zM496 122l-387 161v66l387 161v-63l-332 -131l332 -131v-63z" />
    <glyph glyph-name="greaterequal.oldtab" 
d="M505 56v-56h-387v56h387zM505 283l-387 -161v63l332 131l-332 131v63l387 -161v-66z" />
    <glyph glyph-name="zero.num" horiz-adv-x="429" 
d="M215 263c-82 0 -152 55 -152 165c0 173 125 273 219 273c77 0 152 -55 152 -168c0 -157 -114 -270 -219 -270zM213 298c80 0 133 160 133 273c0 68 -25 95 -63 95c-79 0 -130 -159 -130 -277c0 -65 22 -91 60 -91z" />
    <glyph glyph-name="one.num" horiz-adv-x="262" 
d="M23 271l5 26l27 6c23 5 35 9 41 42l46 252h-62l5 29c61 12 119 38 155 72l13 -3l-63 -350c-6 -34 -3 -38 16 -42l33 -6l-5 -26h-211z" />
    <glyph glyph-name="two.num" horiz-adv-x="351" 
d="M21 271l9 47c60 43 110 77 145 112c61 54 100 104 100 182c0 43 -26 55 -60 55c-18 0 -28 -7 -31 -28c-4 -39 -18 -50 -46 -50c-31 0 -41 19 -41 40c0 41 52 72 128 72c79 0 139 -39 139 -110c0 -100 -115 -172 -249 -249v-3h131c30 0 36 8 64 50h24l-30 -118h-283z" />
    <glyph glyph-name="three.num" horiz-adv-x="357" 
d="M157 263c-77 0 -126 23 -126 69c0 28 14 47 41 47s41 -12 44 -46c3 -30 4 -38 34 -38c63 0 93 56 93 119c0 38 -19 59 -65 59h-31l7 38h26c64 0 86 39 86 105c0 35 -18 51 -54 51c-21 0 -32 -5 -34 -26c-4 -38 -15 -48 -43 -48c-27 0 -41 15 -41 38c0 40 52 70 125 70
c84 0 133 -40 133 -94c0 -55 -34 -97 -117 -112v-2c64 -9 104 -43 104 -94c0 -82 -79 -136 -182 -136z" />
    <glyph glyph-name="four.num" horiz-adv-x="382" 
d="M160 271l5 26l24 6c19 5 25 8 32 45l6 36h-186l7 34l270 275h46l-50 -267h61l-10 -42h-60l-7 -37c-7 -36 1 -40 19 -44l23 -6l-4 -26h-176zM105 426h130l32 164h-3l-159 -162v-2z" />
    <glyph glyph-name="five.num" horiz-adv-x="353" 
d="M157 263c-70 0 -118 23 -118 68c0 23 14 47 43 47c26 0 39 -8 40 -44c1 -31 6 -38 38 -38c53 0 97 31 97 92c0 58 -39 85 -93 85c-35 0 -57 -8 -70 -13l-9 6l63 227h158c17 0 22 3 39 32h26l-26 -101h-179l-23 -88c12 3 27 6 54 6c84 0 144 -42 144 -118
c0 -101 -97 -161 -184 -161z" />
    <glyph glyph-name="six.num" horiz-adv-x="390" 
d="M206 263c-81 0 -143 56 -143 155c0 173 140 283 250 283c70 0 101 -23 101 -58c0 -26 -15 -45 -40 -45c-31 0 -40 12 -42 46c-1 21 -10 23 -28 23c-48 0 -104 -36 -136 -166c21 13 53 23 96 23c66 0 114 -39 114 -106c0 -90 -74 -155 -172 -155zM207 298
c53 0 80 66 80 127c0 45 -20 63 -58 63c-27 0 -50 -9 -66 -19c-7 -33 -13 -68 -13 -105c0 -36 14 -66 57 -66z" />
    <glyph glyph-name="seven.num" horiz-adv-x="337" 
d="M77 271c51 156 150 263 242 353h-161c-24 0 -30 -7 -53 -47h-25l28 116h279l-7 -40c-108 -115 -169 -228 -204 -382h-99z" />
    <glyph glyph-name="eight.num" horiz-adv-x="374" 
d="M195 263c-85 0 -150 40 -150 100c0 55 47 96 110 120v2c-36 26 -52 52 -52 88c0 79 71 128 149 128c68 0 129 -36 129 -93c0 -51 -46 -85 -99 -107v-2c50 -31 75 -58 75 -102c0 -74 -70 -134 -162 -134zM197 300c52 0 86 27 86 66c0 38 -35 60 -103 101
c-25 -22 -61 -47 -61 -99c0 -44 25 -68 78 -68zM256 517c26 21 57 45 57 88c0 38 -22 60 -65 60c-44 0 -75 -23 -75 -60c0 -35 30 -58 83 -88z" />
    <glyph glyph-name="nine.num" horiz-adv-x="390" 
d="M149 263c-70 0 -102 24 -102 58c0 27 16 45 43 45c31 0 41 -11 45 -45c2 -21 7 -25 23 -25c60 0 110 49 131 165c-20 -12 -53 -20 -95 -20c-67 0 -112 38 -112 104c0 89 78 156 170 156c82 0 143 -54 143 -158c0 -162 -123 -280 -246 -280zM229 477c28 0 48 8 66 19
c8 37 11 70 11 102c0 38 -12 70 -57 70c-52 0 -78 -69 -78 -129c0 -43 20 -62 58 -62z" />
    <glyph glyph-name="zero.den" horiz-adv-x="429" 
d="M139 -112c-81 0 -152 55 -152 165c0 173 126 273 220 273c77 0 152 -55 152 -168c0 -157 -114 -270 -220 -270zM138 -78c80 0 132 161 132 274c0 68 -24 95 -62 95c-79 0 -131 -159 -131 -277c0 -66 23 -92 61 -92z" />
    <glyph glyph-name="one.den" horiz-adv-x="262" 
d="M-54 -104l5 26l27 6c24 5 37 9 43 41l46 253h-64l5 29c61 12 121 38 157 72l13 -3l-63 -351c-6 -33 -4 -38 16 -41l34 -6l-5 -26h-214z" />
    <glyph glyph-name="two.den" horiz-adv-x="351" 
d="M-54 -104l9 47c60 43 110 77 145 112c61 54 100 104 100 182c0 43 -26 55 -61 55c-17 0 -27 -7 -30 -28c-4 -39 -18 -50 -46 -50c-31 0 -41 19 -41 40c0 41 52 72 128 72c79 0 139 -39 139 -110c0 -100 -116 -172 -250 -249v-3h131c30 0 36 8 64 50h25l-30 -118h-283z
" />
    </font>
</defs>
</svg>
