<?xml version="1.0" standalone="no"?>
<!DOCTYPE svg PUBLIC "-//W3C//DTD SVG 1.1//EN" "http://www.w3.org/Graphics/SVG/1.1/DTD/svg11.dtd" >
<svg xmlns="http://www.w3.org/2000/svg" xmlns:xlink="http://www.w3.org/1999/xlink" version="1.1">
<metadata>
Created by FontForge 20170910 at Mon Jan 11 11:57:24 2016
 By Jimmy Wärting
\\\\uFFFD 2010 Paul Barnes and Christian Schwartz, under exclusive license to Schwartzco Inc./Commercial Type. All rights reserved.
</metadata>
<defs>
<font id="ChubbPublicoText-BoldItalic" horiz-adv-x="600" >
  <font-face 
    font-family="Chubb Publico Text"
    font-weight="700"
    font-style="italic"
    font-stretch="normal"
    units-per-em="1000"
    panose-1="2 4 8 2 6 5 4 13 2 3"
    ascent="781"
    descent="-219"
    x-height="532"
    cap-height="693"
    bbox="-172 -284 1219 1128"
    underline-thickness="50"
    underline-position="-108"
    slope="-12"
    stemh="54"
    stemv="150"
    unicode-range="U+0020-FB04"
  />
<missing-glyph horiz-adv-x="516" 
 />
    <glyph glyph-name="f_b" unicode="fb" horiz-adv-x="916" 
d="M555 -13c-106 0 -163 31 -203 72v8l113 568c-21 9 -32 30 -37 65c-3 22 -10 25 -25 25c-54 0 -96 -36 -117 -180l-4 -26h107l-17 -70h-101l-54 -324c-42 -246 -147 -349 -263 -349c-72 0 -108 29 -108 73c0 30 23 53 56 53s52 -14 61 -62c3 -14 6 -19 14 -19
c29 0 46 16 70 163l72 465h-71l7 36l75 33l1 6c26 149 144 247 295 247c66 0 109 -19 125 -48l82 44l15 -11s-17 -50 -30 -115l-27 -141c-8 -42 -22 -85 -27 -98h5c48 57 123 130 207 130c73 0 121 -64 121 -157c0 -218 -151 -388 -342 -388zM574 38c95 0 168 156 168 333
c0 45 -16 62 -46 62c-45 0 -108 -58 -141 -99l-53 -260c12 -18 34 -36 72 -36z" />
    <glyph glyph-name="f_f" unicode="ff" horiz-adv-x="673" 
d="M274 -210c-71 0 -101 30 -101 68c0 34 20 51 54 51c36 0 50 -13 58 -57c3 -14 6 -18 14 -18c22 0 31 15 52 150l72 465h-154l-56 -338c-38 -226 -132 -335 -256 -335c-74 0 -111 29 -111 73c0 30 24 53 56 53c33 0 52 -13 61 -62c3 -14 6 -19 16 -19c28 0 42 16 66 163
l72 465h-71l7 36l75 33l1 6c22 140 135 232 261 232c71 0 116 -21 145 -50c49 41 110 65 171 65c86 0 128 -34 128 -74c0 -35 -25 -63 -65 -63c-42 0 -57 14 -63 64c-3 23 -9 27 -23 27c-37 0 -68 -27 -91 -174l-6 -32h116l-19 -70h-108l-56 -339
c-37 -221 -129 -320 -245 -320zM284 545l-4 -26h154l1 5c4 32 14 61 27 88c-11 64 -39 99 -80 99c-43 0 -79 -38 -98 -166z" />
    <glyph glyph-name="f_f_b" unicode="ffb" horiz-adv-x="1219" 
d="M574 449l-56 -339c-37 -221 -128 -320 -244 -320c-71 0 -101 30 -101 68c0 34 20 51 54 51c36 0 50 -13 58 -57c3 -14 6 -18 14 -18c22 0 30 15 51 150l72 465h-153l-56 -338c-38 -226 -132 -335 -256 -335c-74 0 -111 29 -111 73c0 30 24 53 56 53c33 0 52 -13 61 -62
c3 -14 6 -19 16 -19c28 0 42 16 66 163l72 465h-71l7 36l75 33l1 6c22 140 135 232 261 232c72 0 118 -22 146 -52c52 43 119 67 193 67c66 0 109 -19 125 -48l82 44l15 -11s-17 -50 -30 -115l-27 -141c-8 -42 -22 -85 -27 -98h5c48 57 123 130 207 130
c73 0 121 -64 121 -157c0 -218 -151 -388 -342 -388c-106 0 -163 31 -203 72v8l113 568c-21 9 -32 30 -37 65c-3 22 -10 25 -25 25c-54 0 -96 -36 -117 -180l-4 -26h107l-17 -70h-101zM877 38c95 0 168 156 168 333c0 45 -16 62 -46 62c-45 0 -108 -58 -141 -99l-53 -260
c12 -18 34 -36 72 -36zM284 545l-4 -26h153c6 33 15 63 28 91c-11 65 -37 101 -79 101c-43 0 -79 -38 -98 -166z" />
    <glyph glyph-name="f_f_h" unicode="ffh" horiz-adv-x="1237" 
d="M574 449l-56 -339c-37 -221 -128 -320 -244 -320c-71 0 -101 30 -101 68c0 34 20 51 54 51c36 0 50 -13 58 -57c3 -14 6 -18 14 -18c22 0 31 15 51 150l72 465h-153l-56 -338c-38 -226 -132 -335 -256 -335c-74 0 -111 29 -111 73c0 30 24 53 56 53c33 0 52 -13 61 -62
c3 -14 6 -19 16 -19c28 0 42 16 66 163l72 465h-71l7 36l75 33l1 6c22 140 135 232 261 232c72 0 118 -22 146 -52c52 43 119 67 193 67c67 0 109 -20 125 -49l84 45l14 -10s-17 -51 -29 -116l-30 -146c-10 -49 -19 -80 -26 -103h5c61 70 139 140 226 140
c55 0 87 -40 87 -92c0 -22 -3 -52 -11 -85l-51 -215c-2 -10 -4 -20 -4 -32c0 -19 11 -28 51 -2l17 11l24 -29c-50 -45 -121 -99 -192 -99c-46 0 -62 33 -62 62c0 26 7 56 14 87l46 199c16 71 12 90 -15 90c-42 0 -100 -53 -143 -103l-68 -324h-151l130 634
c-23 9 -33 30 -39 66c-3 22 -10 25 -25 25c-54 0 -96 -36 -117 -180l-4 -26h107l-17 -70h-101zM284 545l-4 -26h153c6 33 15 63 28 91c-11 65 -37 101 -79 101c-43 0 -79 -38 -98 -166z" />
    <glyph glyph-name="f_f_i" unicode="ffi" horiz-adv-x="923" 
d="M-43 -224c-74 0 -111 29 -111 73c0 30 24 53 56 53c33 0 52 -13 61 -62c3 -14 6 -19 16 -19c28 0 42 16 66 163l72 465h-71l7 36l75 33l1 6c22 140 135 232 261 232c73 0 118 -22 147 -52c52 43 119 67 193 67c90 0 136 -36 136 -82c0 -37 -20 -64 -64 -64
c-46 0 -63 17 -72 76c-3 18 -9 24 -24 24c-52 0 -95 -37 -116 -180l-4 -26h238c43 0 62 -17 62 -50c0 -24 -8 -60 -21 -110l-56 -213c-3 -14 -5 -25 -5 -38c0 -20 16 -23 51 -2l22 13l22 -29c-49 -45 -120 -101 -192 -101c-46 0 -65 30 -65 60s5 52 15 94l63 245
c4 16 8 32 8 43c0 13 -9 18 -24 18h-130l-56 -339c-37 -219 -128 -320 -244 -320c-71 0 -101 30 -101 68c0 34 20 51 54 51c36 0 50 -13 58 -57c3 -14 6 -18 14 -18c22 0 30 15 51 150l72 465h-153l-56 -338c-38 -226 -132 -335 -256 -335zM433 519c5 33 15 63 28 90
c-11 66 -37 102 -79 102c-43 0 -79 -38 -98 -166l-4 -26h153z" />
    <glyph glyph-name="f_f_j" unicode="ffj" horiz-adv-x="912" 
d="M574 449l-56 -339c-37 -221 -128 -320 -244 -320c-71 0 -101 30 -101 68c0 34 20 51 54 51c36 0 50 -13 58 -57c3 -14 6 -18 14 -18c22 0 31 15 51 150l72 465h-153l-56 -338c-38 -226 -132 -335 -256 -335c-74 0 -111 29 -111 73c0 30 24 53 56 53c33 0 52 -13 61 -62
c3 -14 6 -19 16 -19c28 0 42 16 66 163l72 465h-71l7 36l75 33l1 6c22 140 135 232 261 232c72 0 117 -21 146 -51c52 43 120 66 194 66c90 0 136 -36 136 -80c0 -39 -20 -66 -65 -66s-62 17 -72 76c-2 19 -9 24 -23 24c-52 0 -96 -37 -117 -180l-4 -26h239
c43 0 62 -17 62 -50c0 -23 -10 -63 -22 -112l-66 -316c-37 -175 -124 -266 -236 -266c-78 0 -106 37 -106 72s24 54 56 54c36 0 52 -12 59 -60c3 -15 6 -20 14 -20c19 0 33 13 51 111l84 456c4 16 7 32 7 43c0 13 -8 18 -23 18h-130zM284 545l-4 -26h153c6 33 15 63 28 91
c-11 65 -37 101 -79 101c-43 0 -79 -38 -98 -166z" />
    <glyph glyph-name="f_f_k" unicode="ffk" horiz-adv-x="1197" 
d="M574 449l-56 -339c-37 -221 -128 -320 -244 -320c-71 0 -101 30 -101 68c0 34 20 51 54 51c36 0 50 -13 58 -57c3 -14 6 -18 14 -18c22 0 31 15 51 150l72 465h-153l-56 -338c-38 -226 -132 -335 -256 -335c-74 0 -111 29 -111 73c0 30 24 53 56 53c33 0 52 -13 61 -62
c3 -14 6 -19 16 -19c28 0 42 16 66 163l72 465h-71l7 36l75 33l1 6c22 140 135 232 261 232c72 0 118 -22 146 -52c52 43 119 67 193 67c67 0 109 -20 125 -49l85 45l14 -10s-16 -51 -30 -116l-131 -641h-152l129 634c-22 9 -33 31 -38 66c-3 22 -10 25 -25 25
c-54 0 -96 -36 -117 -180l-4 -26h107l-17 -70h-101zM1008 -11c-38 0 -56 28 -81 86c-21 47 -39 88 -62 169l2 21c100 146 191 267 275 267c40 0 67 -22 67 -67c0 -52 -34 -73 -65 -73c-43 0 -45 35 -65 35c-22 0 -69 -43 -103 -87c35 -101 59 -153 84 -207
c22 -48 37 -52 74 -26l15 10l24 -30c-57 -52 -110 -98 -165 -98zM284 545l-4 -26h153c6 33 15 63 28 91c-11 65 -37 101 -79 101c-43 0 -79 -38 -98 -166z" />
    <glyph glyph-name="f_f_l" unicode="ffl" horiz-adv-x="940" 
d="M274 -210c-71 0 -101 30 -101 68c0 34 20 51 54 51c36 0 50 -13 58 -57c3 -14 6 -18 14 -18c22 0 31 15 51 150l72 465h-153l-56 -338c-38 -226 -132 -335 -256 -335c-74 0 -111 29 -111 73c0 30 24 53 56 53c33 0 52 -13 61 -62c3 -14 6 -19 16 -19c28 0 42 16 66 163
l72 465h-71l7 36l75 33l1 6c22 140 135 232 261 232c72 0 118 -22 146 -52c52 43 119 67 193 67c67 0 110 -20 126 -49l84 45l14 -10s-18 -51 -31 -116l-100 -501c-2 -9 -5 -20 -5 -33c0 -19 17 -24 55 0l19 12l22 -29c-52 -49 -121 -101 -194 -101c-44 0 -63 25 -63 56
c0 33 6 60 13 93l99 497c-22 9 -31 30 -36 65c-4 22 -11 25 -26 25c-54 0 -95 -36 -116 -180l-4 -26h106l-17 -70h-101l-56 -339c-37 -221 -128 -320 -244 -320zM284 545l-4 -26h153c5 33 15 63 28 91c-11 65 -37 101 -79 101c-43 0 -79 -38 -98 -166z" />
    <glyph glyph-name="f_h" unicode="fh" horiz-adv-x="934" 
d="M716 -11c-46 0 -62 33 -62 62c0 26 7 56 14 87l46 199c16 71 12 90 -15 90c-42 0 -100 -53 -143 -103l-68 -324h-151l130 634c-23 9 -33 30 -39 66c-3 22 -10 25 -25 25c-54 0 -96 -36 -117 -180l-4 -26h107l-17 -70h-101l-54 -324c-42 -246 -147 -349 -263 -349
c-72 0 -108 29 -108 73c0 30 23 53 56 53s52 -14 61 -62c3 -14 6 -19 14 -19c29 0 46 16 70 163l72 465h-71l7 36l75 33l1 6c26 149 144 247 295 247c67 0 109 -20 125 -49l84 45l14 -10s-17 -51 -29 -116l-30 -146c-10 -49 -19 -80 -26 -103h5c61 70 139 140 226 140
c55 0 87 -40 87 -92c0 -22 -3 -52 -11 -85l-51 -215c-2 -10 -4 -20 -4 -32c0 -19 11 -28 51 -2l17 11l24 -29c-50 -45 -121 -99 -192 -99z" />
    <glyph glyph-name="f_i" unicode="fi" horiz-adv-x="620" 
d="M-46 -224c-72 0 -108 29 -108 73c0 30 23 53 56 53s52 -14 61 -62c3 -14 6 -19 14 -19c29 0 46 16 70 163l72 465h-71l7 36l75 33l1 6c26 146 147 247 296 247c90 0 136 -36 136 -82c0 -37 -20 -64 -65 -64s-62 17 -72 76c-2 18 -9 24 -23 24c-52 0 -96 -37 -117 -180
l-4 -26h239c43 0 62 -17 62 -50c0 -24 -8 -60 -22 -110l-55 -213c-4 -14 -5 -25 -5 -38c0 -20 15 -23 51 -2l21 13l23 -29c-49 -45 -120 -101 -192 -101c-46 0 -65 30 -65 60s4 52 15 94l63 245c4 16 7 32 7 43c0 13 -8 18 -23 18h-130l-54 -324
c-42 -246 -147 -349 -263 -349z" />
    <glyph glyph-name="f_j" unicode="fj" horiz-adv-x="609" 
d="M259 -225c-78 0 -106 37 -106 72s24 54 56 54c36 0 52 -12 59 -60c3 -15 6 -20 14 -20c19 0 33 13 51 111l84 456c4 16 7 32 7 43c0 13 -8 18 -23 18h-130l-54 -324c-42 -246 -147 -349 -263 -349c-72 0 -108 29 -108 73c0 30 23 53 56 53s52 -14 61 -62
c3 -14 6 -19 14 -19c29 0 46 16 70 163l72 465h-71l7 36l75 33l1 6c26 144 147 247 296 247c90 0 136 -36 136 -80c0 -39 -20 -66 -65 -66s-62 17 -72 76c-2 19 -9 24 -23 24c-52 0 -96 -37 -117 -180l-4 -26h239c43 0 62 -17 62 -50c0 -23 -10 -63 -22 -112l-66 -316
c-37 -175 -124 -266 -236 -266z" />
    <glyph glyph-name="f_k" unicode="fk" horiz-adv-x="894" 
d="M337 0l129 634c-22 9 -33 31 -38 66c-3 22 -10 25 -25 25c-54 0 -96 -36 -117 -180l-4 -26h107l-17 -70h-101l-54 -324c-42 -246 -147 -349 -263 -349c-72 0 -108 29 -108 73c0 30 23 53 56 53s52 -14 61 -62c3 -14 6 -19 14 -19c29 0 46 16 70 163l72 465h-71l7 36
l75 33l1 6c26 149 144 247 295 247c67 0 109 -20 125 -49l85 45l14 -10s-16 -51 -30 -116l-131 -641h-152zM705 -11c-38 0 -56 28 -81 86c-21 47 -39 88 -62 169l2 21c100 146 191 267 275 267c40 0 67 -22 67 -67c0 -52 -34 -73 -65 -73c-43 0 -45 35 -65 35
c-22 0 -69 -43 -103 -87c35 -101 59 -153 84 -207c22 -48 37 -52 74 -26l15 10l24 -30c-57 -52 -110 -98 -165 -98z" />
    <glyph glyph-name="f_l" unicode="fl" horiz-adv-x="636" 
d="M416 -11c-44 0 -64 25 -64 56c0 32 7 60 14 94l99 496c-21 9 -32 30 -37 65c-3 22 -10 25 -25 25c-54 0 -96 -36 -117 -180l-4 -26h107l-17 -70h-101l-54 -324c-42 -246 -147 -349 -263 -349c-72 0 -108 29 -108 73c0 30 23 53 56 53s52 -14 61 -62c3 -14 6 -19 14 -19
c29 0 46 16 70 163l72 465h-71l7 36l75 33l1 6c26 149 144 247 295 247c67 0 110 -20 126 -49l84 45l14 -10s-18 -51 -32 -116l-100 -500c-2 -9 -4 -21 -4 -34c0 -19 17 -24 55 0l19 12l22 -29c-53 -49 -121 -101 -194 -101z" />
    <glyph glyph-name=".notdef" horiz-adv-x="516" 
 />
    <glyph glyph-name="Eth" unicode="&#xd0;" horiz-adv-x="745" 
d="M46 321l10 54h65l36 199c11 57 4 64 -26 72l-34 8l8 39h318c199 0 309 -109 309 -279c0 -251 -189 -414 -414 -414h-338l7 40l36 7c32 7 41 12 52 72l36 202h-65zM315 52c167 0 240 194 240 419c0 119 -49 169 -145 169c-32 0 -54 -4 -68 -9l-45 -256h143l-10 -54h-143
l-30 -174c-13 -68 -3 -95 58 -95z" />
    <glyph glyph-name="eth" unicode="&#xf0;" horiz-adv-x="575" 
d="M195 575l-18 45l104 46c-30 27 -65 52 -105 75l17 40c65 -18 123 -44 172 -77l115 51l18 -44l-90 -40c94 -81 144 -190 144 -311c0 -254 -164 -373 -308 -373c-141 0 -221 91 -221 209c0 202 149 329 290 329c38 0 61 -8 81 -24c-15 45 -41 89 -77 129zM245 38
c102 0 154 225 154 329c0 70 -22 108 -73 108c-96 0 -153 -186 -153 -323c0 -75 25 -114 72 -114z" />
    <glyph glyph-name="Lslash" unicode="&#x141;" horiz-adv-x="628" 
d="M18 235l13 61l80 25l46 253c11 57 5 64 -26 72l-34 8l8 39h332l-8 -39l-43 -9c-36 -8 -42 -13 -53 -71l-36 -196l210 65l-14 -61l-207 -64l-31 -173c-14 -75 -5 -93 74 -93c82 0 105 16 141 56c28 33 52 69 92 139h43l-56 -247h-569l7 40l36 7c32 8 41 12 52 72l25 141z
" />
    <glyph glyph-name="lslash" unicode="&#x142;" horiz-adv-x="322" 
d="M14 276l10 59l72 29l53 265c9 46 6 57 -19 67l-39 16l6 35l225 19l12 -10s-17 -50 -30 -115l-42 -209l82 33l-10 -58l-84 -34l-46 -233c-2 -10 -4 -21 -4 -32c0 -19 17 -25 55 -1l19 12l22 -29c-53 -49 -121 -101 -194 -101c-47 0 -64 33 -64 59c0 30 7 60 13 90l33 167z
" />
    <glyph glyph-name="Scaron" unicode="&#x160;" horiz-adv-x="548" 
d="M214 -13c-85 0 -168 22 -208 44l16 182h45c18 -55 33 -86 48 -113c23 -39 51 -59 110 -59c84 0 127 49 127 106c0 52 -24 87 -131 144c-97 53 -138 111 -138 192c0 132 119 222 270 222c87 0 141 -15 175 -31l-16 -164h-42c-16 48 -24 69 -44 99c-17 27 -38 43 -92 43
c-62 0 -114 -37 -114 -99c0 -46 21 -76 116 -128c113 -63 165 -118 165 -206c0 -130 -124 -232 -287 -232zM524 914l14 -27l-153 -131h-62l-117 133l18 25l142 -54z" />
    <glyph glyph-name="scaron" unicode="&#x161;" horiz-adv-x="451" 
d="M180 -12c-129 0 -185 54 -185 105c0 39 27 61 70 61c41 0 57 -23 72 -76c7 -27 15 -40 56 -40c53 0 85 25 85 62c0 35 -23 64 -94 107c-77 48 -122 94 -122 160c0 103 102 165 210 165c121 0 167 -50 167 -99c0 -35 -25 -56 -62 -56c-46 0 -58 26 -69 66
c-7 27 -22 39 -48 39c-47 0 -77 -21 -77 -58c0 -35 19 -57 105 -108c78 -46 115 -96 115 -154c0 -104 -91 -174 -223 -174zM260 587l-105 162l23 25l125 -83l160 83l18 -26l-160 -161h-61z" />
    <glyph glyph-name="Yacute" unicode="&#xdd;" horiz-adv-x="650" 
d="M109 0l8 40l39 7c38 8 44 14 55 72l31 168l-89 274c-20 64 -31 78 -57 86l-21 7l8 39h323l-8 -39l-30 -7c-32 -7 -47 -21 -47 -46c0 -14 3 -33 12 -64l56 -186h5l124 186c25 37 34 57 34 75c0 17 -9 29 -36 35l-23 7l8 39h225l-8 -39l-20 -6c-33 -10 -55 -33 -100 -98
l-181 -262l-31 -169c-10 -57 -6 -64 29 -72l35 -7l-7 -40h-334zM365 745l-13 25l149 114c19 15 35 24 54 24c31 0 52 -29 52 -58c0 -24 -14 -48 -47 -56z" />
    <glyph glyph-name="yacute" unicode="&#xfd;" horiz-adv-x="536" 
d="M-17 -228c-53 0 -84 27 -84 69c0 38 25 60 57 60c55 0 57 -44 96 -44c33 0 73 26 130 87c-21 204 -43 355 -62 430c-15 56 -31 53 -68 27l-15 -9l-23 31c54 57 124 109 175 109c34 0 55 -18 68 -77c21 -99 37 -226 46 -357h4c70 98 134 214 134 283c0 39 -33 53 -33 98
c0 33 26 54 59 54c40 0 72 -24 72 -74c0 -90 -95 -266 -216 -425c-113 -149 -234 -262 -340 -262zM250 592l-13 25l149 114c19 15 35 24 54 24c31 0 52 -29 52 -58c0 -24 -14 -48 -47 -56z" />
    <glyph glyph-name="Thorn" unicode="&#xde;" horiz-adv-x="662" 
d="M-20 0l7 40l37 7c30 7 40 12 51 72l82 455c11 61 3 64 -26 72l-34 8l8 39h327l-8 -39l-39 -8c-31 -7 -41 -11 -52 -72l-3 -19h61c176 0 258 -65 258 -185s-89 -227 -235 -227c-60 0 -79 10 -98 21l7 37c99 -9 153 56 153 203c0 76 -31 98 -95 98c-26 0 -51 -5 -63 -8
l-67 -375c-11 -59 -3 -64 28 -70l50 -9l-7 -40h-342z" />
    <glyph glyph-name="thorn" unicode="&#xfe;" horiz-adv-x="595" 
d="M-89 -219l7 38l31 8c34 8 39 15 47 57l149 745c9 46 6 54 -21 67l-36 16l6 35l222 19l13 -10s-17 -50 -30 -115l-29 -149c-7 -37 -21 -78 -25 -90h4c49 57 124 130 208 130c75 0 121 -65 121 -159c0 -214 -146 -386 -331 -386c-33 0 -57 5 -78 14c0 0 -2 -24 -8 -59
l-11 -58c-8 -44 -6 -50 23 -57l37 -8l-7 -38h-292zM257 38c97 0 166 171 166 333c0 45 -16 62 -46 62c-45 0 -107 -58 -139 -99l-51 -255c15 -20 33 -41 70 -41z" />
    <glyph glyph-name="Zcaron" unicode="&#x17d;" horiz-adv-x="598" 
d="M-23 0l10 52l457 588v4h-41c-129 0 -148 -9 -183 -49c-32 -33 -50 -63 -92 -130h-43l49 228h514l-10 -52l-455 -585v-5h44c143 0 158 6 200 50c36 36 62 81 102 149h43l-52 -250h-543zM561 914l14 -27l-153 -131h-62l-117 133l18 25l142 -54z" />
    <glyph glyph-name="zcaron" unicode="&#x17e;" horiz-adv-x="480" 
d="M278 -17c-79 0 -122 89 -187 89c-22 0 -39 -21 -54 -86h-15l-59 43v15c41 26 70 49 116 92l255 245c-82 4 -139 40 -210 40c-12 0 -18 -8 -18 -14c0 -22 52 -18 52 -61c0 -26 -18 -48 -52 -48c-39 0 -57 36 -57 69c0 54 88 166 173 166c83 0 132 -87 178 -87
c18 0 31 20 44 85h16l61 -40v-16c-38 -24 -63 -41 -114 -91l-243 -238c77 -4 126 -32 176 -32c26 0 44 14 81 65l29 -17c-59 -112 -104 -179 -172 -179zM294 587l-105 162l23 25l125 -83l160 83l18 -26l-160 -161h-61z" />
    <glyph glyph-name="onehalf" unicode="&#xbd;" horiz-adv-x="861" 
d="M421 -104l8 59c62 42 115 75 153 114c58 53 95 111 95 178c0 36 -22 50 -50 50c-21 0 -28 -7 -32 -29c-7 -54 -23 -62 -59 -62c-37 0 -51 22 -51 46c0 51 68 84 155 84c86 0 157 -39 157 -116c0 -93 -106 -162 -263 -231v-3h142c30 0 37 8 66 53h32l-30 -143h-323z
M20 261l7 36l25 6c26 8 36 12 44 49l40 220l-60 7l5 37c76 11 142 41 186 87l23 -6l-62 -346c-7 -38 -3 -42 24 -49l25 -5l-7 -36h-250zM100 -50l598 764h72l-596 -764h-74z" />
    <glyph glyph-name="onequarter" unicode="&#xbc;" horiz-adv-x="846" 
d="M518 -104l6 36l25 6c27 7 31 11 38 49l5 23h-204l9 43l286 275h80l-49 -265h67l-12 -53h-64l-4 -21c-8 -41 -4 -46 22 -52l23 -5l-7 -36h-221zM467 63h135l30 156h-4l-161 -153v-3zM20 261l7 36l25 6c26 8 36 12 44 49l40 220l-60 7l5 37c76 11 142 41 186 87l23 -6
l-62 -346c-7 -38 -3 -42 24 -49l25 -5l-7 -36h-250zM119 -50l598 764h72l-596 -764h-74z" />
    <glyph glyph-name="onesuperior" unicode="&#xb9;" horiz-adv-x="292" 
d="M20 261l7 36l25 6c26 8 36 12 44 49l40 220l-60 7l5 37c76 11 142 41 186 87l23 -6l-62 -346c-7 -38 -3 -42 24 -49l25 -5l-7 -36h-250z" />
    <glyph glyph-name="threequarters" unicode="&#xbe;" horiz-adv-x="877" 
d="M167 252c-88 0 -144 27 -144 79c0 34 20 51 50 51c36 0 51 -14 55 -61c3 -23 6 -31 30 -31c52 0 83 52 83 116c0 46 -28 56 -72 56h-30l9 48h25c62 0 88 39 88 102c0 33 -18 51 -48 51c-21 0 -28 -7 -31 -28c-5 -45 -20 -54 -52 -54s-50 17 -50 42c0 45 62 78 147 78
c95 0 151 -36 151 -96c0 -55 -37 -96 -128 -111v-3c70 -8 120 -39 120 -98c0 -90 -84 -141 -203 -141zM531 -104l6 36l25 6c27 7 31 11 38 49l5 23h-204l9 43l286 275h80l-49 -265h67l-12 -53h-64l-4 -21c-8 -41 -4 -46 22 -52l23 -5l-7 -36h-221zM480 63h135l30 156h-4
l-161 -153v-3zM146 -50l598 764h72l-596 -764h-74z" />
    <glyph glyph-name="threesuperior" unicode="&#xb3;" horiz-adv-x="375" 
d="M167 252c-88 0 -144 27 -144 79c0 34 20 51 50 51c36 0 51 -14 55 -61c3 -23 6 -31 30 -31c52 0 83 52 83 116c0 46 -28 56 -72 56h-30l9 48h25c62 0 88 39 88 102c0 33 -18 51 -48 51c-21 0 -28 -7 -31 -28c-5 -45 -20 -54 -52 -54s-50 17 -50 42c0 45 62 78 147 78
c95 0 151 -36 151 -96c0 -55 -37 -96 -128 -111v-3c70 -8 120 -39 120 -98c0 -90 -84 -141 -203 -141z" />
    <glyph glyph-name="twosuperior" unicode="&#xb2;" horiz-adv-x="376" 
d="M16 261l8 59c62 42 115 75 153 114c58 52 95 110 95 177c0 37 -22 50 -50 50c-22 0 -28 -6 -32 -29c-7 -54 -23 -61 -59 -61c-37 0 -51 21 -51 45c0 52 68 85 155 85c86 0 157 -39 157 -116c0 -93 -106 -162 -263 -232v-3h142c30 0 37 9 65 54h33l-30 -143h-323z" />
    <glyph glyph-name="brokenbar" unicode="&#xa6;" horiz-adv-x="266" 
d="M120 -130v386h58v-386h-58zM120 325v409h58v-409h-58z" />
    <glyph glyph-name="minus" unicode="&#x2212;" horiz-adv-x="499" 
d="M55 303v68h407v-68h-407z" />
    <glyph glyph-name="multiply" unicode="&#xd7;" horiz-adv-x="466" 
d="M106 144l-50 46l143 146l-139 142l52 48l135 -141l138 141l49 -46l-139 -143l143 -146l-52 -47l-142 144z" />
    <glyph glyph-name="space" unicode=" " horiz-adv-x="213" 
 />
    <glyph glyph-name="exclam" unicode="!" horiz-adv-x="296" 
d="M113 -8c-52 0 -94 41 -94 92s42 94 94 94c55 0 96 -43 96 -94s-41 -92 -96 -92zM118 241l-3 346c-4 84 39 116 103 116c67 0 118 -46 75 -138l-131 -324h-44z" />
    <glyph glyph-name="quotedbl" unicode="&#x22;" horiz-adv-x="404" 
d="M116 387l-14 224c-5 77 37 97 77 97c52 0 87 -32 55 -111l-83 -210h-35zM308 387l-9 224c-3 76 40 97 77 97c51 0 89 -32 55 -111l-87 -210h-36z" />
    <glyph glyph-name="numbersign" unicode="#" horiz-adv-x="520" 
d="M57 0l49 181h-83l26 104h89l34 126h-87l26 104h88l51 178h66l-51 -178h104l51 178h65l-51 -178h84l-25 -104h-88l-34 -126h86l-28 -104h-88l-49 -181h-65l49 181h-104l-50 -181h-65zM202 285h105l33 126h-104z" />
    <glyph glyph-name="dollar" unicode="$" horiz-adv-x="549" 
d="M499 219c0 -114 -101 -219 -261 -229l-18 -100h-55l18 100c-131 6 -192 53 -192 116c0 45 28 68 68 68c48 0 67 -18 71 -70c3 -45 12 -64 61 -69l46 254c-113 63 -156 115 -156 197c0 124 109 208 245 216l12 65h54l-12 -65c121 -7 182 -55 182 -115
c0 -44 -28 -69 -69 -69c-45 0 -60 20 -66 79c-4 37 -17 54 -56 59l-43 -235c118 -63 171 -112 171 -202zM367 145c0 51 -29 84 -81 116l-40 -226c73 8 121 52 121 110zM206 554c0 -39 15 -70 74 -107l38 210c-60 -6 -112 -40 -112 -103z" />
    <glyph glyph-name="percent" unicode="%" horiz-adv-x="837" 
d="M214 387c59 0 97 113 97 203c0 49 -15 73 -45 73c-59 0 -97 -118 -97 -204c0 -50 15 -72 45 -72zM212 344c-91 0 -156 59 -156 146c0 120 107 215 211 215c88 0 156 -57 156 -145c0 -122 -107 -216 -211 -216zM72 -50l629 764h73l-627 -764h-75zM602 29
c58 0 96 113 96 204c0 49 -14 72 -45 72c-58 0 -96 -117 -96 -203c0 -50 15 -73 45 -73zM599 -13c-90 0 -155 59 -155 145c0 120 106 215 210 215c89 0 157 -56 157 -145c0 -122 -107 -215 -212 -215z" />
    <glyph glyph-name="ampersand" unicode="&#x26;" horiz-adv-x="726" 
d="M233 -12c-156 0 -229 79 -229 167c0 115 96 187 203 223c-17 38 -27 74 -27 121c0 124 107 206 219 206c104 0 167 -53 167 -124c0 -92 -99 -147 -197 -185c43 -74 88 -144 133 -208c35 43 54 86 54 117c0 21 -12 30 -37 38l-16 5l7 39h215l-8 -39l-27 -7
c-29 -7 -46 -21 -72 -62c-34 -50 -51 -86 -88 -131l48 -62c14 -18 26 -28 50 -35l42 -11l-7 -40h-209c-12 13 -24 28 -36 43c-51 -34 -109 -55 -185 -55zM387 82c-54 71 -110 157 -164 262c-43 -34 -65 -80 -65 -151c0 -100 51 -142 126 -142c40 0 73 11 103 31zM313 559
c0 -42 13 -84 37 -129c59 32 107 76 107 148c0 53 -26 80 -63 80c-49 0 -81 -41 -81 -99z" />
    <glyph glyph-name="quotesingle" unicode="'" horiz-adv-x="208" 
d="M115 387l-13 227c-4 75 41 94 77 94c51 0 90 -33 56 -111l-85 -210h-35z" />
    <glyph glyph-name="parenleft" unicode="(" horiz-adv-x="368" 
d="M258 -141c-97 85 -192 220 -192 387c0 233 184 406 345 500l24 -28c-142 -117 -240 -312 -240 -515c1 -142 43 -240 97 -320z" />
    <glyph glyph-name="parenright" unicode=")" horiz-adv-x="368" 
d="M-25 -141l-23 27c141 117 239 313 239 515c-1 142 -43 240 -97 320l35 25c96 -86 191 -220 191 -388c0 -232 -183 -406 -345 -499z" />
    <glyph glyph-name="asterisk" unicode="*" horiz-adv-x="448" 
d="M362 334c-30 -14 -67 -7 -76 49l-22 103l-52 -93c-24 -52 -65 -51 -89 -29c-24 21 -29 63 24 89l97 52l-107 18c-56 7 -66 46 -50 76c13 27 49 41 90 0l78 -68l-15 104c-11 58 23 76 56 72c32 -4 59 -31 31 -83l-43 -96l94 46c51 29 81 5 87 -27s-14 -64 -70 -56l-111 9
l81 -75c44 -38 25 -76 -3 -91z" />
    <glyph glyph-name="plus" unicode="+" horiz-adv-x="499" 
d="M219 129v174h-164v68h164v174h77v-174h164v-68h-164v-174h-77z" />
    <glyph glyph-name="comma" unicode="," horiz-adv-x="322" 
d="M-46 -174l-10 35c141 48 190 101 194 164c-8 -6 -24 -13 -40 -13c-49 0 -78 33 -78 83c0 54 47 89 98 89c63 0 118 -48 118 -134c0 -107 -98 -202 -282 -224z" />
    <glyph glyph-name="hyphen" unicode="-" horiz-adv-x="303" 
d="M29 240l18 98h230l-18 -98h-230z" />
    <glyph glyph-name="period" unicode="." horiz-adv-x="301" 
d="M120 -8c-55 0 -99 43 -99 95c0 54 44 97 99 97s98 -43 98 -97c0 -52 -43 -95 -98 -95z" />
    <glyph glyph-name="slash" unicode="/" horiz-adv-x="408" 
d="M-59 -130l450 864h72l-449 -864h-73z" />
    <glyph glyph-name="zero" unicode="0" horiz-adv-x="685" 
d="M301 -13c-135 0 -258 94 -258 273c0 267 202 445 371 445c135 0 258 -92 258 -275c0 -266 -203 -443 -371 -443zM306 39c127 0 198 306 198 455c0 113 -34 159 -94 159c-127 0 -198 -297 -198 -457c0 -113 33 -157 94 -157z" />
    <glyph glyph-name="one" unicode="1" horiz-adv-x="410" 
d="M-15 0l8 40l42 7c40 8 47 12 58 72l73 413l-89 9l7 42c107 17 194 60 255 120l32 -9l-103 -575c-9 -57 -6 -65 29 -72l42 -7l-7 -40h-347z" />
    <glyph glyph-name="two" unicode="2" horiz-adv-x="551" 
d="M-27 0l17 84c101 71 175 124 240 180c96 83 160 176 160 295c0 73 -39 96 -90 96c-30 0 -45 -13 -49 -43c-9 -73 -36 -92 -84 -92c-55 0 -71 31 -71 66c0 68 89 119 219 119c136 0 239 -62 239 -178c0 -168 -214 -288 -431 -402v-5h235c50 0 62 9 106 79h38l-47 -199
h-482z" />
    <glyph glyph-name="three" unicode="3" horiz-adv-x="567" 
d="M207 -13c-134 0 -211 39 -211 117c0 43 25 72 72 72c56 0 74 -23 79 -87c3 -44 11 -52 47 -52c100 0 150 96 150 198c0 73 -36 99 -108 99h-49l10 55h42c111 0 141 68 141 176c0 65 -27 90 -85 90c-32 0 -49 -10 -52 -40c-9 -62 -26 -85 -76 -85c-43 0 -67 24 -67 61
c0 66 84 114 211 114c139 0 227 -62 227 -154c0 -97 -70 -160 -196 -183v-3c107 -14 176 -66 176 -155c0 -133 -133 -223 -311 -223z" />
    <glyph glyph-name="four" unicode="4" horiz-adv-x="607" 
d="M185 0l7 40l38 7c35 8 45 13 56 72l11 70h-288l12 61l431 443h106l-79 -429h100l-17 -75h-97l-11 -70c-10 -55 -5 -61 29 -70l36 -9l-7 -40h-327zM108 264h203l47 256h-4l-246 -252v-4z" />
    <glyph glyph-name="five" unicode="5" horiz-adv-x="555" 
d="M199 -13c-118 0 -190 40 -190 108c0 42 24 71 71 71c48 0 66 -17 70 -76c3 -36 11 -54 61 -54c78 0 152 50 152 149c0 93 -62 134 -148 134c-56 0 -104 -13 -125 -23l-9 8l101 389h280c30 0 37 7 68 53h39l-42 -173h-317l-35 -138c21 8 48 14 111 14
c132 0 226 -65 226 -194c0 -160 -142 -268 -313 -268z" />
    <glyph glyph-name="six" unicode="6" horiz-adv-x="622" 
d="M284 -13c-134 0 -241 89 -241 257c0 284 227 461 425 461c107 0 162 -38 162 -99c0 -41 -22 -70 -70 -70c-51 0 -69 20 -76 83c-3 28 -11 37 -39 37c-77 0 -168 -92 -214 -284c35 22 88 42 160 42c111 0 191 -62 191 -171c0 -145 -125 -256 -298 -256zM289 39
c86 0 125 119 125 214c0 71 -31 101 -86 101c-45 0 -80 -15 -107 -31c-10 -56 -18 -113 -18 -175s23 -109 86 -109z" />
    <glyph glyph-name="seven" unicode="7" horiz-adv-x="528" 
d="M68 0c84 248 241 421 411 571h-274c-47 0 -57 -9 -97 -80h-39l51 202h470l-12 -72c-181 -189 -275 -377 -327 -621h-183z" />
    <glyph glyph-name="eight" unicode="8" horiz-adv-x="594" 
d="M268 -13c-150 0 -255 66 -255 164c0 88 81 149 187 188v4c-60 39 -92 86 -92 147c0 134 131 215 258 215c115 0 218 -53 218 -150c0 -81 -82 -135 -164 -169v-5c82 -48 128 -95 128 -166c0 -128 -122 -228 -280 -228zM273 39c84 0 139 43 139 108s-57 105 -175 169
c-42 -34 -94 -84 -94 -159c0 -62 42 -118 130 -118zM379 409c42 33 87 78 87 145c0 64 -37 100 -106 100c-72 0 -120 -44 -120 -100c0 -58 44 -95 139 -145z" />
    <glyph glyph-name="nine" unicode="9" horiz-adv-x="623" 
d="M197 -13c-111 0 -173 38 -173 99c0 41 26 69 74 69s67 -22 73 -77c2 -33 14 -42 40 -42c94 0 171 85 214 283c-35 -20 -90 -41 -162 -41c-111 0 -189 61 -189 171c0 144 137 256 296 256c132 0 242 -84 242 -260c0 -272 -205 -458 -415 -458zM320 340c48 0 87 17 114 32
c13 58 18 111 18 172c0 57 -24 109 -87 109c-84 0 -128 -119 -128 -213c0 -68 26 -100 83 -100z" />
    <glyph glyph-name="colon" unicode=":" horiz-adv-x="311" 
d="M126 -8c-55 0 -99 43 -99 95c0 54 44 97 99 97c54 0 98 -43 98 -97c0 -52 -44 -95 -98 -95zM179 285c-54 0 -99 44 -99 95c0 54 45 97 99 97c55 0 99 -43 99 -97c0 -51 -44 -95 -99 -95z" />
    <glyph glyph-name="semicolon" unicode=";" horiz-adv-x="330" 
d="M-40 -174l-9 35c140 48 190 101 193 164c-8 -6 -24 -13 -40 -13c-49 0 -78 33 -78 83c0 54 47 89 99 89c62 0 118 -48 118 -134c0 -107 -99 -202 -283 -224zM180 285c-54 0 -98 44 -98 95c0 54 44 97 98 97c55 0 99 -43 99 -97c0 -51 -44 -95 -99 -95z" />
    <glyph glyph-name="less" unicode="&#x3c;" horiz-adv-x="499" 
d="M453 112l-402 176v79l402 176v-76l-332 -139l332 -139v-77z" />
    <glyph glyph-name="equal" unicode="=" horiz-adv-x="548" 
d="M55 216v68h456v-68h-456zM55 390v68h456v-68h-456z" />
    <glyph glyph-name="greater" unicode="&#x3e;" horiz-adv-x="499" 
d="M67 112v77l332 139l-332 139v76l402 -175v-80z" />
    <glyph glyph-name="question" unicode="?" horiz-adv-x="468" 
d="M135 238l29 164c100 15 183 59 183 174c0 55 -35 81 -81 81c-25 0 -34 -7 -39 -40c-10 -59 -36 -77 -82 -77c-48 0 -66 27 -66 64c0 68 86 101 179 101c141 0 232 -62 232 -176c0 -140 -128 -205 -281 -222l-13 -69h-61zM151 -8c-52 0 -94 41 -94 92s42 94 94 94
c55 0 96 -43 96 -94s-41 -92 -96 -92z" />
    <glyph glyph-name="at" unicode="@" horiz-adv-x="996" 
d="M471 -190c-257 0 -428 148 -428 386c0 282 249 505 526 505c243 0 395 -136 395 -334c0 -248 -176 -333 -302 -333c-100 0 -118 42 -121 94h-4c-40 -65 -90 -93 -152 -93c-67 0 -112 44 -112 136c0 176 146 325 277 325c55 0 96 -17 123 -37h4l49 33l21 -11
s-14 -26 -31 -109l-38 -193c-10 -58 -12 -86 37 -86c84 0 161 86 161 250c0 185 -87 309 -310 309c-229 0 -421 -186 -421 -436c0 -218 114 -354 348 -354c107 0 197 25 272 57l-4 -45c-62 -30 -146 -64 -290 -64zM453 117c33 0 60 33 86 73l45 233c-5 8 -17 25 -42 25
c-63 0 -131 -143 -131 -267c0 -47 17 -64 42 -64z" />
    <glyph glyph-name="A" unicode="A" horiz-adv-x="698" 
d="M-41 0l8 40l26 6c31 8 44 18 91 102l312 545h102l88 -549c13 -74 22 -92 48 -99l21 -5l-7 -40h-315l8 40l29 7c34 8 47 21 47 44c0 21 -3 39 -7 68l-7 50h-214l-27 -51c-16 -30 -33 -59 -33 -77c0 -19 8 -28 32 -34l29 -7l-8 -40h-223zM354 515l-135 -251h176l-36 251h-5
z" />
    <glyph glyph-name="B" unicode="B" horiz-adv-x="673" 
d="M-20 0l7 40l36 7c32 8 41 14 52 72l82 455c11 57 5 64 -26 72l-34 8l8 39h300c155 0 244 -52 244 -151c0 -101 -77 -156 -206 -174v-6c120 -15 186 -64 186 -152c0 -137 -113 -210 -296 -210h-353zM322 52c87 0 133 66 133 185c0 72 -32 99 -111 99h-57l-38 -214
c-9 -50 9 -70 73 -70zM297 389h50c95 0 134 60 134 165c0 68 -29 86 -88 86c-25 0 -40 -3 -52 -7z" />
    <glyph glyph-name="C" unicode="C" horiz-adv-x="643" 
d="M355 -12c-182 0 -310 108 -310 287c0 272 217 430 429 430c76 0 141 -13 181 -30l-18 -200h-43c-14 51 -31 104 -47 135c-19 32 -40 44 -89 44c-161 0 -236 -263 -236 -449c0 -111 45 -166 133 -166c56 0 84 16 118 57c26 29 57 78 89 132h42l-50 -208
c-42 -18 -113 -32 -199 -32z" />
    <glyph glyph-name="D" unicode="D" horiz-adv-x="745" 
d="M-20 0l7 40l36 7c32 7 41 12 52 72l82 455c11 57 4 64 -26 72l-34 8l8 39h318c199 0 309 -109 309 -279c0 -251 -189 -414 -414 -414h-338zM315 52c167 0 240 194 240 419c0 119 -49 169 -145 169c-32 0 -54 -4 -68 -9l-85 -484c-13 -68 -3 -95 58 -95z" />
    <glyph glyph-name="E" unicode="E" horiz-adv-x="649" 
d="M-20 0l7 40l36 7c32 8 41 13 52 72l82 455c11 57 5 64 -26 72l-34 8l8 39h544l-12 -200h-42c-17 56 -28 84 -40 106c-21 34 -47 40 -117 40c-51 0 -77 -5 -96 -9l-43 -243h21c64 0 84 4 101 26c15 19 24 40 38 72h43l-45 -256h-42c-2 32 -5 53 -14 74
c-9 23 -27 29 -92 29h-20l-33 -188c-14 -73 -5 -90 84 -90c87 0 114 13 148 52c25 29 50 66 87 130h46l-60 -236h-581z" />
    <glyph glyph-name="F" unicode="F" horiz-adv-x="622" 
d="M-20 0l7 40l36 7c31 8 41 13 52 72l82 455c11 59 4 64 -26 72l-34 8l8 39h545l-12 -206h-42c-17 57 -28 83 -43 111c-19 34 -43 42 -121 42c-46 0 -72 -5 -90 -9l-45 -255h10c79 0 92 3 109 23c19 22 31 47 48 83h41l-50 -271h-41c-2 35 -6 60 -14 85
c-7 22 -22 25 -103 25h-11l-35 -202c-11 -59 -7 -64 27 -71l45 -8l-7 -40h-336z" />
    <glyph glyph-name="G" unicode="G" horiz-adv-x="709" 
d="M365 -12c-199 0 -321 109 -321 283c0 273 217 434 429 434c89 0 157 -14 197 -31l-19 -201h-42c-18 59 -33 102 -53 135c-23 32 -38 46 -95 46c-154 0 -240 -253 -240 -460c0 -102 38 -155 135 -155c37 0 59 7 79 20l24 141c10 56 5 65 -28 72l-32 8l8 39h302l-7 -39
l-29 -7c-29 -7 -36 -14 -46 -73l-31 -176c-55 -20 -139 -36 -231 -36z" />
    <glyph glyph-name="H" unicode="H" horiz-adv-x="784" 
d="M-20 0l7 40l36 7c32 8 41 13 52 72l82 455c11 57 5 64 -26 72l-34 8l8 39h323l-7 -39l-37 -8c-31 -8 -39 -12 -51 -72l-35 -191h232l35 191c10 57 5 64 -27 72l-32 8l8 39h323l-8 -39l-37 -8c-30 -7 -40 -12 -51 -72l-83 -455c-10 -57 -5 -64 26 -72l35 -7l-8 -40h-323
l7 40l36 7c32 8 40 13 51 72l39 207h-233l-37 -207c-11 -57 -7 -64 26 -72l33 -7l-7 -40h-323z" />
    <glyph glyph-name="I" unicode="I" horiz-adv-x="383" 
d="M-20 0l7 40l40 7c32 7 40 13 51 72l83 455c10 57 4 65 -27 72l-37 8l8 39h331l-7 -39l-41 -8c-30 -6 -40 -13 -51 -72l-81 -455c-11 -57 -8 -64 25 -72l37 -7l-8 -40h-330z" />
    <glyph glyph-name="J" unicode="J" horiz-adv-x="370" 
d="M-32 -190c-85 0 -140 41 -140 96c0 36 28 63 71 63c50 0 65 -19 71 -89c1 -17 6 -22 19 -22c30 0 42 19 53 80l115 636c11 57 5 64 -26 72l-34 8l8 39h324l-7 -39l-38 -8c-31 -7 -40 -12 -51 -72l-93 -504c-27 -146 -121 -260 -272 -260z" />
    <glyph glyph-name="K" unicode="K" horiz-adv-x="736" 
d="M457 0c-60 102 -110 230 -143 335l4 18l189 176c53 48 62 63 62 87c0 13 -10 24 -32 30l-26 8l7 39h254l-7 -39l-15 -4c-42 -11 -74 -35 -133 -87l-159 -145c46 -127 99 -251 148 -343c9 -16 20 -21 42 -26l36 -9l-7 -40h-220zM-20 0l7 40l36 7c32 8 41 13 52 72l82 455
c11 57 5 64 -26 72l-34 8l8 39h323l-7 -39l-37 -8c-31 -8 -40 -12 -51 -72l-82 -455c-11 -57 -7 -64 26 -72l33 -7l-7 -40h-323z" />
    <glyph glyph-name="L" unicode="L" horiz-adv-x="628" 
d="M-20 0l7 40l36 7c32 8 41 12 52 72l82 455c11 57 5 64 -26 72l-34 8l8 39h332l-8 -39l-43 -9c-36 -8 -42 -13 -53 -71l-77 -429c-15 -75 -7 -93 73 -93c82 0 105 16 141 56c28 33 52 69 92 139h43l-56 -247h-569z" />
    <glyph glyph-name="M" unicode="M" horiz-adv-x="895" 
d="M-20 0l7 40l31 7c37 8 48 22 61 95l78 432c11 57 5 64 -26 72l-34 8l8 39h266l69 -450h4l221 450h281l-8 -39l-38 -8c-30 -7 -40 -11 -51 -72l-83 -455c-11 -57 -5 -64 26 -72l35 -7l-7 -40h-317l7 40l35 7c31 7 41 12 52 72l87 482h-4l-291 -586h-69l-90 586h-4
l-85 -467c-12 -69 -7 -79 33 -88l27 -6l-8 -40h-213z" />
    <glyph glyph-name="N" unicode="N" horiz-adv-x="719" 
d="M498 -2l-268 594h-5l-83 -458c-12 -66 -2 -79 37 -88l30 -6l-7 -40h-222l7 40l30 6c39 8 50 25 62 93l79 435c10 57 5 64 -27 72l-33 8l8 39h262l189 -420h4l52 287c13 67 6 79 -33 87l-35 7l8 39h221l-8 -39l-30 -7c-36 -9 -47 -21 -60 -96l-102 -553h-76z" />
    <glyph glyph-name="O" unicode="O" horiz-adv-x="744" 
d="M335 -13c-160 0 -291 109 -291 284c0 256 199 434 398 434c158 0 289 -104 289 -286c0 -261 -197 -432 -396 -432zM340 41c135 0 215 235 215 434c0 113 -32 176 -117 176c-138 0 -217 -244 -217 -435c0 -111 29 -175 119 -175z" />
    <glyph glyph-name="P" unicode="P" horiz-adv-x="655" 
d="M-20 0l7 40l36 7c32 8 41 13 52 72l82 455c11 58 5 64 -23 71l-37 9l8 39h311c171 0 258 -69 258 -189c0 -129 -93 -239 -240 -239c-54 0 -79 10 -96 20l7 37c104 -10 157 62 157 216c0 77 -33 102 -98 102c-24 0 -49 -4 -61 -8l-92 -513c-11 -57 -7 -63 27 -70l44 -9
l-8 -40h-334z" />
    <glyph glyph-name="Q" unicode="Q" horiz-adv-x="744" 
d="M530 -173c-71 0 -124 23 -180 66c-32 24 -81 71 -123 113c-104 36 -183 130 -183 265c0 253 196 434 398 434c158 0 289 -104 289 -286c0 -222 -145 -367 -305 -406v-3c23 -24 54 -48 82 -68c45 -31 83 -40 123 -40c32 0 62 11 82 19l-5 -35c-28 -24 -93 -59 -178 -59z
M340 41c135 0 215 235 215 434c0 114 -32 176 -117 176c-139 0 -217 -244 -217 -434c0 -113 30 -176 119 -176z" />
    <glyph glyph-name="R" unicode="R" horiz-adv-x="719" 
d="M-20 0l7 40l36 7c32 8 41 12 52 72l82 455c11 57 6 64 -26 72l-34 8l8 39h307c183 0 258 -70 259 -171c0 -95 -60 -162 -160 -188v-5c30 -93 67 -185 107 -254c9 -15 15 -22 38 -28l27 -7l-7 -40h-205c-51 88 -91 203 -117 295h-72l-32 -176c-11 -57 -7 -65 23 -72l36 -7
l-8 -40h-321zM342 348c115 0 158 82 158 199c0 70 -28 93 -98 93c-27 0 -47 -4 -60 -7l-50 -281c3 -1 20 -4 50 -4z" />
    <glyph glyph-name="S" unicode="S" horiz-adv-x="548" 
d="M214 -13c-85 0 -168 22 -208 44l16 182h45c18 -55 33 -86 48 -113c23 -39 51 -59 110 -59c84 0 127 49 127 106c0 52 -24 87 -131 144c-97 53 -138 111 -138 192c0 132 119 222 270 222c87 0 141 -15 175 -31l-16 -164h-42c-16 48 -24 69 -44 99c-17 27 -38 43 -92 43
c-62 0 -114 -37 -114 -99c0 -46 21 -76 116 -128c113 -63 165 -118 165 -206c0 -130 -124 -232 -287 -232z" />
    <glyph glyph-name="T" unicode="T" horiz-adv-x="653" 
d="M112 0l7 40l40 7c37 8 45 12 56 72l94 521h-13c-59 0 -74 -4 -99 -36c-30 -35 -59 -90 -96 -159h-45l55 248h587l-31 -248h-42c-14 67 -28 123 -44 163c-10 26 -22 32 -87 32h-10l-94 -521c-10 -58 -6 -65 28 -72l37 -7l-7 -40h-336z" />
    <glyph glyph-name="U" unicode="U" horiz-adv-x="721" 
d="M358 -13c-183 0 -301 75 -265 269l58 318c10 57 5 64 -26 72l-34 8l8 39h324l-8 -39l-37 -8c-33 -8 -40 -12 -51 -72l-63 -349c-20 -110 13 -170 129 -170c103 0 145 48 164 151l64 354c13 69 4 79 -36 87l-33 7l8 39h223l-8 -39l-31 -7c-31 -7 -46 -18 -60 -90l-67 -364
c-21 -118 -99 -206 -259 -206z" />
    <glyph glyph-name="V" unicode="V" horiz-adv-x="689" 
d="M243 0l-95 549c-13 72 -22 91 -51 99l-22 6l8 39h315l-8 -39l-30 -7c-31 -7 -42 -24 -42 -50c0 -18 2 -41 6 -70l52 -350h5l184 358c18 34 28 61 28 79s-10 27 -34 33l-27 7l7 39h225l-8 -39l-16 -6c-32 -11 -52 -27 -94 -103l-298 -545h-105z" />
    <glyph glyph-name="W" unicode="W" horiz-adv-x="1010" 
d="M222 0l-72 570c-9 68 -20 69 -49 77l-23 7l7 39h311l-8 -39l-23 -6c-31 -8 -42 -23 -42 -56c0 -18 3 -36 5 -58l37 -348h4l159 311l-10 86c-5 43 -16 56 -41 64l-22 7l7 39h308l-7 -39l-33 -7c-33 -8 -44 -28 -44 -57c0 -18 1 -40 3 -58l34 -346h6l172 361
c14 30 19 46 19 68c0 19 -11 29 -36 34l-22 5l7 39h219l-7 -39l-22 -6c-33 -8 -44 -18 -86 -101l-279 -547h-109l-41 401h-3l-207 -401h-112z" />
    <glyph glyph-name="X" unicode="X" horiz-adv-x="722" 
d="M-25 0l9 40l15 4c35 8 59 20 115 86l178 209l-114 236c-23 47 -31 61 -64 73l-17 6l8 39h336l-8 -39l-35 -7c-29 -7 -38 -18 -38 -37c0 -15 3 -29 17 -61l60 -132h4l105 136c22 28 29 46 29 64c0 14 -8 25 -32 31l-25 6l8 39h232l-7 -39l-20 -5c-33 -9 -49 -27 -104 -91
l-161 -191l118 -246c27 -55 38 -68 66 -76l17 -5l-7 -40h-332l7 40l27 4c34 6 44 18 44 35c0 15 -5 36 -18 64l-67 148h-4l-116 -146c-26 -33 -41 -56 -41 -72c0 -14 7 -23 29 -28l26 -5l-7 -40h-233z" />
    <glyph glyph-name="Y" unicode="Y" horiz-adv-x="650" 
d="M109 0l8 40l39 7c38 8 44 14 55 72l31 168l-89 274c-20 64 -31 78 -57 86l-21 7l8 39h323l-8 -39l-30 -7c-32 -7 -47 -21 -47 -46c0 -14 3 -33 12 -64l56 -186h5l124 186c25 37 34 57 34 75c0 17 -9 29 -36 35l-23 7l8 39h225l-8 -39l-20 -6c-33 -10 -55 -33 -100 -98
l-181 -262l-31 -169c-10 -57 -6 -64 29 -72l35 -7l-7 -40h-334z" />
    <glyph glyph-name="Z" unicode="Z" horiz-adv-x="598" 
d="M-23 0l10 52l457 588v4h-41c-129 0 -148 -9 -183 -49c-32 -33 -50 -63 -92 -130h-43l49 228h514l-10 -52l-455 -585v-5h44c143 0 158 6 200 50c36 36 62 81 102 149h43l-52 -250h-543z" />
    <glyph glyph-name="bracketleft" unicode="[" horiz-adv-x="380" 
d="M30 -130l158 864h247l-8 -39l-70 -8c-51 -6 -62 -12 -73 -74l-112 -622c-12 -61 -5 -68 45 -74l68 -8l-8 -39h-247z" />
    <glyph glyph-name="backslash" unicode="\" horiz-adv-x="408" 
d="M265 -130l-176 864h69l176 -864h-69z" />
    <glyph glyph-name="bracketright" unicode="]" horiz-adv-x="380" 
d="M-36 -130l7 39l71 8c52 6 61 13 72 74l113 622c12 61 5 68 -45 74l-69 8l8 39h246l-157 -864h-246z" />
    <glyph glyph-name="asciicircum" unicode="^" horiz-adv-x="438" 
d="M101 441l-21 23l186 233h52l122 -236l-25 -20l-139 127z" />
    <glyph glyph-name="underscore" unicode="_" horiz-adv-x="350" 
d="M-66 -176l12 68h358l-12 -68h-358z" />
    <glyph glyph-name="grave" unicode="`" horiz-adv-x="532" 
d="M423 590l-195 49c-36 9 -48 32 -48 54c0 30 24 61 55 61c19 0 35 -8 55 -23l147 -112z" />
    <glyph glyph-name="a" unicode="a" horiz-adv-x="605" 
d="M140 -13c-82 0 -124 57 -124 137c0 222 180 408 339 408c67 0 95 -15 130 -40h4l67 45l24 -10s-21 -46 -45 -156l-48 -225c-3 -14 -5 -24 -5 -35c0 -20 15 -27 50 -5l19 11l22 -29c-48 -45 -119 -99 -189 -99c-52 0 -59 38 -59 62c0 15 4 38 7 54h-4
c-45 -60 -110 -118 -188 -118zM215 79c43 0 93 54 127 97l59 266c-8 19 -21 39 -55 39c-81 0 -174 -171 -174 -341c0 -42 15 -61 43 -61z" />
    <glyph glyph-name="b" unicode="b" horiz-adv-x="597" 
d="M236 -13c-106 0 -163 31 -203 72v8l112 562c9 46 6 54 -21 67l-36 16l6 35l222 19l13 -10s-17 -50 -30 -115l-27 -141c-8 -42 -22 -85 -27 -98h5c48 57 123 130 207 130c73 0 121 -64 121 -157c0 -218 -151 -388 -342 -388zM255 38c95 0 168 156 168 333
c0 45 -16 62 -46 62c-45 0 -108 -58 -141 -99l-53 -260c12 -18 34 -36 72 -36z" />
    <glyph glyph-name="c" unicode="c" horiz-adv-x="493" 
d="M192 -13c-111 0 -171 71 -171 164c0 221 180 381 333 381c100 0 150 -47 150 -96c0 -44 -25 -67 -70 -67s-64 25 -69 80c-2 29 -8 33 -30 33c-78 0 -160 -155 -160 -306c0 -70 24 -108 80 -108c57 0 103 38 153 84l30 -31c-44 -60 -122 -134 -246 -134z" />
    <glyph glyph-name="d" unicode="d" horiz-adv-x="617" 
d="M145 -13c-83 0 -129 56 -129 148c0 213 179 397 336 397c36 0 59 -7 72 -14h5s3 33 12 73l8 38c11 46 6 55 -21 67l-37 16l6 35l226 19l13 -10s-18 -50 -31 -115l-103 -495c-3 -12 -6 -22 -6 -37c0 -20 18 -26 52 -3l17 11l22 -29c-48 -45 -120 -99 -191 -99
c-49 0 -56 36 -56 61c0 16 2 37 7 56h-4c-49 -60 -117 -119 -198 -119zM219 77c45 0 100 57 135 100l57 266c-7 19 -26 38 -61 38c-87 0 -179 -176 -179 -336c0 -50 20 -68 48 -68z" />
    <glyph glyph-name="e" unicode="e" horiz-adv-x="502" 
d="M194 -13c-115 0 -173 70 -173 166c0 217 191 380 344 380c83 0 140 -39 140 -109c0 -99 -145 -166 -330 -220v-26c0 -69 27 -111 84 -111c55 0 103 39 152 82l30 -30c-44 -55 -122 -132 -247 -132zM338 484c-54 0 -133 -97 -156 -230c63 21 107 43 137 70
c31 29 53 68 53 113c0 29 -13 47 -34 47z" />
    <glyph glyph-name="f" unicode="f" horiz-adv-x="365" 
d="M-44 -224c-73 0 -110 29 -110 73c0 30 24 53 57 53s51 -14 60 -62c3 -14 6 -19 16 -19c28 0 43 16 66 163l71 465h-70l7 36l75 33l1 6c27 157 146 247 269 247c83 0 128 -32 128 -74c0 -37 -26 -63 -66 -63c-41 0 -56 16 -62 64c-2 23 -8 27 -21 27
c-38 0 -70 -27 -92 -174l-5 -32h116l-19 -70h-108l-56 -338c-39 -229 -134 -335 -257 -335z" />
    <glyph glyph-name="g" unicode="g" horiz-adv-x="535" 
d="M179 -230c-164 0 -242 52 -242 122c0 64 80 103 154 123v4c-37 12 -65 36 -65 80c0 55 50 98 92 122v4c-36 20 -64 60 -64 114c0 119 120 195 242 195c53 0 86 -10 118 -27c43 46 92 76 144 76c38 0 58 -22 58 -51c0 -37 -23 -61 -55 -61c-30 0 -40 16 -51 30
c-10 13 -42 0 -61 -26v-4c30 -26 42 -57 42 -92c0 -118 -117 -190 -243 -190c-33 0 -65 7 -91 17c-14 -9 -27 -29 -27 -51c0 -21 13 -32 45 -34l127 -6c118 -6 179 -49 179 -134c0 -128 -131 -211 -302 -211zM196 -181c105 0 162 47 162 103c0 37 -15 56 -76 62l-143 14
c-31 -15 -74 -47 -74 -98s40 -81 131 -81zM250 235c62 0 104 78 104 179c0 45 -20 73 -60 73c-66 0 -104 -98 -104 -182c0 -43 20 -70 60 -70z" />
    <glyph glyph-name="h" unicode="h" horiz-adv-x="619" 
d="M401 -11c-46 0 -62 33 -62 62c0 26 7 56 14 87l46 199c16 71 12 90 -15 90c-42 0 -100 -53 -143 -103l-68 -324h-151l129 629c9 46 4 56 -20 67l-37 16l6 35l222 19l12 -10s-17 -50 -29 -115l-30 -146c-10 -49 -19 -80 -26 -103h5c61 70 139 140 226 140
c55 0 87 -40 87 -92c0 -22 -3 -52 -11 -85l-51 -215c-2 -10 -4 -20 -4 -32c0 -19 11 -28 51 -2l17 11l24 -29c-50 -45 -121 -99 -192 -99z" />
    <glyph glyph-name="i" unicode="i" horiz-adv-x="321" 
d="M101 -11c-46 0 -64 33 -64 62s7 60 15 92l61 227c4 15 6 27 6 36c0 21 -22 14 -56 -6l-11 -7l-22 29c55 56 129 110 193 110c44 0 60 -30 60 -61c0 -26 -6 -63 -20 -112l-57 -213c-3 -12 -6 -25 -6 -37c0 -20 16 -25 52 -3l20 12l22 -29c-49 -46 -122 -100 -193 -100z
M235 598c-51 0 -90 36 -90 83c0 48 39 84 90 84c50 0 89 -35 89 -83c0 -46 -39 -84 -89 -84z" />
    <glyph glyph-name="j" unicode="j" horiz-adv-x="312" 
d="M-56 -225c-75 0 -112 39 -112 80c0 36 21 57 60 57c41 0 56 -19 64 -72c3 -15 7 -20 15 -20c24 0 44 21 63 129l80 421c3 16 5 27 5 35c0 24 -22 15 -56 -5l-11 -7l-22 29c55 56 129 110 193 110c44 0 60 -30 60 -61c0 -25 -7 -66 -17 -112l-70 -318
c-38 -175 -131 -266 -252 -266zM235 598c-51 0 -90 36 -90 83c0 48 39 84 90 84c50 0 89 -35 89 -83c0 -46 -39 -84 -89 -84z" />
    <glyph glyph-name="k" unicode="k" horiz-adv-x="578" 
d="M389 -11c-38 0 -56 28 -81 86c-21 47 -39 88 -62 169l2 21c100 146 191 267 275 267c40 0 67 -22 67 -67c0 -52 -34 -73 -65 -73c-43 0 -45 35 -65 35c-22 0 -69 -43 -103 -87c35 -101 59 -153 84 -207c22 -48 37 -52 74 -26l15 10l24 -30c-57 -52 -110 -98 -165 -98z
M21 0l128 629c10 46 7 56 -19 67l-37 16l6 35l222 19l13 -10s-16 -50 -30 -115l-131 -641h-152z" />
    <glyph glyph-name="l" unicode="l" horiz-adv-x="322" 
d="M102 -11c-47 0 -64 33 -64 59c0 30 7 60 13 90l98 491c9 46 6 57 -19 67l-39 16l6 35l225 19l12 -10s-17 -50 -30 -115l-100 -501c-2 -10 -4 -21 -4 -32c0 -19 17 -25 55 -1l19 12l22 -29c-53 -49 -121 -101 -194 -101z" />
    <glyph glyph-name="m" unicode="m" horiz-adv-x="910" 
d="M692 -11c-46 0 -61 33 -61 62c0 26 6 56 13 87l45 199c16 71 12 90 -13 90c-36 0 -85 -53 -124 -98l-74 -329h-153l75 337c16 71 11 90 -16 90c-37 0 -86 -54 -125 -99l-73 -328h-153l80 370c3 13 6 29 6 38c0 20 -17 16 -57 -8l-10 -6l-21 29c54 55 121 109 184 109
c43 0 57 -28 57 -59c0 -19 -7 -60 -13 -82h5c63 70 132 141 214 141c55 0 87 -39 87 -91c0 -10 -1 -29 -3 -41h4c60 69 122 132 204 132c55 0 87 -42 87 -94c0 -19 -5 -56 -11 -83l-49 -210c-3 -12 -5 -24 -5 -35c0 -19 14 -28 51 -4l17 11l24 -29
c-50 -46 -120 -99 -192 -99z" />
    <glyph glyph-name="n" unicode="n" horiz-adv-x="631" 
d="M413 -11c-46 0 -61 33 -61 62c0 26 6 56 13 87l46 199c16 71 12 90 -13 90c-42 0 -102 -55 -140 -100l-72 -327h-153l80 370c3 13 6 30 6 38c0 20 -15 16 -57 -8l-10 -6l-21 29c54 55 121 109 184 109c43 0 57 -26 57 -57c0 -19 -7 -63 -12 -85h5c63 71 139 142 227 142
c55 0 87 -40 87 -92c0 -22 -3 -52 -11 -85l-50 -210c-3 -15 -5 -24 -5 -35c0 -20 12 -30 51 -4l17 11l24 -29c-50 -45 -120 -99 -192 -99z" />
    <glyph glyph-name="o" unicode="o" horiz-adv-x="573" 
d="M244 -13c-145 0 -221 94 -221 209c0 211 161 337 306 337c143 0 220 -94 220 -208c0 -213 -159 -338 -305 -338zM244 38c99 0 155 205 155 333c0 72 -26 111 -72 111c-98 0 -154 -203 -154 -329c0 -75 25 -115 71 -115z" />
    <glyph glyph-name="p" unicode="p" horiz-adv-x="619" 
d="M-73 -219l7 38l30 8c33 7 39 15 48 57l99 478c4 17 8 34 8 45c0 22 -18 16 -57 -7l-10 -6l-21 29c54 55 122 109 190 109c40 0 53 -27 53 -58c0 -20 -6 -55 -12 -78h4c53 65 127 136 209 136c78 0 124 -63 124 -164c0 -209 -146 -381 -325 -381c-39 0 -67 5 -88 15
c0 0 -2 -27 -8 -54l-12 -64c-9 -45 -8 -50 23 -57l37 -8l-6 -38h-293zM282 38c96 0 161 174 161 332c0 44 -17 63 -45 63c-46 0 -106 -58 -139 -99l-54 -254c14 -22 38 -42 77 -42z" />
    <glyph glyph-name="q" unicode="q" horiz-adv-x="595" 
d="M194 -219l8 38l38 9c32 7 37 11 47 56l25 118c9 42 20 77 30 103h-5c-46 -57 -115 -118 -194 -118c-82 0 -129 56 -129 148c0 213 180 397 347 397c65 0 100 -16 136 -41h4l67 46l24 -10s-22 -48 -45 -156l-105 -487c-9 -44 -5 -51 25 -58l30 -7l-9 -38h-294zM217 77
c46 0 99 56 133 99l58 267c-8 18 -25 38 -58 38c-89 0 -181 -177 -181 -336c0 -49 19 -68 48 -68z" />
    <glyph glyph-name="r" unicode="r" horiz-adv-x="495" 
d="M33 0l80 370c3 14 6 28 6 37c0 21 -15 18 -57 -7l-10 -6l-21 29c54 55 123 109 184 109c43 0 57 -28 57 -59c0 -24 -12 -84 -19 -111h5c50 83 114 170 186 170c37 0 68 -24 68 -68c0 -50 -33 -76 -70 -76c-41 0 -48 30 -70 30c-29 0 -83 -70 -124 -142l-62 -276h-153z
" />
    <glyph glyph-name="s" unicode="s" horiz-adv-x="451" 
d="M180 -12c-129 0 -185 54 -185 105c0 39 27 61 70 61c41 0 57 -23 72 -76c7 -27 15 -40 56 -40c53 0 85 25 85 62c0 35 -23 64 -94 107c-77 48 -122 94 -122 160c0 103 102 165 210 165c121 0 167 -50 167 -99c0 -35 -25 -56 -62 -56c-46 0 -58 26 -69 66
c-7 27 -22 39 -48 39c-47 0 -77 -21 -77 -58c0 -35 19 -57 105 -108c78 -46 115 -96 115 -154c0 -104 -91 -174 -223 -174z" />
    <glyph glyph-name="t" unicode="t" horiz-adv-x="377" 
d="M110 -12c-53 0 -67 34 -67 69c0 23 5 52 11 81l69 311h-72l7 36l80 33l19 84l128 57h36l-29 -140h113l-17 -70h-113l-63 -295c-5 -20 -8 -36 -8 -50c0 -19 11 -28 82 17l29 17l25 -28c-82 -78 -157 -122 -230 -122z" />
    <glyph glyph-name="u" unicode="u" horiz-adv-x="628" 
d="M138 -14c-55 0 -88 39 -88 95c0 22 4 52 11 83l50 208c3 13 6 25 6 34c0 21 -20 20 -57 -6l-9 -6l-23 29c55 57 123 109 187 109c45 0 62 -32 62 -65c0 -26 -4 -50 -12 -86l-46 -200c-17 -71 -11 -89 15 -89c39 0 95 53 135 97l71 330h154l-81 -373c-4 -16 -6 -25 -6 -38
c0 -19 14 -25 52 -1l17 10l22 -29c-48 -45 -125 -102 -191 -102c-45 0 -56 33 -56 62c0 19 8 58 15 81h-4c-64 -70 -134 -143 -224 -143z" />
    <glyph glyph-name="v" unicode="v" horiz-adv-x="520" 
d="M114 0c1 176 -4 299 -11 377c-5 51 -16 53 -61 26l-15 -10l-22 30c54 57 129 109 181 109c36 0 55 -27 61 -100c7 -86 9 -182 4 -310h4c89 96 164 214 164 266c0 38 -29 49 -29 91c0 33 32 55 63 55c44 0 70 -25 70 -72c0 -104 -162 -316 -320 -462h-89z" />
    <glyph glyph-name="w" unicode="w" horiz-adv-x="782" 
d="M117 0c0 174 -7 299 -16 377c-5 50 -17 51 -59 26l-15 -10l-22 30c56 58 124 109 176 109c37 0 52 -26 59 -96c8 -86 17 -177 14 -303h4c49 61 108 143 142 199c-1 21 -3 38 -4 55c-3 39 -15 45 -49 22l-13 -8l-24 30c42 44 107 101 158 101c38 0 54 -26 59 -94
c6 -79 10 -184 3 -309h4c86 101 148 205 148 259c0 37 -30 49 -30 90c0 34 30 55 65 55c40 0 68 -24 68 -70c0 -99 -163 -322 -304 -463h-80c2 103 6 190 4 255h-3c-53 -78 -132 -182 -196 -255h-89z" />
    <glyph glyph-name="x" unicode="x" horiz-adv-x="559" 
d="M45 -13c-39 0 -61 24 -61 61c0 42 27 60 57 60c37 0 60 -22 82 2c26 29 52 75 81 147c-12 52 -21 79 -35 123c-16 48 -26 52 -72 23l-15 -10l-22 30c53 58 130 109 180 109c37 0 46 -27 59 -85c8 -36 20 -84 29 -137h3c26 63 61 137 87 169c33 40 61 53 98 53
c34 0 56 -19 56 -58c0 -37 -23 -62 -55 -62c-43 0 -50 26 -80 -5c-29 -30 -53 -79 -79 -145c14 -57 24 -92 34 -125c18 -56 27 -57 72 -30l21 14l23 -32c-49 -48 -121 -100 -178 -100c-42 0 -54 32 -71 93c-11 41 -18 78 -25 125h-3c-24 -66 -66 -139 -93 -169
c-24 -30 -56 -51 -93 -51z" />
    <glyph glyph-name="y" unicode="y" horiz-adv-x="536" 
d="M-17 -228c-53 0 -84 27 -84 69c0 38 25 60 57 60c55 0 57 -44 96 -44c33 0 73 26 130 87c-21 204 -43 355 -62 430c-15 56 -31 53 -68 27l-15 -9l-23 31c54 57 124 109 175 109c34 0 55 -18 68 -77c21 -99 37 -226 46 -357h4c70 98 134 214 134 283c0 39 -33 53 -33 98
c0 33 26 54 59 54c40 0 72 -24 72 -74c0 -90 -95 -266 -216 -425c-113 -149 -234 -262 -340 -262z" />
    <glyph glyph-name="z" unicode="z" horiz-adv-x="480" 
d="M278 -17c-79 0 -122 89 -187 89c-22 0 -39 -21 -54 -86h-15l-59 43v15c41 26 70 49 116 92l255 245c-82 4 -139 40 -210 40c-12 0 -18 -8 -18 -14c0 -22 52 -18 52 -61c0 -26 -18 -48 -52 -48c-39 0 -57 36 -57 69c0 54 88 166 173 166c83 0 132 -87 178 -87
c18 0 31 20 44 85h16l61 -40v-16c-38 -24 -63 -41 -114 -91l-243 -238c77 -4 126 -32 176 -32c26 0 44 14 81 65l29 -17c-59 -112 -104 -179 -172 -179z" />
    <glyph glyph-name="braceleft" unicode="{" horiz-adv-x="357" 
d="M272 -131c-173 29 -224 51 -224 121c0 66 87 198 87 246c0 29 -25 46 -103 59l9 49c107 5 126 30 126 73c0 42 -21 133 -21 183c0 90 57 128 271 134l-7 -42c-98 -12 -131 -16 -134 -94c-2 -49 -1 -114 -4 -166c-2 -56 -33 -95 -164 -116v-4c88 -21 124 -48 124 -96
c0 -53 -58 -187 -58 -241c0 -30 26 -47 106 -64z" />
    <glyph glyph-name="bar" unicode="|" horiz-adv-x="272" 
d="M120 -130v864h64v-864h-64z" />
    <glyph glyph-name="braceright" unicode="}" horiz-adv-x="357" 
d="M-40 -131l7 43c97 11 130 18 132 90c2 49 2 120 4 172c2 57 33 93 165 114v4c-88 21 -125 50 -125 98c0 54 58 184 58 239c0 29 -25 46 -105 64l8 41c172 -29 224 -51 224 -121c0 -66 -88 -194 -88 -243c0 -29 26 -46 102 -59l-8 -49c-108 -4 -124 -30 -124 -72
c0 -43 18 -137 18 -186c0 -91 -55 -128 -268 -135z" />
    <glyph glyph-name="asciitilde" unicode="~" horiz-adv-x="410" 
d="M62 227l-29 17c35 72 63 117 109 117c48 0 110 -35 147 -35c23 0 42 15 64 46l33 -17c-38 -72 -62 -117 -113 -117c-48 0 -107 35 -147 35c-20 0 -41 -15 -64 -46z" />
    <glyph glyph-name="Adieresis" unicode="&#xc4;" horiz-adv-x="698" 
d="M-41 0l8 40l26 6c31 8 44 18 91 102l312 545h102l88 -549c13 -74 22 -92 48 -99l21 -5l-7 -40h-315l8 40l29 7c34 8 47 21 47 44c0 21 -3 39 -7 68l-7 50h-214l-27 -51c-16 -30 -33 -59 -33 -77c0 -19 8 -28 32 -34l29 -7l-8 -40h-223zM354 515l-135 -251h176l-36 251h-5
zM345 748c-45 0 -82 32 -82 78s39 80 84 80c43 0 82 -32 82 -78c0 -45 -40 -80 -84 -80zM580 748c-45 0 -82 32 -82 78s39 80 84 80c44 0 81 -32 81 -78c0 -45 -39 -80 -83 -80z" />
    <glyph glyph-name="Aring" unicode="&#xc5;" horiz-adv-x="698" 
d="M-41 0l8 40l26 6c31 8 44 18 91 102l312 545h102l88 -549c13 -74 22 -92 48 -99l21 -5l-7 -40h-315l8 40l29 7c34 8 47 21 47 44c0 21 -3 39 -7 68l-7 50h-214l-27 -51c-16 -30 -33 -59 -33 -77c0 -19 8 -28 32 -34l29 -7l-8 -40h-223zM354 515l-135 -251h176l-36 251h-5
zM457 736c-69 0 -116 46 -116 107c0 62 52 109 116 109s115 -45 115 -109c0 -61 -51 -107 -115 -107zM457 781c35 0 57 26 57 62s-22 63 -57 63s-58 -27 -58 -63s22 -62 58 -62z" />
    <glyph glyph-name="Ccedilla" unicode="&#xc7;" horiz-adv-x="643" 
d="M126 -262l4 31c101 19 136 44 136 75c0 19 -13 35 -61 37l-5 14l61 104c-131 31 -216 130 -216 276c0 272 217 430 429 430c76 0 141 -13 181 -30l-18 -200h-43c-14 51 -31 104 -47 135c-19 32 -40 44 -89 44c-161 0 -236 -263 -236 -449c0 -111 45 -166 133 -166
c56 0 84 16 118 57c26 29 57 78 89 132h42l-50 -208c-42 -18 -113 -32 -199 -32c-17 0 -33 1 -48 3l-37 -44c75 -8 94 -48 94 -80c0 -67 -90 -119 -238 -129z" />
    <glyph glyph-name="Eacute" unicode="&#xc9;" horiz-adv-x="649" 
d="M-20 0l7 40l36 7c32 8 41 13 52 72l82 455c11 57 5 64 -26 72l-34 8l8 39h544l-12 -200h-42c-17 56 -28 84 -40 106c-21 34 -47 40 -117 40c-51 0 -77 -5 -96 -9l-43 -243h21c64 0 84 4 101 26c15 19 24 40 38 72h43l-45 -256h-42c-2 32 -5 53 -14 74
c-9 23 -27 29 -92 29h-20l-33 -188c-14 -73 -5 -90 84 -90c87 0 114 13 148 52c25 29 50 66 87 130h46l-60 -236h-581zM336 745l-13 25l149 114c19 15 35 24 54 24c31 0 52 -29 52 -58c0 -24 -14 -48 -47 -56z" />
    <glyph glyph-name="Ntilde" unicode="&#xd1;" horiz-adv-x="719" 
d="M498 -2l-268 594h-5l-83 -458c-12 -66 -2 -79 37 -88l30 -6l-7 -40h-222l7 40l30 6c39 8 50 25 62 93l79 435c10 57 5 64 -27 72l-33 8l8 39h262l189 -420h4l52 287c13 67 6 79 -33 87l-35 7l8 39h221l-8 -39l-30 -7c-36 -9 -47 -21 -60 -96l-102 -553h-76zM326 753
l-38 18c37 88 70 141 118 141c54 0 120 -43 157 -43c27 0 43 26 67 63l37 -17c-36 -88 -65 -141 -115 -141c-54 0 -122 43 -159 43c-27 0 -43 -27 -67 -64z" />
    <glyph glyph-name="Odieresis" unicode="&#xd6;" horiz-adv-x="744" 
d="M335 -13c-160 0 -291 109 -291 284c0 256 199 434 398 434c158 0 289 -104 289 -286c0 -261 -197 -432 -396 -432zM340 41c135 0 215 235 215 434c0 113 -32 176 -117 176c-138 0 -217 -244 -217 -435c0 -111 29 -175 119 -175zM351 748c-45 0 -82 32 -82 78s39 80 84 80
c43 0 82 -32 82 -78c0 -45 -40 -80 -84 -80zM586 748c-45 0 -82 32 -82 78s39 80 84 80c44 0 81 -32 81 -78c0 -45 -39 -80 -83 -80z" />
    <glyph glyph-name="Udieresis" unicode="&#xdc;" horiz-adv-x="721" 
d="M358 -13c-183 0 -301 75 -265 269l58 318c10 57 5 64 -26 72l-34 8l8 39h324l-8 -39l-37 -8c-33 -8 -40 -12 -51 -72l-63 -349c-20 -110 13 -170 129 -170c103 0 145 48 164 151l64 354c13 69 4 79 -36 87l-33 7l8 39h223l-8 -39l-31 -7c-31 -7 -46 -18 -60 -90l-67 -364
c-21 -118 -99 -206 -259 -206zM377 748c-45 0 -82 32 -82 78s39 80 84 80c43 0 82 -32 82 -78c0 -45 -40 -80 -84 -80zM612 748c-45 0 -82 32 -82 78s39 80 84 80c44 0 81 -32 81 -78c0 -45 -39 -80 -83 -80z" />
    <glyph glyph-name="aacute" unicode="&#xe1;" horiz-adv-x="605" 
d="M140 -13c-82 0 -124 57 -124 137c0 222 180 408 339 408c67 0 95 -15 130 -40h4l67 45l24 -10s-21 -46 -45 -156l-48 -225c-3 -14 -5 -24 -5 -35c0 -20 15 -27 50 -5l19 11l22 -29c-48 -45 -119 -99 -189 -99c-52 0 -59 38 -59 62c0 15 4 38 7 54h-4
c-45 -60 -110 -118 -188 -118zM215 79c43 0 93 54 127 97l59 266c-8 19 -21 39 -55 39c-81 0 -174 -171 -174 -341c0 -42 15 -61 43 -61zM292 592l-13 25l149 114c19 15 35 24 54 24c31 0 52 -29 52 -58c0 -24 -14 -48 -47 -56z" />
    <glyph glyph-name="agrave" unicode="&#xe0;" horiz-adv-x="605" 
d="M140 -13c-82 0 -124 57 -124 137c0 222 180 408 339 408c67 0 95 -15 130 -40h4l67 45l24 -10s-21 -46 -45 -156l-48 -225c-3 -14 -5 -24 -5 -35c0 -20 15 -27 50 -5l19 11l22 -29c-48 -45 -119 -99 -189 -99c-52 0 -59 38 -59 62c0 15 4 38 7 54h-4
c-45 -60 -110 -118 -188 -118zM215 79c43 0 93 54 127 97l59 266c-8 19 -21 39 -55 39c-81 0 -174 -171 -174 -341c0 -42 15 -61 43 -61zM483 590l-195 49c-36 9 -48 32 -48 54c0 30 24 61 55 61c19 0 35 -8 55 -23l147 -112z" />
    <glyph glyph-name="acircumflex" unicode="&#xe2;" horiz-adv-x="605" 
d="M140 -13c-82 0 -124 57 -124 137c0 222 180 408 339 408c67 0 95 -15 130 -40h4l67 45l24 -10s-21 -46 -45 -156l-48 -225c-3 -14 -5 -24 -5 -35c0 -20 15 -27 50 -5l19 11l22 -29c-48 -45 -119 -99 -189 -99c-52 0 -59 38 -59 62c0 15 4 38 7 54h-4
c-45 -60 -110 -118 -188 -118zM215 79c43 0 93 54 127 97l59 266c-8 19 -21 39 -55 39c-81 0 -174 -171 -174 -341c0 -42 15 -61 43 -61zM220 581l-17 27l159 161h62l104 -163l-22 -25l-125 84z" />
    <glyph glyph-name="adieresis" unicode="&#xe4;" horiz-adv-x="605" 
d="M140 -13c-82 0 -124 57 -124 137c0 222 180 408 339 408c67 0 95 -15 130 -40h4l67 45l24 -10s-21 -46 -45 -156l-48 -225c-3 -14 -5 -24 -5 -35c0 -20 15 -27 50 -5l19 11l22 -29c-48 -45 -119 -99 -189 -99c-52 0 -59 38 -59 62c0 15 4 38 7 54h-4
c-45 -60 -110 -118 -188 -118zM215 79c43 0 93 54 127 97l59 266c-8 19 -21 39 -55 39c-81 0 -174 -171 -174 -341c0 -42 15 -61 43 -61zM269 598c-45 0 -82 32 -82 78s39 80 84 80c43 0 82 -32 82 -78c0 -45 -40 -80 -84 -80zM489 598c-45 0 -82 32 -82 78s39 80 84 80
c44 0 81 -32 81 -78c0 -45 -39 -80 -83 -80z" />
    <glyph glyph-name="atilde" unicode="&#xe3;" horiz-adv-x="605" 
d="M140 -13c-82 0 -124 57 -124 137c0 222 180 408 339 408c67 0 95 -15 130 -40h4l67 45l24 -10s-21 -46 -45 -156l-48 -225c-3 -14 -5 -24 -5 -35c0 -20 15 -27 50 -5l19 11l22 -29c-48 -45 -119 -99 -189 -99c-52 0 -59 38 -59 62c0 15 4 38 7 54h-4
c-45 -60 -110 -118 -188 -118zM215 79c43 0 93 54 127 97l59 266c-8 19 -21 39 -55 39c-81 0 -174 -171 -174 -341c0 -42 15 -61 43 -61zM230 584l-38 18c37 88 70 141 118 141c54 0 110 -39 147 -39c27 0 43 26 67 63l37 -17c-36 -88 -65 -141 -115 -141
c-54 0 -112 39 -149 39c-27 0 -43 -27 -67 -64z" />
    <glyph glyph-name="aring" unicode="&#xe5;" horiz-adv-x="605" 
d="M140 -13c-82 0 -124 57 -124 137c0 222 180 408 339 408c67 0 95 -15 130 -40h4l67 45l24 -10s-21 -46 -45 -156l-48 -225c-3 -14 -5 -24 -5 -35c0 -20 15 -27 50 -5l19 11l22 -29c-48 -45 -119 -99 -189 -99c-52 0 -59 38 -59 62c0 15 4 38 7 54h-4
c-45 -60 -110 -118 -188 -118zM215 79c43 0 93 54 127 97l59 266c-8 19 -21 39 -55 39c-81 0 -174 -171 -174 -341c0 -42 15 -61 43 -61zM386 592c-69 0 -116 46 -116 107c0 62 52 109 116 109s115 -45 115 -109c0 -61 -51 -107 -115 -107zM386 637c35 0 57 26 57 62
s-22 63 -57 63s-58 -27 -58 -63s22 -62 58 -62z" />
    <glyph glyph-name="ccedilla" unicode="&#xe7;" horiz-adv-x="493" 
d="M-11 -262l4 31c101 19 136 44 136 75c0 19 -13 35 -61 37l-5 14l60 103c-67 22 -102 81 -102 153c0 221 180 381 333 381c100 0 150 -47 150 -96c0 -44 -25 -67 -70 -67s-64 25 -69 80c-2 29 -8 33 -30 33c-78 0 -160 -155 -160 -306c0 -70 24 -108 80 -108
c57 0 103 38 153 84l30 -31c-44 -60 -122 -134 -246 -134c-9 0 -17 0 -24 1l-35 -41c75 -8 94 -48 94 -80c0 -67 -90 -119 -238 -129z" />
    <glyph glyph-name="eacute" unicode="&#xe9;" horiz-adv-x="502" 
d="M194 -13c-115 0 -173 70 -173 166c0 217 191 380 344 380c83 0 140 -39 140 -109c0 -99 -145 -166 -330 -220v-26c0 -69 27 -111 84 -111c55 0 103 39 152 82l30 -30c-44 -55 -122 -132 -247 -132zM338 484c-54 0 -133 -97 -156 -230c63 21 107 43 137 70
c31 29 53 68 53 113c0 29 -13 47 -34 47zM274 592l-13 25l149 114c19 15 35 24 54 24c31 0 52 -29 52 -58c0 -24 -14 -48 -47 -56z" />
    <glyph glyph-name="egrave" unicode="&#xe8;" horiz-adv-x="502" 
d="M194 -13c-115 0 -173 70 -173 166c0 217 191 380 344 380c83 0 140 -39 140 -109c0 -99 -145 -166 -330 -220v-26c0 -69 27 -111 84 -111c55 0 103 39 152 82l30 -30c-44 -55 -122 -132 -247 -132zM338 484c-54 0 -133 -97 -156 -230c63 21 107 43 137 70
c31 29 53 68 53 113c0 29 -13 47 -34 47zM445 590l-195 49c-36 9 -48 32 -48 54c0 30 24 61 55 61c19 0 35 -8 55 -23l147 -112z" />
    <glyph glyph-name="ecircumflex" unicode="&#xea;" horiz-adv-x="502" 
d="M194 -13c-115 0 -173 70 -173 166c0 217 191 380 344 380c83 0 140 -39 140 -109c0 -99 -145 -166 -330 -220v-26c0 -69 27 -111 84 -111c55 0 103 39 152 82l30 -30c-44 -55 -122 -132 -247 -132zM338 484c-54 0 -133 -97 -156 -230c63 21 107 43 137 70
c31 29 53 68 53 113c0 29 -13 47 -34 47zM201 581l-17 27l159 161h62l104 -163l-22 -25l-125 84z" />
    <glyph glyph-name="edieresis" unicode="&#xeb;" horiz-adv-x="502" 
d="M194 -13c-115 0 -173 70 -173 166c0 217 191 380 344 380c83 0 140 -39 140 -109c0 -99 -145 -166 -330 -220v-26c0 -69 27 -111 84 -111c55 0 103 39 152 82l30 -30c-44 -55 -122 -132 -247 -132zM338 484c-54 0 -133 -97 -156 -230c63 21 107 43 137 70
c31 29 53 68 53 113c0 29 -13 47 -34 47zM251 598c-45 0 -82 32 -82 78s39 80 84 80c43 0 82 -32 82 -78c0 -45 -40 -80 -84 -80zM471 598c-45 0 -82 32 -82 78s39 80 84 80c44 0 81 -32 81 -78c0 -45 -39 -80 -83 -80z" />
    <glyph glyph-name="iacute" unicode="&#xed;" horiz-adv-x="321" 
d="M101 -11c-46 0 -64 33 -64 62s7 60 15 92l61 227c4 15 6 27 6 36c0 21 -22 14 -56 -6l-11 -7l-22 29c55 56 129 110 193 110c44 0 60 -30 60 -61c0 -26 -6 -63 -20 -112l-57 -213c-3 -12 -6 -25 -6 -37c0 -20 16 -25 52 -3l20 12l22 -29c-49 -46 -122 -100 -193 -100z
M143 592l-13 25l149 114c19 15 35 24 54 24c31 0 52 -29 52 -58c0 -24 -14 -48 -47 -56z" />
    <glyph glyph-name="igrave" unicode="&#xec;" horiz-adv-x="321" 
d="M101 -11c-46 0 -64 33 -64 62s7 60 15 92l61 227c4 15 6 27 6 36c0 21 -22 14 -56 -6l-11 -7l-22 29c55 56 129 110 193 110c44 0 60 -30 60 -61c0 -26 -6 -63 -20 -112l-57 -213c-3 -12 -6 -25 -6 -37c0 -20 16 -25 52 -3l20 12l22 -29c-49 -46 -122 -100 -193 -100z
M314 590l-195 49c-36 9 -48 32 -48 54c0 30 24 61 55 61c19 0 35 -8 55 -23l147 -112z" />
    <glyph glyph-name="icircumflex" unicode="&#xee;" horiz-adv-x="321" 
d="M101 -11c-46 0 -64 33 -64 62s7 60 15 92l61 227c4 15 6 27 6 36c0 21 -22 14 -56 -6l-11 -7l-22 29c55 56 129 110 193 110c44 0 60 -30 60 -61c0 -26 -6 -63 -20 -112l-57 -213c-3 -12 -6 -25 -6 -37c0 -20 16 -25 52 -3l20 12l22 -29c-49 -46 -122 -100 -193 -100z
M70 581l-17 27l159 161h62l104 -163l-22 -25l-125 84z" />
    <glyph glyph-name="idieresis" unicode="&#xef;" horiz-adv-x="321" 
d="M101 -11c-46 0 -64 33 -64 62s7 60 15 92l61 227c4 15 6 27 6 36c0 21 -22 14 -56 -6l-11 -7l-22 29c55 56 129 110 193 110c44 0 60 -30 60 -61c0 -26 -6 -63 -20 -112l-57 -213c-3 -12 -6 -25 -6 -37c0 -20 16 -25 52 -3l20 12l22 -29c-49 -46 -122 -100 -193 -100z
M120 598c-45 0 -82 32 -82 78s39 80 84 80c43 0 82 -32 82 -78c0 -45 -40 -80 -84 -80zM340 598c-45 0 -82 32 -82 78s39 80 84 80c44 0 81 -32 81 -78c0 -45 -39 -80 -83 -80z" />
    <glyph glyph-name="ntilde" unicode="&#xf1;" horiz-adv-x="631" 
d="M413 -11c-46 0 -61 33 -61 62c0 26 6 56 13 87l46 199c16 71 12 90 -13 90c-42 0 -102 -55 -140 -100l-72 -327h-153l80 370c3 13 6 30 6 38c0 20 -15 16 -57 -8l-10 -6l-21 29c54 55 121 109 184 109c43 0 57 -26 57 -57c0 -19 -7 -63 -12 -85h5c63 71 139 142 227 142
c55 0 87 -40 87 -92c0 -22 -3 -52 -11 -85l-50 -210c-3 -15 -5 -24 -5 -35c0 -20 12 -30 51 -4l17 11l24 -29c-50 -45 -120 -99 -192 -99zM240 584l-38 18c37 88 70 141 118 141c54 0 110 -39 147 -39c27 0 43 26 67 63l37 -17c-36 -88 -65 -141 -115 -141
c-54 0 -112 39 -149 39c-27 0 -43 -27 -67 -64z" />
    <glyph glyph-name="oacute" unicode="&#xf3;" horiz-adv-x="573" 
d="M244 -13c-145 0 -221 94 -221 209c0 211 161 337 306 337c143 0 220 -94 220 -208c0 -213 -159 -338 -305 -338zM244 38c99 0 155 205 155 333c0 72 -26 111 -72 111c-98 0 -154 -203 -154 -329c0 -75 25 -115 71 -115zM267 592l-13 25l149 114c19 15 35 24 54 24
c31 0 52 -29 52 -58c0 -24 -14 -48 -47 -56z" />
    <glyph glyph-name="ograve" unicode="&#xf2;" horiz-adv-x="573" 
d="M244 -13c-145 0 -221 94 -221 209c0 211 161 337 306 337c143 0 220 -94 220 -208c0 -213 -159 -338 -305 -338zM244 38c99 0 155 205 155 333c0 72 -26 111 -72 111c-98 0 -154 -203 -154 -329c0 -75 25 -115 71 -115zM438 590l-195 49c-36 9 -48 32 -48 54
c0 30 24 61 55 61c19 0 35 -8 55 -23l147 -112z" />
    <glyph glyph-name="ocircumflex" unicode="&#xf4;" horiz-adv-x="573" 
d="M244 -13c-145 0 -221 94 -221 209c0 211 161 337 306 337c143 0 220 -94 220 -208c0 -213 -159 -338 -305 -338zM244 38c99 0 155 205 155 333c0 72 -26 111 -72 111c-98 0 -154 -203 -154 -329c0 -75 25 -115 71 -115zM194 581l-17 27l159 161h62l104 -163l-22 -25
l-125 84z" />
    <glyph glyph-name="odieresis" unicode="&#xf6;" horiz-adv-x="573" 
d="M244 -13c-145 0 -221 94 -221 209c0 211 161 337 306 337c143 0 220 -94 220 -208c0 -213 -159 -338 -305 -338zM244 38c99 0 155 205 155 333c0 72 -26 111 -72 111c-98 0 -154 -203 -154 -329c0 -75 25 -115 71 -115zM244 598c-45 0 -82 32 -82 78s39 80 84 80
c43 0 82 -32 82 -78c0 -45 -40 -80 -84 -80zM464 598c-45 0 -82 32 -82 78s39 80 84 80c44 0 81 -32 81 -78c0 -45 -39 -80 -83 -80z" />
    <glyph glyph-name="otilde" unicode="&#xf5;" horiz-adv-x="573" 
d="M244 -13c-145 0 -221 94 -221 209c0 211 161 337 306 337c143 0 220 -94 220 -208c0 -213 -159 -338 -305 -338zM244 38c99 0 155 205 155 333c0 72 -26 111 -72 111c-98 0 -154 -203 -154 -329c0 -75 25 -115 71 -115zM204 584l-38 18c37 88 70 141 118 141
c54 0 110 -39 147 -39c27 0 43 26 67 63l37 -17c-36 -88 -65 -141 -115 -141c-54 0 -112 39 -149 39c-27 0 -43 -27 -67 -64z" />
    <glyph glyph-name="uacute" unicode="&#xfa;" horiz-adv-x="628" 
d="M138 -14c-55 0 -88 39 -88 95c0 22 4 52 11 83l50 208c3 13 6 25 6 34c0 21 -20 20 -57 -6l-9 -6l-23 29c55 57 123 109 187 109c45 0 62 -32 62 -65c0 -26 -4 -50 -12 -86l-46 -200c-17 -71 -11 -89 15 -89c39 0 95 53 135 97l71 330h154l-81 -373c-4 -16 -6 -25 -6 -38
c0 -19 14 -25 52 -1l17 10l22 -29c-48 -45 -125 -102 -191 -102c-45 0 -56 33 -56 62c0 19 8 58 15 81h-4c-64 -70 -134 -143 -224 -143zM298 592l-13 25l149 114c19 15 35 24 54 24c31 0 52 -29 52 -58c0 -24 -14 -48 -47 -56z" />
    <glyph glyph-name="ugrave" unicode="&#xf9;" horiz-adv-x="628" 
d="M138 -14c-55 0 -88 39 -88 95c0 22 4 52 11 83l50 208c3 13 6 25 6 34c0 21 -20 20 -57 -6l-9 -6l-23 29c55 57 123 109 187 109c45 0 62 -32 62 -65c0 -26 -4 -50 -12 -86l-46 -200c-17 -71 -11 -89 15 -89c39 0 95 53 135 97l71 330h154l-81 -373c-4 -16 -6 -25 -6 -38
c0 -19 14 -25 52 -1l17 10l22 -29c-48 -45 -125 -102 -191 -102c-45 0 -56 33 -56 62c0 19 8 58 15 81h-4c-64 -70 -134 -143 -224 -143zM469 590l-195 49c-36 9 -48 32 -48 54c0 30 24 61 55 61c19 0 35 -8 55 -23l147 -112z" />
    <glyph glyph-name="ucircumflex" unicode="&#xfb;" horiz-adv-x="628" 
d="M138 -14c-55 0 -88 39 -88 95c0 22 4 52 11 83l50 208c3 13 6 25 6 34c0 21 -20 20 -57 -6l-9 -6l-23 29c55 57 123 109 187 109c45 0 62 -32 62 -65c0 -26 -4 -50 -12 -86l-46 -200c-17 -71 -11 -89 15 -89c39 0 95 53 135 97l71 330h154l-81 -373c-4 -16 -6 -25 -6 -38
c0 -19 14 -25 52 -1l17 10l22 -29c-48 -45 -125 -102 -191 -102c-45 0 -56 33 -56 62c0 19 8 58 15 81h-4c-64 -70 -134 -143 -224 -143zM225 581l-17 27l159 161h62l104 -163l-22 -25l-125 84z" />
    <glyph glyph-name="udieresis" unicode="&#xfc;" horiz-adv-x="628" 
d="M138 -14c-55 0 -88 39 -88 95c0 22 4 52 11 83l50 208c3 13 6 25 6 34c0 21 -20 20 -57 -6l-9 -6l-23 29c55 57 123 109 187 109c45 0 62 -32 62 -65c0 -26 -4 -50 -12 -86l-46 -200c-17 -71 -11 -89 15 -89c39 0 95 53 135 97l71 330h154l-81 -373c-4 -16 -6 -25 -6 -38
c0 -19 14 -25 52 -1l17 10l22 -29c-48 -45 -125 -102 -191 -102c-45 0 -56 33 -56 62c0 19 8 58 15 81h-4c-64 -70 -134 -143 -224 -143zM275 598c-45 0 -82 32 -82 78s39 80 84 80c43 0 82 -32 82 -78c0 -45 -40 -80 -84 -80zM495 598c-45 0 -82 32 -82 78s39 80 84 80
c44 0 81 -32 81 -78c0 -45 -39 -80 -83 -80z" />
    <glyph glyph-name="dagger" unicode="&#x2020;" horiz-adv-x="433" 
d="M136 -67l30 435c30 28 60 69 68 105c-50 -4 -78 -28 -112 -28c-38 0 -60 27 -60 58c0 33 26 60 60 60c43 0 66 -40 118 -51c1 59 -25 98 -25 130c0 31 26 59 70 59c36 0 63 -27 63 -57c0 -46 -55 -82 -68 -135c46 4 80 30 115 30c36 0 58 -27 58 -57
c0 -34 -24 -61 -60 -61c-41 0 -68 38 -119 49c-4 -39 10 -83 27 -112l-125 -425h-40z" />
    <glyph glyph-name="degree" unicode="&#xb0;" horiz-adv-x="378" 
d="M243 412c-84 0 -146 68 -146 146c0 77 63 147 148 147c84 0 148 -68 148 -144c0 -79 -65 -149 -150 -149zM244 464c53 0 89 44 89 96c0 51 -35 94 -88 94s-88 -43 -88 -94c0 -52 33 -96 87 -96z" />
    <glyph glyph-name="cent" unicode="&#xa2;" horiz-adv-x="515" 
d="M206 -146l24 135c-10 -1 -19 -2 -29 -2c-104 0 -179 65 -179 169c0 199 161 349 304 373l14 79h55l-14 -77c99 -4 148 -47 148 -92c0 -43 -22 -66 -62 -66c-41 0 -59 14 -64 69c-2 24 -9 37 -30 42l-74 -418c47 13 91 47 128 85l31 -30c-34 -41 -89 -97 -171 -121
l-25 -146h-56zM170 182c0 -75 26 -113 73 -120l74 418c-73 -29 -147 -167 -147 -298z" />
    <glyph glyph-name="sterling" unicode="&#xa3;" horiz-adv-x="559" 
d="M50 331l11 57h57c-5 28 -9 57 -9 87c0 130 97 230 275 230c116 0 185 -42 185 -106c0 -51 -24 -73 -72 -73c-57 0 -71 30 -77 88c-4 33 -9 42 -35 42c-52 0 -95 -36 -105 -109c-7 -45 -9 -105 -12 -159h169l-10 -57h-164c-1 -4 -1 -8 -1 -12c-11 -84 -65 -151 -149 -196
v-6h272c39 0 56 8 95 79h37l-45 -196h-490l16 88c84 47 135 101 137 182c0 19 -2 40 -6 61h-79z" />
    <glyph glyph-name="section" unicode="&#xa7;" horiz-adv-x="601" 
d="M197 -205c-125 0 -175 51 -175 104c0 37 26 59 63 59c48 0 64 -19 73 -69c8 -36 15 -47 56 -47c55 0 83 34 83 70c0 49 -31 83 -128 173c-81 76 -133 130 -133 209c0 83 64 148 157 176c-5 15 -7 30 -7 48c0 105 93 183 215 183c103 0 161 -38 161 -98
c0 -31 -22 -52 -57 -52c-42 0 -63 11 -71 63c-4 30 -14 42 -45 42c-56 0 -87 -34 -87 -75c0 -43 22 -74 123 -168c88 -84 139 -136 139 -212c0 -83 -55 -143 -155 -175c6 -15 8 -33 8 -52c0 -84 -84 -179 -220 -179zM152 358c0 -41 19 -68 116 -163c51 -50 93 -89 119 -128
c33 14 57 39 57 72c0 40 -18 66 -117 164c-51 48 -89 87 -113 125c-33 -10 -62 -35 -62 -70z" />
    <glyph glyph-name="bullet" unicode="&#x2022;" horiz-adv-x="438" 
d="M224 171c-91 0 -164 74 -164 161c0 94 74 167 168 167c88 0 164 -70 164 -162c0 -90 -79 -166 -168 -166z" />
    <glyph glyph-name="paragraph" unicode="&#xb6;" horiz-adv-x="596" 
d="M200 -100l79 437c-7 -1 -21 -4 -35 -4c-114 0 -171 69 -173 157c0 117 82 203 227 203h351l-8 -39l-37 -8c-31 -7 -41 -15 -51 -75l-122 -671h-66l134 740h-100l-133 -740h-66z" />
    <glyph glyph-name="germandbls" unicode="&#xdf;" horiz-adv-x="665" 
d="M-51 -224c-69 0 -103 31 -103 71c0 34 23 52 56 52s51 -13 60 -59c3 -14 6 -19 14 -19c25 0 46 16 68 163l72 465h-70l7 36l75 33l1 6c26 166 161 247 306 247c115 0 199 -53 199 -130c0 -122 -198 -176 -198 -226c0 -54 198 -123 198 -250c0 -99 -84 -176 -203 -176
c-103 0 -154 36 -154 86c0 36 21 57 58 57c38 0 51 -13 60 -57c6 -24 15 -37 48 -37c44 0 66 28 66 58c0 94 -171 140 -171 248c0 110 155 174 155 298c0 51 -22 78 -71 78c-55 0 -114 -24 -134 -149l-74 -446c-42 -246 -146 -349 -265 -349z" />
    <glyph glyph-name="registered" unicode="&#xae;" horiz-adv-x="586" 
d="M208 323v28l15 3c9 3 10 5 10 25v138c0 18 -1 19 -10 24l-13 4v28h122c78 0 108 -24 108 -67c0 -33 -16 -53 -45 -63v-4c16 -32 24 -48 39 -68c8 -10 11 -13 23 -17l9 -3v-28h-82c-21 30 -40 66 -53 98h-26v-42c0 -21 1 -22 12 -25l14 -3v-28h-123zM329 187
c-145 0 -255 115 -255 256c0 144 110 258 255 258c146 0 259 -114 259 -258c0 -141 -113 -256 -259 -256zM329 231c122 0 205 96 205 212c0 120 -83 214 -205 214c-121 0 -201 -94 -201 -214c0 -116 80 -212 201 -212zM305 454c3 -1 17 -1 20 -1c25 0 41 12 41 48
c0 31 -11 39 -39 39c-4 0 -19 -1 -22 -2v-84z" />
    <glyph glyph-name="copyright" unicode="&#xa9;" horiz-adv-x="830" 
d="M424 151c-119 0 -200 66 -200 194c0 142 94 203 210 203c49 0 93 -8 119 -15l8 -117h-33c-17 33 -32 56 -47 73c-14 17 -28 21 -53 21c-58 0 -83 -55 -83 -151c0 -125 33 -170 89 -170c26 0 40 5 58 25c12 15 28 46 42 81h33l-9 -122c-29 -11 -77 -22 -134 -22zM421 -16
c-209 0 -368 162 -368 360s159 358 368 358c207 0 369 -160 369 -358s-162 -360 -369 -360zM421 32c182 0 313 141 313 312s-131 310 -313 310c-184 0 -311 -139 -311 -310s127 -312 311 -312z" />
    <glyph glyph-name="trademark" unicode="&#x2122;" horiz-adv-x="922" 
d="M408 339l8 35l27 5c17 4 24 13 29 49l38 191c4 26 0 30 -14 34l-26 6l7 34h175l37 -205h2l101 205h181l-7 -33l-25 -5c-18 -5 -21 -8 -26 -35l-32 -204c-5 -29 -3 -34 11 -37l25 -5l-6 -35h-193l7 35l25 5c17 4 21 8 26 37l38 231h-3l-150 -300h-45l-51 300h-4l-39 -218
c-7 -38 -5 -47 14 -50l25 -5l-6 -35h-149zM117 341l5 33l34 6c18 4 20 8 26 37l44 239h-5c-32 0 -38 -2 -51 -21c-16 -22 -26 -42 -46 -81h-32l30 139h321l-12 -139h-30c-11 37 -17 60 -26 81c-7 15 -17 21 -42 21h-5l-44 -239c-4 -29 -3 -34 15 -37l31 -6l-6 -33h-207z" />
    <glyph glyph-name="acute" unicode="&#xb4;" horiz-adv-x="532" 
d="M211 592l-13 25l149 114c19 15 35 24 54 24c31 0 52 -29 52 -58c0 -24 -14 -48 -47 -56z" />
    <glyph glyph-name="dieresis" unicode="&#xa8;" horiz-adv-x="532" 
d="M236 598c-45 0 -82 32 -82 78s39 80 84 80c43 0 82 -32 82 -78c0 -45 -40 -80 -84 -80zM456 598c-45 0 -82 32 -82 78s39 80 84 80c44 0 81 -32 81 -78c0 -45 -39 -80 -83 -80z" />
    <glyph glyph-name="notequal" unicode="&#x2260;" horiz-adv-x="548" 
d="M55 391v65h259l77 134h67l-77 -134h130v-65h-167l-62 -108h229v-65h-266l-74 -129h-67l74 129h-123v65h160l62 108h-222z" />
    <glyph glyph-name="AE" unicode="&#xc6;" horiz-adv-x="986" 
d="M-41 0l8 40l17 4c36 9 51 19 126 119l362 477l-24 6l-43 8l8 39h573l-12 -200h-41c-18 56 -29 84 -40 106c-21 34 -48 40 -118 40c-51 0 -72 -5 -90 -9l-43 -243h19c64 0 80 4 97 26c15 19 25 40 39 72h42l-45 -256h-41c-3 32 -6 53 -14 74c-9 23 -24 29 -89 29h-18
l-34 -188c-13 -73 -9 -90 79 -90c87 0 114 13 148 52c26 29 51 66 88 130h45l-59 -236h-571l8 40l36 7c31 8 39 13 50 72l14 79h-225l-23 -31c-33 -44 -48 -69 -48 -90c0 -17 9 -25 34 -32l22 -5l-7 -40h-230zM504 589l-251 -335h194l61 335h-4z" />
    <glyph glyph-name="Oslash" unicode="&#xd8;" horiz-adv-x="744" 
d="M51 -64l88 119c-58 49 -95 123 -95 216c0 256 200 434 399 434c55 0 107 -13 152 -38l47 63h65l-69 -93c57 -49 93 -123 93 -218c0 -261 -197 -432 -397 -432c-55 0 -107 13 -151 38l-66 -89h-66zM213 216c0 -22 0 -42 2 -60l329 443c-16 35 -48 52 -106 52
c-138 0 -225 -244 -225 -435zM340 41c135 0 222 235 222 434c0 21 -1 40 -2 57l-329 -442c17 -33 49 -49 109 -49z" />
    <glyph glyph-name="plusminus" unicode="&#xb1;" horiz-adv-x="498" 
d="M56 0v68h406v-68h-406zM221 162v162h-165v68h165v162h77v-162h164v-68h-164v-162h-77z" />
    <glyph glyph-name="lessequal" unicode="&#x2264;" horiz-adv-x="498" 
d="M450 132l-401 166v79l401 166v-78l-327 -127l327 -128v-78zM49 0v68h401v-68h-401z" />
    <glyph glyph-name="greaterequal" unicode="&#x2265;" horiz-adv-x="498" 
d="M449 298l-401 -167v79l327 128l-327 127v78l401 -166v-79zM449 68v-68h-401v68h401z" />
    <glyph glyph-name="yen" unicode="&#xa5;" horiz-adv-x="624" 
d="M56 298l11 57h161l-73 206c-22 63 -33 79 -57 86l-22 7l8 39h317l-9 -39l-28 -7c-31 -7 -45 -22 -45 -47c0 -15 8 -35 17 -64l48 -157h5l106 163c20 31 33 56 33 73c0 15 -6 24 -34 32l-25 7l8 39h220l-7 -39l-25 -6c-32 -8 -48 -31 -94 -98l-136 -195h159l-11 -57h-174
l-16 -89h173l-10 -57h-173l-6 -33c-11 -57 -6 -64 28 -72l36 -7l-8 -40h-333l7 40l39 7c39 8 45 14 55 72l6 33h-178l10 57h178l17 89h-178z" />
    <glyph glyph-name="ordfeminine" unicode="&#xaa;" horiz-adv-x="549" 
d="M158 234c-67 0 -102 48 -102 124c0 185 147 343 290 343c56 0 87 -13 117 -36h3l61 41l19 -9s-18 -44 -39 -134l-46 -197c-2 -11 -3 -18 -3 -26c0 -15 14 -21 46 -1l15 10l21 -28c-40 -36 -105 -86 -165 -86c-46 0 -54 32 -54 53c0 11 2 25 4 36h-3
c-44 -48 -98 -90 -164 -90zM233 316c35 0 73 44 100 76l54 236c-5 12 -21 29 -48 29c-65 0 -145 -143 -145 -287c0 -38 12 -54 39 -54z" />
    <glyph glyph-name="ordmasculine" unicode="&#xba;" horiz-adv-x="530" 
d="M257 235c-125 0 -194 82 -194 181c0 170 137 285 267 285c125 0 193 -83 193 -181c0 -171 -135 -285 -266 -285zM260 281c79 0 127 159 127 296c0 54 -21 80 -61 80c-78 0 -127 -160 -127 -298c0 -52 18 -78 61 -78z" />
    <glyph glyph-name="ae" unicode="&#xe6;" horiz-adv-x="772" 
d="M123 -13c-68 0 -115 42 -115 115c0 97 81 162 308 200l8 45c18 102 2 137 -64 137c-27 0 -39 -6 -42 -31c-8 -59 -28 -79 -72 -79c-38 0 -62 21 -62 55c0 61 83 104 192 104c86 0 143 -27 164 -84c57 53 125 84 191 84c90 0 145 -36 145 -105c0 -96 -174 -175 -328 -201
c-2 -16 -3 -32 -3 -49c0 -69 26 -111 86 -111c54 0 104 38 152 82l31 -30c-48 -58 -124 -132 -248 -132c-88 0 -142 42 -161 107h-4c-37 -48 -96 -107 -178 -107zM609 484c-49 0 -126 -87 -154 -211c66 16 115 40 146 69c25 23 44 52 44 97c0 31 -15 45 -36 45zM297 153
c0 39 4 75 9 102c-125 -27 -158 -58 -158 -127c0 -35 16 -53 45 -53c30 0 71 27 104 67v11z" />
    <glyph glyph-name="oslash" unicode="&#xf8;" horiz-adv-x="573" 
d="M22 -64l71 99c-47 39 -70 98 -70 163c0 211 161 335 306 335c41 0 77 -8 107 -22l50 70h63l-70 -97c47 -39 70 -97 70 -161c0 -213 -159 -336 -305 -336c-42 0 -77 8 -107 21l-52 -72h-63zM162 143v-13l230 321c-13 20 -34 32 -65 32c-98 0 -165 -189 -165 -340zM244 36
c99 0 166 192 166 339v12l-232 -322c12 -18 33 -29 66 -29z" />
    <glyph glyph-name="questiondown" unicode="&#xbf;" horiz-adv-x="465" 
d="M229 -90c-142 0 -232 62 -232 176c0 141 128 205 280 223l14 68h61l-29 -164c-100 -15 -184 -59 -184 -173c0 -56 36 -81 82 -81c25 0 34 7 39 39c10 59 36 77 82 77c47 0 66 -27 66 -64c0 -68 -86 -101 -179 -101zM335 437c-54 0 -95 43 -95 94s41 93 95 93
c53 0 95 -42 95 -93s-42 -94 -95 -94z" />
    <glyph glyph-name="exclamdown" unicode="&#xa1;" horiz-adv-x="296" 
d="M204 432c-54 0 -96 42 -96 93c0 52 42 93 96 93c53 0 94 -41 94 -93c0 -51 -41 -93 -94 -93zM99 -93c-67 0 -118 46 -75 138l132 323h44l2 -345c4 -84 -39 -116 -103 -116z" />
    <glyph glyph-name="florin" unicode="&#x192;" horiz-adv-x="504" 
d="M62 350l16 58h82l13 59c36 165 133 237 262 237c83 0 130 -37 130 -88c0 -38 -23 -57 -61 -57c-42 0 -62 18 -68 69c-3 25 -8 30 -22 30c-30 0 -51 -24 -68 -98l-35 -152h132l-16 -58h-129l-67 -299c-37 -165 -118 -249 -239 -249c-89 0 -118 40 -118 79
c0 35 18 56 58 56c36 0 53 -13 59 -61c2 -24 6 -31 17 -31c20 0 33 19 45 74l94 431h-85z" />
    <glyph glyph-name="approxequal" unicode="&#x2248;" horiz-adv-x="548" 
d="M463 507l55 -26c-30 -66 -62 -111 -129 -111c-62 0 -158 46 -210 46c-33 0 -55 -34 -68 -68l-53 30c22 60 60 106 125 106c61 0 155 -46 210 -46c34 0 53 32 70 69zM463 340l55 -26c-30 -66 -62 -111 -129 -111c-62 0 -158 46 -210 46c-33 0 -55 -34 -68 -68l-53 30
c22 60 60 106 125 106c61 0 155 -46 210 -46c34 0 53 32 70 69z" />
    <glyph glyph-name="guillemotleft" unicode="&#xab;" horiz-adv-x="493" 
d="M164 45l-132 196l5 29l195 190h48l-120 -212l48 -203h-44zM368 45l-132 196l4 29l196 190h48l-120 -212l48 -203h-44z" />
    <glyph glyph-name="guillemotright" unicode="&#xbb;" horiz-adv-x="493" 
d="M9 45l122 212l-48 203h43l133 -196l-4 -29l-196 -190h-50zM215 45l119 212l-47 203h44l131 -196l-4 -29l-195 -190h-48z" />
    <glyph glyph-name="ellipsis" unicode="&#x2026;" horiz-adv-x="907" 
d="M120 -8c-55 0 -99 43 -99 95c0 54 44 97 99 97s98 -43 98 -97c0 -52 -43 -95 -98 -95zM423 -8c-55 0 -99 43 -99 95c0 54 44 97 99 97c54 0 98 -43 98 -97c0 -52 -44 -95 -98 -95zM725 -8c-54 0 -98 43 -98 95c0 54 44 97 98 97c55 0 99 -43 99 -97
c0 -52 -44 -95 -99 -95z" />
    <glyph glyph-name="uni00A0" unicode="&#xa0;" horiz-adv-x="213" 
 />
    <glyph glyph-name="Agrave" unicode="&#xc0;" horiz-adv-x="698" 
d="M-41 0l8 40l26 6c31 8 44 18 91 102l312 545h102l88 -549c13 -74 22 -92 48 -99l21 -5l-7 -40h-315l8 40l29 7c34 8 47 21 47 44c0 21 -3 39 -7 68l-7 50h-214l-27 -51c-16 -30 -33 -59 -33 -77c0 -19 8 -28 32 -34l29 -7l-8 -40h-223zM354 515l-135 -251h176l-36 251h-5
zM556 745l-195 49c-33 8 -47 33 -47 55c0 30 24 60 54 60c20 0 36 -9 54 -23l148 -112z" />
    <glyph glyph-name="Atilde" unicode="&#xc3;" horiz-adv-x="698" 
d="M-41 0l8 40l26 6c31 8 44 18 91 102l312 545h102l88 -549c13 -74 22 -92 48 -99l21 -5l-7 -40h-315l8 40l29 7c34 8 47 21 47 44c0 21 -3 39 -7 68l-7 50h-214l-27 -51c-16 -30 -33 -59 -33 -77c0 -19 8 -28 32 -34l29 -7l-8 -40h-223zM354 515l-135 -251h176l-36 251h-5
zM312 753l-38 18c37 88 70 141 118 141c54 0 120 -43 157 -43c27 0 43 26 67 63l37 -17c-36 -88 -65 -141 -115 -141c-54 0 -122 43 -159 43c-27 0 -43 -27 -67 -64z" />
    <glyph glyph-name="Otilde" unicode="&#xd5;" horiz-adv-x="744" 
d="M335 -13c-160 0 -291 109 -291 284c0 256 199 434 398 434c158 0 289 -104 289 -286c0 -261 -197 -432 -396 -432zM340 41c135 0 215 235 215 434c0 113 -32 176 -117 176c-138 0 -217 -244 -217 -435c0 -111 29 -175 119 -175zM318 753l-38 18c37 88 70 141 118 141
c54 0 120 -43 157 -43c27 0 43 26 67 63l37 -17c-36 -88 -65 -141 -115 -141c-54 0 -122 43 -159 43c-27 0 -43 -27 -67 -64z" />
    <glyph glyph-name="OE" unicode="&#x152;" horiz-adv-x="1019" 
d="M366 0c-195 0 -322 100 -322 276c0 255 199 417 430 417h544l-12 -200h-41c-18 56 -29 84 -40 106c-21 34 -48 40 -118 40c-51 0 -77 -5 -95 -9l-43 -243h20c65 0 84 4 101 26c15 19 25 40 39 72h42l-45 -256h-41c-3 32 -6 53 -15 74c-9 23 -27 29 -92 29h-19l-34 -188
c-13 -73 -5 -90 85 -90c86 0 113 13 147 52c26 29 51 66 88 130h45l-59 -236h-565zM366 50c52 0 70 19 81 79l76 418c13 69 -1 96 -59 96c-171 0 -243 -229 -243 -426c0 -121 55 -167 145 -167z" />
    <glyph glyph-name="oe" unicode="&#x153;" horiz-adv-x="854" 
d="M241 -13c-145 0 -219 96 -219 211c0 211 161 335 304 335c89 0 147 -48 173 -118c61 74 143 118 217 118c89 0 143 -37 143 -106c0 -96 -144 -168 -329 -222v-27c0 -69 27 -111 84 -111c54 0 102 39 151 82l31 -30c-45 -55 -123 -132 -249 -132c-64 0 -106 33 -127 84
c-52 -55 -119 -84 -179 -84zM242 38c97 0 153 205 153 333c0 72 -28 111 -72 111c-95 0 -151 -203 -151 -329c0 -75 26 -115 70 -115zM692 484c-54 0 -133 -97 -156 -230c64 21 108 43 137 70c31 29 54 68 54 114c0 28 -14 46 -35 46z" />
    <glyph glyph-name="endash" unicode="&#x2013;" horiz-adv-x="446" 
d="M49 259l13 62h346l-12 -62h-347z" />
    <glyph glyph-name="emdash" unicode="&#x2014;" horiz-adv-x="715" 
d="M49 259l13 62h615l-12 -62h-616z" />
    <glyph glyph-name="quotedblleft" unicode="&#x201c;" horiz-adv-x="542" 
d="M189 391c-62 0 -105 47 -105 113c0 96 74 188 230 212l11 -36c-106 -33 -148 -87 -152 -145c8 7 22 12 38 12c27 0 67 -20 67 -75c0 -51 -40 -81 -89 -81zM440 391c-62 0 -106 47 -106 113c0 96 74 188 230 212l12 -36c-106 -33 -149 -87 -153 -145c9 7 22 12 38 12
c27 0 68 -20 68 -75c0 -51 -41 -81 -89 -81z" />
    <glyph glyph-name="quotedblright" unicode="&#x201d;" horiz-adv-x="542" 
d="M73 381l-11 37c106 32 148 86 152 144c-9 -7 -22 -12 -38 -12c-27 0 -68 20 -68 75c0 51 41 81 89 81c62 0 106 -47 106 -113c0 -96 -74 -188 -230 -212zM323 381l-11 37c106 32 148 86 152 144c-8 -7 -22 -12 -38 -12c-27 0 -67 20 -67 75c0 51 40 81 89 81
c62 0 105 -47 105 -113c0 -96 -74 -188 -230 -212z" />
    <glyph glyph-name="quoteleft" unicode="&#x2018;" horiz-adv-x="291" 
d="M189 391c-62 0 -105 47 -105 113c0 96 74 188 230 212l11 -36c-106 -33 -148 -87 -152 -145c8 7 22 12 38 12c27 0 67 -20 67 -75c0 -51 -40 -81 -89 -81z" />
    <glyph glyph-name="quoteright" unicode="&#x2019;" horiz-adv-x="292" 
d="M73 381l-11 37c106 32 148 86 152 144c-9 -7 -22 -12 -38 -12c-27 0 -68 20 -68 75c0 51 41 81 89 81c62 0 106 -47 106 -113c0 -96 -74 -188 -230 -212z" />
    <glyph glyph-name="divide" unicode="&#xf7;" horiz-adv-x="499" 
d="M255 86c-42 0 -77 35 -77 77s35 76 77 76c43 0 78 -34 78 -76s-35 -77 -78 -77zM255 457c-42 0 -77 35 -77 76c0 42 35 77 77 77c43 0 78 -35 78 -77c0 -41 -35 -76 -78 -76zM51 314v68h407v-68h-407z" />
    <glyph glyph-name="ydieresis" unicode="&#xff;" horiz-adv-x="536" 
d="M-17 -228c-53 0 -84 27 -84 69c0 38 25 60 57 60c55 0 57 -44 96 -44c33 0 73 26 130 87c-21 204 -43 355 -62 430c-15 56 -31 53 -68 27l-15 -9l-23 31c54 57 124 109 175 109c34 0 55 -18 68 -77c21 -99 37 -226 46 -357h4c70 98 134 214 134 283c0 39 -33 53 -33 98
c0 33 26 54 59 54c40 0 72 -24 72 -74c0 -90 -95 -266 -216 -425c-113 -149 -234 -262 -340 -262zM227 598c-45 0 -82 32 -82 78s39 80 84 80c43 0 82 -32 82 -78c0 -45 -40 -80 -84 -80zM447 598c-45 0 -82 32 -82 78s39 80 84 80c44 0 81 -32 81 -78
c0 -45 -39 -80 -83 -80z" />
    <glyph glyph-name="Ydieresis" unicode="&#x178;" horiz-adv-x="650" 
d="M109 0l8 40l39 7c38 8 44 14 55 72l31 168l-89 274c-20 64 -31 78 -57 86l-21 7l8 39h323l-8 -39l-30 -7c-32 -7 -47 -21 -47 -46c0 -14 3 -33 12 -64l56 -186h5l124 186c25 37 34 57 34 75c0 17 -9 29 -36 35l-23 7l8 39h225l-8 -39l-20 -6c-33 -10 -55 -33 -100 -98
l-181 -262l-31 -169c-10 -57 -6 -64 29 -72l35 -7l-7 -40h-334zM332 748c-45 0 -82 32 -82 78s39 80 84 80c43 0 82 -32 82 -78c0 -45 -40 -80 -84 -80zM567 748c-45 0 -82 32 -82 78s39 80 84 80c44 0 81 -32 81 -78c0 -45 -39 -80 -83 -80z" />
    <glyph glyph-name="fraction" unicode="&#x2044;" horiz-adv-x="315" 
d="M-141 -50l598 764h72l-596 -764h-74z" />
    <glyph glyph-name="Euro" unicode="&#x20ac;" horiz-adv-x="623" 
d="M42 390l11 58h83c64 159 205 257 349 257c121 0 174 -50 174 -110c0 -45 -24 -75 -71 -75c-52 0 -70 18 -76 88c-5 40 -9 49 -43 49c-78 0 -142 -93 -178 -209h218l-21 -58h-212c-6 -29 -10 -59 -13 -88h196l-20 -58h-178c1 -126 52 -177 151 -177c67 0 114 17 156 38
l-7 -47c-39 -35 -103 -71 -207 -71c-162 0 -252 92 -255 257h-83l11 58h74c2 30 8 60 15 88h-74z" />
    <glyph glyph-name="guilsinglleft" unicode="&#x2039;" horiz-adv-x="290" 
d="M164 45l-132 196l5 29l195 190h49l-121 -212l48 -203h-44z" />
    <glyph glyph-name="guilsinglright" unicode="&#x203a;" horiz-adv-x="290" 
d="M9 45l122 212l-48 203h43l133 -196l-4 -29l-196 -190h-50z" />
    <glyph glyph-name="daggerdbl" unicode="&#x2021;" horiz-adv-x="449" 
d="M168 -110c-40 0 -63 27 -63 57c0 46 54 68 66 119c-46 -4 -80 -28 -113 -28c-38 0 -59 25 -59 56c0 33 23 60 60 60c40 0 67 -40 117 -52c2 31 -12 53 -30 74l61 106h38l27 -114c-26 -17 -46 -37 -55 -68c48 3 79 30 112 30c39 0 59 -26 59 -57c0 -33 -23 -59 -59 -59
c-41 0 -66 37 -117 49c-1 -51 25 -82 25 -114c0 -31 -28 -59 -69 -59zM210 310l-24 113c24 17 46 37 54 68c-48 -3 -78 -30 -113 -30c-38 0 -60 26 -60 57c0 33 25 59 59 59c43 0 67 -37 120 -49c1 51 -27 82 -27 114c0 31 28 59 71 59c38 0 63 -27 63 -57
c0 -46 -56 -68 -68 -119c46 4 80 28 115 28c36 0 58 -25 58 -56c0 -33 -24 -60 -60 -60c-41 0 -68 40 -118 52c-2 -32 12 -53 32 -74l-64 -105h-38z" />
    <glyph glyph-name="periodcentered" unicode="&#xb7;" horiz-adv-x="343" 
d="M183 242c-54 0 -99 43 -99 95c0 54 45 97 99 97c55 0 99 -43 99 -97c0 -52 -44 -95 -99 -95z" />
    <glyph glyph-name="quotesinglbase" unicode="&#x201a;" horiz-adv-x="291" 
d="M-19 -148l-12 37c107 33 149 86 153 144c-9 -6 -22 -12 -38 -12c-27 0 -68 20 -68 75c0 51 41 81 89 81c62 0 106 -46 106 -112c0 -96 -74 -189 -230 -213z" />
    <glyph glyph-name="quotedblbase" unicode="&#x201e;" horiz-adv-x="542" 
d="M-19 -148l-12 37c107 33 149 86 153 144c-9 -6 -22 -12 -38 -12c-27 0 -68 20 -68 75c0 51 41 81 89 81c62 0 106 -46 106 -112c0 -96 -74 -189 -230 -213zM231 -148l-11 37c106 33 148 86 152 144c-8 -6 -22 -12 -38 -12c-27 0 -67 20 -67 75c0 51 40 81 89 81
c62 0 105 -46 105 -112c0 -96 -74 -189 -230 -213z" />
    <glyph glyph-name="perthousand" unicode="&#x2030;" horiz-adv-x="1245" 
d="M214 387c59 0 97 113 97 203c0 49 -15 73 -45 73c-59 0 -97 -118 -97 -204c0 -50 15 -72 45 -72zM212 344c-91 0 -156 59 -156 146c0 120 107 215 211 215c88 0 156 -57 156 -145c0 -122 -107 -216 -211 -216zM147 -50h-75l629 764h73zM602 29c58 0 96 113 96 204
c0 49 -14 72 -45 72c-58 0 -96 -117 -96 -203c0 -50 15 -73 45 -73zM599 -13c-90 0 -155 59 -155 145c0 120 106 215 210 215c89 0 157 -56 157 -145c0 -122 -107 -215 -212 -215zM1010 29c59 0 97 113 97 204c0 49 -15 72 -45 72c-59 0 -97 -117 -97 -203
c0 -50 15 -73 45 -73zM1008 -13c-91 0 -156 59 -156 145c0 120 107 215 211 215c88 0 156 -56 156 -145c0 -122 -107 -215 -211 -215z" />
    <glyph glyph-name="Acircumflex" unicode="&#xc2;" horiz-adv-x="698" 
d="M-41 0l8 40l26 6c31 8 44 18 91 102l312 545h102l88 -549c13 -74 22 -92 48 -99l21 -5l-7 -40h-315l8 40l29 7c34 8 47 21 47 44c0 21 -3 39 -7 68l-7 50h-214l-27 -51c-16 -30 -33 -59 -33 -77c0 -19 8 -28 32 -34l29 -7l-8 -40h-223zM354 515l-135 -251h176l-36 251h-5
zM301 743l-14 27l153 131h62l117 -133l-18 -25l-142 54z" />
    <glyph glyph-name="Ecircumflex" unicode="&#xca;" horiz-adv-x="649" 
d="M-20 0l7 40l36 7c32 8 41 13 52 72l82 455c11 57 5 64 -26 72l-34 8l8 39h544l-12 -200h-42c-17 56 -28 84 -40 106c-21 34 -47 40 -117 40c-51 0 -77 -5 -96 -9l-43 -243h21c64 0 84 4 101 26c15 19 24 40 38 72h43l-45 -256h-42c-2 32 -5 53 -14 74
c-9 23 -27 29 -92 29h-20l-33 -188c-14 -73 -5 -90 84 -90c87 0 114 13 148 52c25 29 50 66 87 130h46l-60 -236h-581zM259 743l-14 27l153 131h62l117 -133l-18 -25l-142 54z" />
    <glyph glyph-name="Aacute" unicode="&#xc1;" horiz-adv-x="698" 
d="M-41 0l8 40l26 6c31 8 44 18 91 102l312 545h102l88 -549c13 -74 22 -92 48 -99l21 -5l-7 -40h-315l8 40l29 7c34 8 47 21 47 44c0 21 -3 39 -7 68l-7 50h-214l-27 -51c-16 -30 -33 -59 -33 -77c0 -19 8 -28 32 -34l29 -7l-8 -40h-223zM354 515l-135 -251h176l-36 251h-5
zM378 745l-13 25l149 114c19 15 35 24 54 24c31 0 52 -29 52 -58c0 -24 -14 -48 -47 -56z" />
    <glyph glyph-name="Edieresis" unicode="&#xcb;" horiz-adv-x="649" 
d="M-20 0l7 40l36 7c32 8 41 13 52 72l82 455c11 57 5 64 -26 72l-34 8l8 39h544l-12 -200h-42c-17 56 -28 84 -40 106c-21 34 -47 40 -117 40c-51 0 -77 -5 -96 -9l-43 -243h21c64 0 84 4 101 26c15 19 24 40 38 72h43l-45 -256h-42c-2 32 -5 53 -14 74
c-9 23 -27 29 -92 29h-20l-33 -188c-14 -73 -5 -90 84 -90c87 0 114 13 148 52c25 29 50 66 87 130h46l-60 -236h-581zM303 748c-45 0 -82 32 -82 78s39 80 84 80c43 0 82 -32 82 -78c0 -45 -40 -80 -84 -80zM538 748c-45 0 -82 32 -82 78s39 80 84 80c44 0 81 -32 81 -78
c0 -45 -39 -80 -83 -80z" />
    <glyph glyph-name="Egrave" unicode="&#xc8;" horiz-adv-x="649" 
d="M-20 0l7 40l36 7c32 8 41 13 52 72l82 455c11 57 5 64 -26 72l-34 8l8 39h544l-12 -200h-42c-17 56 -28 84 -40 106c-21 34 -47 40 -117 40c-51 0 -77 -5 -96 -9l-43 -243h21c64 0 84 4 101 26c15 19 24 40 38 72h43l-45 -256h-42c-2 32 -5 53 -14 74
c-9 23 -27 29 -92 29h-20l-33 -188c-14 -73 -5 -90 84 -90c87 0 114 13 148 52c25 29 50 66 87 130h46l-60 -236h-581zM514 745l-195 49c-33 8 -47 33 -47 55c0 30 24 60 54 60c20 0 36 -9 54 -23l148 -112z" />
    <glyph glyph-name="Iacute" unicode="&#xcd;" horiz-adv-x="383" 
d="M-20 0l7 40l40 7c32 7 40 13 51 72l83 455c10 57 4 65 -27 72l-37 8l8 39h331l-7 -39l-41 -8c-30 -6 -40 -13 -51 -72l-81 -455c-11 -57 -8 -64 25 -72l37 -7l-8 -40h-330zM205 745l-13 25l149 114c19 15 35 24 54 24c31 0 52 -29 52 -58c0 -24 -14 -48 -47 -56z" />
    <glyph glyph-name="Icircumflex" unicode="&#xce;" horiz-adv-x="383" 
d="M-20 0l7 40l40 7c32 7 40 13 51 72l83 455c10 57 4 65 -27 72l-37 8l8 39h331l-7 -39l-41 -8c-30 -6 -40 -13 -51 -72l-81 -455c-11 -57 -8 -64 25 -72l37 -7l-8 -40h-330zM128 743l-14 27l153 131h62l117 -133l-18 -25l-142 54z" />
    <glyph glyph-name="Idieresis" unicode="&#xcf;" horiz-adv-x="383" 
d="M-20 0l7 40l40 7c32 7 40 13 51 72l83 455c10 57 4 65 -27 72l-37 8l8 39h331l-7 -39l-41 -8c-30 -6 -40 -13 -51 -72l-81 -455c-11 -57 -8 -64 25 -72l37 -7l-8 -40h-330zM172 748c-45 0 -82 32 -82 78s39 80 84 80c43 0 82 -32 82 -78c0 -45 -40 -80 -84 -80zM407 748
c-45 0 -82 32 -82 78s39 80 84 80c44 0 81 -32 81 -78c0 -45 -39 -80 -83 -80z" />
    <glyph glyph-name="Igrave" unicode="&#xcc;" horiz-adv-x="383" 
d="M-20 0l7 40l40 7c32 7 40 13 51 72l83 455c10 57 4 65 -27 72l-37 8l8 39h331l-7 -39l-41 -8c-30 -6 -40 -13 -51 -72l-81 -455c-11 -57 -8 -64 25 -72l37 -7l-8 -40h-330zM383 745l-195 49c-33 8 -47 33 -47 55c0 30 24 60 54 60c20 0 36 -9 54 -23l148 -112z" />
    <glyph glyph-name="Oacute" unicode="&#xd3;" horiz-adv-x="744" 
d="M335 -13c-160 0 -291 109 -291 284c0 256 199 434 398 434c158 0 289 -104 289 -286c0 -261 -197 -432 -396 -432zM340 41c135 0 215 235 215 434c0 113 -32 176 -117 176c-138 0 -217 -244 -217 -435c0 -111 29 -175 119 -175zM384 745l-13 25l149 114
c19 15 35 24 54 24c31 0 52 -29 52 -58c0 -24 -14 -48 -47 -56z" />
    <glyph glyph-name="Ocircumflex" unicode="&#xd4;" horiz-adv-x="744" 
d="M335 -13c-160 0 -291 109 -291 284c0 256 199 434 398 434c158 0 289 -104 289 -286c0 -261 -197 -432 -396 -432zM340 41c135 0 215 235 215 434c0 113 -32 176 -117 176c-138 0 -217 -244 -217 -435c0 -111 29 -175 119 -175zM307 743l-14 27l153 131h62l117 -133
l-18 -25l-142 54z" />
    <glyph glyph-name="Ograve" unicode="&#xd2;" horiz-adv-x="744" 
d="M335 -13c-160 0 -291 109 -291 284c0 256 199 434 398 434c158 0 289 -104 289 -286c0 -261 -197 -432 -396 -432zM340 41c135 0 215 235 215 434c0 113 -32 176 -117 176c-138 0 -217 -244 -217 -435c0 -111 29 -175 119 -175zM562 745l-195 49c-33 8 -47 33 -47 55
c0 30 24 60 54 60c20 0 36 -9 54 -23l148 -112z" />
    <glyph glyph-name="Uacute" unicode="&#xda;" horiz-adv-x="721" 
d="M358 -13c-183 0 -301 75 -265 269l58 318c10 57 5 64 -26 72l-34 8l8 39h324l-8 -39l-37 -8c-33 -8 -40 -12 -51 -72l-63 -349c-20 -110 13 -170 129 -170c103 0 145 48 164 151l64 354c13 69 4 79 -36 87l-33 7l8 39h223l-8 -39l-31 -7c-31 -7 -46 -18 -60 -90l-67 -364
c-21 -118 -99 -206 -259 -206zM410 745l-13 25l149 114c19 15 35 24 54 24c31 0 52 -29 52 -58c0 -24 -14 -48 -47 -56z" />
    <glyph glyph-name="Ucircumflex" unicode="&#xdb;" horiz-adv-x="721" 
d="M358 -13c-183 0 -301 75 -265 269l58 318c10 57 5 64 -26 72l-34 8l8 39h324l-8 -39l-37 -8c-33 -8 -40 -12 -51 -72l-63 -349c-20 -110 13 -170 129 -170c103 0 145 48 164 151l64 354c13 69 4 79 -36 87l-33 7l8 39h223l-8 -39l-31 -7c-31 -7 -46 -18 -60 -90l-67 -364
c-21 -118 -99 -206 -259 -206zM333 743l-14 27l153 131h62l117 -133l-18 -25l-142 54z" />
    <glyph glyph-name="Ugrave" unicode="&#xd9;" horiz-adv-x="721" 
d="M358 -13c-183 0 -301 75 -265 269l58 318c10 57 5 64 -26 72l-34 8l8 39h324l-8 -39l-37 -8c-33 -8 -40 -12 -51 -72l-63 -349c-20 -110 13 -170 129 -170c103 0 145 48 164 151l64 354c13 69 4 79 -36 87l-33 7l8 39h223l-8 -39l-31 -7c-31 -7 -46 -18 -60 -90l-67 -364
c-21 -118 -99 -206 -259 -206zM588 745l-195 49c-33 8 -47 33 -47 55c0 30 24 60 54 60c20 0 36 -9 54 -23l148 -112z" />
    <glyph glyph-name="dotlessi" unicode="&#x131;" horiz-adv-x="321" 
d="M101 -11c-46 0 -64 33 -64 62s7 60 15 92l61 227c4 15 6 27 6 36c0 21 -22 14 -56 -6l-11 -7l-22 29c55 56 129 110 193 110c44 0 60 -30 60 -61c0 -26 -6 -63 -20 -112l-57 -213c-3 -12 -6 -25 -6 -37c0 -20 16 -25 52 -3l20 12l22 -29c-49 -46 -122 -100 -193 -100z
" />
    <glyph glyph-name="circumflex" unicode="&#x2c6;" horiz-adv-x="532" 
d="M182 581l-17 27l159 161h62l104 -163l-22 -25l-125 84z" />
    <glyph glyph-name="tilde" unicode="&#x2dc;" horiz-adv-x="532" 
d="M178 584l-38 18c37 88 70 141 118 141c54 0 110 -39 147 -39c27 0 43 26 67 63l37 -17c-36 -88 -65 -141 -115 -141c-54 0 -112 39 -149 39c-27 0 -43 -27 -67 -64z" />
    <glyph glyph-name="macron" unicode="&#xaf;" horiz-adv-x="516" 
d="M171 622l14 78h292l-14 -78h-292z" />
    <glyph glyph-name="breve" unicode="&#x2d8;" horiz-adv-x="516" 
d="M333 593c-82 0 -128 71 -129 165l40 11c12 -46 29 -79 101 -79c67 0 96 32 122 79l41 -12c-28 -99 -89 -164 -175 -164z" />
    <glyph glyph-name="dotaccent" unicode="&#x2d9;" horiz-adv-x="522" 
d="M310 598c-51 0 -90 36 -90 83c0 48 39 84 90 84c50 0 89 -35 89 -83c0 -46 -39 -84 -89 -84z" />
    <glyph glyph-name="ring" unicode="&#x2da;" horiz-adv-x="516" 
d="M331 592c-69 0 -116 46 -116 107c0 62 52 109 116 109s115 -45 115 -109c0 -61 -51 -107 -115 -107zM331 637c35 0 57 26 57 62s-22 63 -57 63s-58 -27 -58 -63s22 -62 58 -62z" />
    <glyph glyph-name="cedilla" unicode="&#xb8;" horiz-adv-x="532" 
d="M107 -262l4 31c101 19 136 44 136 75c0 19 -13 35 -61 37l-5 14l62 105h53l-45 -53c75 -8 94 -48 94 -80c0 -67 -90 -119 -238 -129z" />
    <glyph glyph-name="hungarumlaut" unicode="&#x2dd;" horiz-adv-x="516" 
d="M159 587l-20 22l76 123c16 28 34 38 52 38c24 0 56 -23 56 -52c0 -20 -11 -41 -42 -59zM344 587l-20 22l78 123c16 27 32 38 51 38c26 0 58 -25 58 -53c0 -18 -9 -36 -38 -53z" />
    <glyph glyph-name="ogonek" unicode="&#x2db;" horiz-adv-x="522" 
d="M219 -241c-66 0 -110 33 -110 86c0 73 76 118 154 155h47c-45 -36 -81 -93 -81 -138c0 -26 19 -44 49 -44c19 0 36 5 48 10l-6 -39c-16 -13 -49 -30 -101 -30z" />
    <glyph glyph-name="caron" unicode="&#x2c7;" horiz-adv-x="528" 
d="M241 587l-105 162l23 25l125 -83l160 83l18 -26l-160 -161h-61z" />
    <glyph glyph-name="space_uni0326" horiz-adv-x="510" 
d="M139 -284l-4 28c90 12 124 49 125 83c-6 -3 -15 -7 -28 -7c-37 0 -62 22 -62 56c0 42 39 67 84 67c49 0 85 -30 85 -82c0 -67 -52 -138 -200 -145z" />
    <glyph glyph-name="caron.alt" horiz-adv-x="510" 
d="M290 571l-24 10l32 138c6 27 19 45 46 46c26 0 61 -18 60 -52c0 -16 -9 -31 -21 -44z" />
    <glyph glyph-name="space_uni0326.alt" horiz-adv-x="510" 
d="M363 822l4 -28c-90 -12 -124 -49 -125 -83c6 3 15 7 28 7c37 0 62 -22 62 -56c0 -42 -39 -67 -84 -67c-49 0 -85 30 -85 82c0 67 52 138 200 145z" />
    <glyph glyph-name="acute.pl" horiz-adv-x="510" 
d="M216 575l-21 20l65 139c13 28 29 47 54 47c33 0 67 -30 67 -61c0 -18 -11 -35 -30 -49z" />
    <glyph glyph-name="grave.uc" horiz-adv-x="511" 
d="M464 745l-195 49c-33 8 -47 33 -47 55c0 30 24 60 54 60c20 0 36 -9 54 -23l148 -112z" />
    <glyph glyph-name="dieresis.uc" horiz-adv-x="516" 
d="M240 748c-45 0 -82 32 -82 78s39 80 84 80c43 0 82 -32 82 -78c0 -45 -40 -80 -84 -80zM475 748c-45 0 -82 32 -82 78s39 80 84 80c44 0 81 -32 81 -78c0 -45 -39 -80 -83 -80z" />
    <glyph glyph-name="macron.uc" horiz-adv-x="516" 
d="M198 777l14 78h306l-14 -78h-306z" />
    <glyph glyph-name="acute.uc" horiz-adv-x="516" 
d="M244 745l-13 25l149 114c19 15 35 24 54 24c31 0 52 -29 52 -58c0 -24 -14 -48 -47 -56z" />
    <glyph glyph-name="circumflex.uc" horiz-adv-x="516" 
d="M189 743l-14 27l153 131h62l117 -133l-18 -25l-142 54z" />
    <glyph glyph-name="caron.uc" horiz-adv-x="516" 
d="M510 914l14 -27l-153 -131h-62l-117 133l18 25l142 -54z" />
    <glyph glyph-name="breve.uc" horiz-adv-x="516" 
d="M337 754c-82 0 -142 64 -142 148l40 11c12 -40 42 -62 114 -62c67 0 103 16 129 62l41 -12c-28 -90 -92 -147 -182 -147z" />
    <glyph glyph-name="dotaccent.uc" horiz-adv-x="412" 
d="M306 744c-51 0 -90 36 -90 83c0 48 39 84 90 84c50 0 89 -35 89 -83c0 -46 -39 -84 -89 -84z" />
    <glyph glyph-name="ring.uc" horiz-adv-x="516" 
d="M359 736c-69 0 -116 46 -116 107c0 62 52 109 116 109s115 -45 115 -109c0 -61 -51 -107 -115 -107zM359 781c35 0 57 26 57 62s-22 63 -57 63s-58 -27 -58 -63s22 -62 58 -62z" />
    <glyph glyph-name="tilde.uc" horiz-adv-x="516" 
d="M207 753l-38 18c37 88 70 141 118 141c54 0 120 -43 157 -43c27 0 43 26 67 63l37 -17c-36 -88 -65 -141 -115 -141c-54 0 -122 43 -159 43c-27 0 -43 -27 -67 -64z" />
    <glyph glyph-name="hungarumlaut.uc" horiz-adv-x="516" 
d="M415 759l-20 22l69 114c16 27 30 37 49 37c26 0 58 -27 58 -55c0 -18 -10 -36 -39 -52zM229 759l-20 22l68 114c16 27 32 37 50 37c23 0 56 -25 56 -54c0 -20 -12 -41 -43 -58z" />
    <glyph glyph-name="acute.ucpl" horiz-adv-x="510" 
d="M316 747l-21 20l54 125c12 28 29 47 54 47c33 0 67 -30 67 -61c0 -18 -10 -36 -30 -49z" />
    <glyph glyph-name="Dcroat" unicode="&#x110;" horiz-adv-x="745" 
d="M46 321l10 54h65l36 199c11 57 4 64 -26 72l-34 8l8 39h318c199 0 309 -109 309 -279c0 -251 -189 -414 -414 -414h-338l7 40l36 7c32 7 41 12 52 72l36 202h-65zM315 52c167 0 240 194 240 419c0 119 -49 169 -145 169c-32 0 -54 -4 -68 -9l-45 -256h143l-10 -54h-143
l-30 -174c-13 -68 -3 -95 58 -95z" />
    <glyph glyph-name="Eng" unicode="&#x14a;" horiz-adv-x="719" 
d="M405 -183c39 0 77 32 102 161l-277 614h-5l-83 -458c-12 -66 -2 -79 37 -88l30 -6l-7 -40h-222l7 40l30 6c39 8 50 25 62 93l79 435c10 57 5 64 -27 72l-33 8l8 39h262l189 -420h4l52 287c13 67 6 79 -33 87l-35 7l8 39h221l-8 -39l-30 -7c-36 -9 -47 -21 -60 -96
l-104 -565c-24 -134 -77 -217 -193 -217c-87 0 -135 41 -135 96c0 36 28 63 71 63c50 0 65 -19 71 -89c1 -17 5 -22 19 -22z" />
    <glyph glyph-name="IJ" unicode="&#x132;" horiz-adv-x="753" 
d="M-20 0l7 40l40 7c32 7 40 13 51 72l83 455c10 57 4 65 -27 72l-37 8l8 39h331l-7 -39l-41 -8c-30 -6 -40 -13 -51 -72l-81 -455c-11 -57 -8 -64 25 -72l37 -7l-8 -40h-330zM351 -190c-85 0 -140 41 -140 96c0 36 28 63 71 63c50 0 65 -19 71 -89c1 -17 6 -22 19 -22
c30 0 42 19 53 80l115 636c11 57 5 64 -26 72l-34 8l8 39h324l-7 -39l-38 -8c-31 -7 -40 -12 -51 -72l-93 -504c-27 -146 -121 -260 -272 -260z" />
    <glyph glyph-name="uni0237" unicode="&#x237;" horiz-adv-x="312" 
d="M-56 -225c-75 0 -112 39 -112 80c0 36 21 57 60 57c41 0 56 -19 64 -72c3 -15 7 -20 15 -20c24 0 44 21 63 129l80 421c3 16 5 27 5 35c0 24 -22 15 -56 -5l-11 -7l-22 29c55 56 129 110 193 110c44 0 60 -30 60 -61c0 -25 -7 -66 -17 -112l-70 -318
c-38 -175 -131 -266 -252 -266z" />
    <glyph glyph-name="dcroat" unicode="&#x111;" horiz-adv-x="649" 
d="M288 593l9 51h155c6 33 -1 41 -24 52l-37 16l6 35l226 19l13 -10s-18 -49 -31 -112h85l-9 -51h-86l-93 -447c-3 -12 -6 -22 -6 -37c0 -20 18 -26 52 -3l17 11l22 -29c-48 -45 -120 -99 -191 -99c-49 0 -56 36 -56 61c0 16 2 37 7 56h-4c-49 -60 -117 -119 -198 -119
c-83 0 -129 56 -129 148c0 213 179 397 336 397c36 0 59 -7 72 -14h5s3 33 12 73v2h-153zM219 77c45 0 100 57 135 100l57 266c-7 19 -26 38 -61 38c-87 0 -179 -176 -179 -336c0 -50 20 -68 48 -68z" />
    <glyph glyph-name="eng" unicode="&#x14b;" horiz-adv-x="608" 
d="M568 355l-69 -314c-38 -175 -131 -266 -252 -266c-75 0 -112 39 -112 80c0 36 21 57 60 57c41 0 56 -19 64 -72c3 -15 7 -20 15 -20c24 0 42 21 63 129l74 388c14 71 12 90 -13 90c-42 0 -102 -55 -140 -100l-72 -327h-153l80 370c3 13 6 30 6 38c0 20 -15 16 -57 -8
l-10 -6l-21 29c54 55 121 109 184 109c43 0 57 -26 57 -57c0 -19 -7 -63 -12 -85h5c63 71 139 142 227 142c55 0 87 -40 87 -92c0 -22 -4 -52 -11 -85z" />
    <glyph glyph-name="ij" unicode="&#x133;" horiz-adv-x="616" 
d="M101 -11c-46 0 -64 33 -64 62s7 60 15 92l61 227c4 15 6 27 6 36c0 21 -22 14 -56 -6l-11 -7l-22 29c55 56 129 110 193 110c44 0 60 -30 60 -61c0 -26 -6 -63 -20 -112l-57 -213c-3 -12 -6 -25 -6 -37c0 -20 16 -25 52 -3l20 12l22 -29c-49 -46 -122 -100 -193 -100z
M235 598c-51 0 -90 36 -90 83c0 48 39 84 90 84c50 0 89 -35 89 -83c0 -46 -39 -84 -89 -84zM248 -225c-75 0 -112 39 -112 80c0 36 21 57 60 57c41 0 56 -19 64 -72c3 -15 7 -20 15 -20c24 0 44 21 63 129l80 421c3 16 5 27 5 35c0 24 -22 15 -56 -5l-11 -7l-22 29
c55 56 129 110 193 110c44 0 60 -30 60 -61c0 -25 -7 -66 -17 -112l-70 -318c-38 -175 -131 -266 -252 -266zM539 598c-51 0 -90 36 -90 83c0 48 39 84 90 84c50 0 89 -35 89 -83c0 -46 -39 -84 -89 -84z" />
    <glyph glyph-name="Abreve" unicode="&#x102;" horiz-adv-x="698" 
d="M-41 0l8 40l26 6c31 8 44 18 91 102l312 545h102l88 -549c13 -74 22 -92 48 -99l21 -5l-7 -40h-315l8 40l29 7c34 8 47 21 47 44c0 21 -3 39 -7 68l-7 50h-214l-27 -51c-16 -30 -33 -59 -33 -77c0 -19 8 -28 32 -34l29 -7l-8 -40h-223zM354 515l-135 -251h176l-36 251h-5
zM452 754c-82 0 -142 64 -142 148l40 11c12 -40 42 -62 114 -62c67 0 103 16 129 62l41 -12c-28 -90 -92 -147 -182 -147z" />
    <glyph glyph-name="Amacron" unicode="&#x100;" horiz-adv-x="698" 
d="M-41 0l8 40l26 6c31 8 44 18 91 102l312 545h102l88 -549c13 -74 22 -92 48 -99l21 -5l-7 -40h-315l8 40l29 7c34 8 47 21 47 44c0 21 -3 39 -7 68l-7 50h-214l-27 -51c-16 -30 -33 -59 -33 -77c0 -19 8 -28 32 -34l29 -7l-8 -40h-223zM354 515l-135 -251h176l-36 251h-5
zM302 777l14 78h306l-14 -78h-306z" />
    <glyph glyph-name="Aogonek" unicode="&#x104;" horiz-adv-x="698" 
d="M369 -241c-66 0 -110 33 -110 86c0 70 78 127 172 170l-28 194h-214l-27 -51c-16 -30 -33 -59 -33 -77c0 -19 8 -28 32 -34l29 -7l-8 -40h-223l8 40l26 6c31 8 44 18 91 102l312 545h102l88 -549c13 -74 22 -92 48 -99l21 -5l-7 -40h-83c-141 0 -186 -81 -186 -138
c0 -26 19 -44 49 -44c19 0 36 5 48 10l-6 -39c-16 -13 -49 -30 -101 -30zM354 515l-135 -251h176l-36 251h-5z" />
    <glyph glyph-name="Aringacute" unicode="&#x1fa;" horiz-adv-x="698" 
d="M-41 0l8 40l26 6c31 8 44 18 91 102l312 545h102l88 -549c13 -74 22 -92 48 -99l21 -5l-7 -40h-315l8 40l29 7c34 8 47 21 47 44c0 21 -3 39 -7 68l-7 50h-214l-27 -51c-16 -30 -33 -59 -33 -77c0 -19 8 -28 32 -34l29 -7l-8 -40h-223zM354 515l-135 -251h176l-36 251h-5
zM457 736c-69 0 -116 46 -116 107c0 62 52 109 116 109s115 -45 115 -109c0 -61 -51 -107 -115 -107zM457 781c35 0 57 26 57 62s-22 63 -57 63s-58 -27 -58 -63s22 -62 58 -62zM383 965l-13 25l149 114c19 15 35 24 54 24c31 0 52 -29 52 -58c0 -24 -14 -48 -47 -56z" />
    <glyph glyph-name="AEacute" unicode="&#x1fc;" horiz-adv-x="986" 
d="M-41 0l8 40l17 4c36 9 51 19 126 119l362 477l-24 6l-43 8l8 39h573l-12 -200h-41c-18 56 -29 84 -40 106c-21 34 -48 40 -118 40c-51 0 -72 -5 -90 -9l-43 -243h19c64 0 80 4 97 26c15 19 25 40 39 72h42l-45 -256h-41c-3 32 -6 53 -14 74c-9 23 -24 29 -89 29h-18
l-34 -188c-13 -73 -9 -90 79 -90c87 0 114 13 148 52c26 29 51 66 88 130h45l-59 -236h-571l8 40l36 7c31 8 39 13 50 72l14 79h-225l-23 -31c-33 -44 -48 -69 -48 -90c0 -17 9 -25 34 -32l22 -5l-7 -40h-230zM504 589l-251 -335h194l61 335h-4zM645 745l-13 25l149 114
c19 15 35 24 54 24c31 0 52 -29 52 -58c0 -24 -14 -48 -47 -56z" />
    <glyph glyph-name="Cacute" unicode="&#x106;" horiz-adv-x="643" 
d="M355 -12c-182 0 -310 108 -310 287c0 272 217 430 429 430c76 0 141 -13 181 -30l-18 -200h-43c-14 51 -31 104 -47 135c-19 32 -40 44 -89 44c-161 0 -236 -263 -236 -449c0 -111 45 -166 133 -166c56 0 84 16 118 57c26 29 57 78 89 132h42l-50 -208
c-42 -18 -113 -32 -199 -32zM384 745l-13 25l149 114c19 15 35 24 54 24c31 0 52 -29 52 -58c0 -24 -14 -48 -47 -56z" />
    <glyph glyph-name="Ccaron" unicode="&#x10c;" horiz-adv-x="643" 
d="M355 -12c-182 0 -310 108 -310 287c0 272 217 430 429 430c76 0 141 -13 181 -30l-18 -200h-43c-14 51 -31 104 -47 135c-19 32 -40 44 -89 44c-161 0 -236 -263 -236 -449c0 -111 45 -166 133 -166c56 0 84 16 118 57c26 29 57 78 89 132h42l-50 -208
c-42 -18 -113 -32 -199 -32zM634 914l14 -27l-153 -131h-62l-117 133l18 25l142 -54z" />
    <glyph glyph-name="Ccircumflex" unicode="&#x108;" horiz-adv-x="643" 
d="M355 -12c-182 0 -310 108 -310 287c0 272 217 430 429 430c76 0 141 -13 181 -30l-18 -200h-43c-14 51 -31 104 -47 135c-19 32 -40 44 -89 44c-161 0 -236 -263 -236 -449c0 -111 45 -166 133 -166c56 0 84 16 118 57c26 29 57 78 89 132h42l-50 -208
c-42 -18 -113 -32 -199 -32zM307 743l-14 27l153 131h62l117 -133l-18 -25l-142 54z" />
    <glyph glyph-name="Cdotaccent" unicode="&#x10a;" horiz-adv-x="643" 
d="M355 -12c-182 0 -310 108 -310 287c0 272 217 430 429 430c76 0 141 -13 181 -30l-18 -200h-43c-14 51 -31 104 -47 135c-19 32 -40 44 -89 44c-161 0 -236 -263 -236 -449c0 -111 45 -166 133 -166c56 0 84 16 118 57c26 29 57 78 89 132h42l-50 -208
c-42 -18 -113 -32 -199 -32zM465 744c-51 0 -90 36 -90 83c0 48 39 84 90 84c50 0 89 -35 89 -83c0 -46 -39 -84 -89 -84z" />
    <glyph glyph-name="Cacute.pl" horiz-adv-x="643" 
d="M355 -12c-182 0 -310 108 -310 287c0 272 217 430 429 430c76 0 141 -13 181 -30l-18 -200h-43c-14 51 -31 104 -47 135c-19 32 -40 44 -89 44c-161 0 -236 -263 -236 -449c0 -111 45 -166 133 -166c56 0 84 16 118 57c26 29 57 78 89 132h42l-50 -208
c-42 -18 -113 -32 -199 -32zM465 747l-21 20l54 125c12 28 29 47 54 47c33 0 67 -30 67 -61c0 -18 -10 -36 -30 -49z" />
    <glyph glyph-name="Dcaron" unicode="&#x10e;" horiz-adv-x="745" 
d="M-20 0l7 40l36 7c32 7 41 12 52 72l82 455c11 57 4 64 -26 72l-34 8l8 39h318c199 0 309 -109 309 -279c0 -251 -189 -414 -414 -414h-338zM315 52c167 0 240 194 240 419c0 119 -49 169 -145 169c-32 0 -54 -4 -68 -9l-85 -484c-13 -68 -3 -95 58 -95zM580 914l14 -27
l-153 -131h-62l-117 133l18 25l142 -54z" />
    <glyph glyph-name="Ebreve" unicode="&#x114;" horiz-adv-x="649" 
d="M-20 0l7 40l36 7c32 8 41 13 52 72l82 455c11 57 5 64 -26 72l-34 8l8 39h544l-12 -200h-42c-17 56 -28 84 -40 106c-21 34 -47 40 -117 40c-51 0 -77 -5 -96 -9l-43 -243h21c64 0 84 4 101 26c15 19 24 40 38 72h43l-45 -256h-42c-2 32 -5 53 -14 74
c-9 23 -27 29 -92 29h-20l-33 -188c-14 -73 -5 -90 84 -90c87 0 114 13 148 52c25 29 50 66 87 130h46l-60 -236h-581zM416 754c-82 0 -142 64 -142 148l40 11c12 -40 42 -62 114 -62c67 0 103 16 129 62l41 -12c-28 -90 -92 -147 -182 -147z" />
    <glyph glyph-name="Ecaron" unicode="&#x11a;" horiz-adv-x="649" 
d="M-20 0l7 40l36 7c32 8 41 13 52 72l82 455c11 57 5 64 -26 72l-34 8l8 39h544l-12 -200h-42c-17 56 -28 84 -40 106c-21 34 -47 40 -117 40c-51 0 -77 -5 -96 -9l-43 -243h21c64 0 84 4 101 26c15 19 24 40 38 72h43l-45 -256h-42c-2 32 -5 53 -14 74
c-9 23 -27 29 -92 29h-20l-33 -188c-14 -73 -5 -90 84 -90c87 0 114 13 148 52c25 29 50 66 87 130h46l-60 -236h-581zM586 914l14 -27l-153 -131h-62l-117 133l18 25l142 -54z" />
    <glyph glyph-name="Edotaccent" unicode="&#x116;" horiz-adv-x="649" 
d="M-20 0l7 40l36 7c32 8 41 13 52 72l82 455c11 57 5 64 -26 72l-34 8l8 39h544l-12 -200h-42c-17 56 -28 84 -40 106c-21 34 -47 40 -117 40c-51 0 -77 -5 -96 -9l-43 -243h21c64 0 84 4 101 26c15 19 24 40 38 72h43l-45 -256h-42c-2 32 -5 53 -14 74
c-9 23 -27 29 -92 29h-20l-33 -188c-14 -73 -5 -90 84 -90c87 0 114 13 148 52c25 29 50 66 87 130h46l-60 -236h-581zM417 744c-51 0 -90 36 -90 83c0 48 39 84 90 84c50 0 89 -35 89 -83c0 -46 -39 -84 -89 -84z" />
    <glyph glyph-name="Emacron" unicode="&#x112;" horiz-adv-x="649" 
d="M-20 0l7 40l36 7c32 8 41 13 52 72l82 455c11 57 5 64 -26 72l-34 8l8 39h544l-12 -200h-42c-17 56 -28 84 -40 106c-21 34 -47 40 -117 40c-51 0 -77 -5 -96 -9l-43 -243h21c64 0 84 4 101 26c15 19 24 40 38 72h43l-45 -256h-42c-2 32 -5 53 -14 74
c-9 23 -27 29 -92 29h-20l-33 -188c-14 -73 -5 -90 84 -90c87 0 114 13 148 52c25 29 50 66 87 130h46l-60 -236h-581zM260 777l14 78h306l-14 -78h-306z" />
    <glyph glyph-name="Eogonek" unicode="&#x118;" horiz-adv-x="649" 
d="M-20 0l7 40l36 7c32 8 41 13 52 72l82 455c11 57 5 64 -26 72l-34 8l8 39h544l-12 -200h-42c-17 56 -28 84 -40 106c-21 34 -47 40 -117 40c-51 0 -77 -5 -96 -9l-43 -243h21c64 0 84 4 101 26c15 19 24 40 38 72h43l-45 -256h-42c-2 32 -5 53 -14 74
c-9 23 -27 29 -92 29h-20l-33 -188c-14 -73 -5 -90 84 -90c87 0 114 13 148 52c25 29 50 66 87 130h46l-60 -236h-94c-45 -36 -81 -93 -81 -138c0 -26 19 -44 49 -44c19 0 36 5 48 10l-6 -39c-16 -13 -49 -30 -101 -30c-66 0 -110 33 -110 86c0 70 69 116 142 155h-428z" />
    <glyph glyph-name="Gbreve" unicode="&#x11e;" horiz-adv-x="709" 
d="M365 -12c-199 0 -321 109 -321 283c0 273 217 434 429 434c89 0 157 -14 197 -31l-19 -201h-42c-18 59 -33 102 -53 135c-23 32 -38 46 -95 46c-154 0 -240 -253 -240 -460c0 -102 38 -155 135 -155c37 0 59 7 79 20l24 141c10 56 5 65 -28 72l-32 8l8 39h302l-7 -39
l-29 -7c-29 -7 -36 -14 -46 -73l-31 -176c-55 -20 -139 -36 -231 -36zM474 754c-82 0 -142 64 -142 148l40 11c12 -40 42 -62 114 -62c67 0 103 16 129 62l41 -12c-28 -90 -92 -147 -182 -147z" />
    <glyph glyph-name="Gcircumflex" unicode="&#x11c;" horiz-adv-x="709" 
d="M365 -12c-199 0 -321 109 -321 283c0 273 217 434 429 434c89 0 157 -14 197 -31l-19 -201h-42c-18 59 -33 102 -53 135c-23 32 -38 46 -95 46c-154 0 -240 -253 -240 -460c0 -102 38 -155 135 -155c37 0 59 7 79 20l24 141c10 56 5 65 -28 72l-32 8l8 39h302l-7 -39
l-29 -7c-29 -7 -36 -14 -46 -73l-31 -176c-55 -20 -139 -36 -231 -36zM317 743l-14 27l153 131h62l117 -133l-18 -25l-142 54z" />
    <glyph glyph-name="Gcommaaccent" unicode="&#x122;" horiz-adv-x="709" 
d="M365 -12c-199 0 -321 109 -321 283c0 273 217 434 429 434c89 0 157 -14 197 -31l-19 -201h-42c-18 59 -33 102 -53 135c-23 32 -38 46 -95 46c-154 0 -240 -253 -240 -460c0 -102 38 -155 135 -155c37 0 59 7 79 20l24 141c10 56 5 65 -28 72l-32 8l8 39h302l-7 -39
l-29 -7c-29 -7 -36 -14 -46 -73l-31 -176c-55 -20 -139 -36 -231 -36zM190 -284l-4 28c90 12 124 49 125 83c-6 -3 -15 -7 -28 -7c-37 0 -62 22 -62 56c0 42 39 67 84 67c49 0 85 -30 85 -82c0 -67 -52 -138 -200 -145z" />
    <glyph glyph-name="Gdotaccent" unicode="&#x120;" horiz-adv-x="709" 
d="M365 -12c-199 0 -321 109 -321 283c0 273 217 434 429 434c89 0 157 -14 197 -31l-19 -201h-42c-18 59 -33 102 -53 135c-23 32 -38 46 -95 46c-154 0 -240 -253 -240 -460c0 -102 38 -155 135 -155c37 0 59 7 79 20l24 141c10 56 5 65 -28 72l-32 8l8 39h302l-7 -39
l-29 -7c-29 -7 -36 -14 -46 -73l-31 -176c-55 -20 -139 -36 -231 -36zM475 744c-51 0 -90 36 -90 83c0 48 39 84 90 84c50 0 89 -35 89 -83c0 -46 -39 -84 -89 -84z" />
    <glyph glyph-name="Hbar" unicode="&#x126;" horiz-adv-x="804" 
d="M54 488l9 53h117l6 33c11 57 5 64 -26 72l-34 8l8 39h323l-7 -39l-37 -8c-31 -8 -39 -12 -51 -72l-6 -33h232l6 33c10 57 5 64 -27 72l-32 8l8 39h323l-8 -39l-37 -8c-30 -7 -40 -12 -51 -72l-6 -33h63l-9 -53h-64l-67 -369c-10 -57 -5 -64 26 -72l35 -7l-8 -40h-323
l7 40l36 7c32 8 40 13 51 72l39 207h-233l-37 -207c-11 -57 -7 -64 26 -72l33 -7l-7 -40h-323l7 40l36 7c32 8 41 13 52 72l66 369h-116zM327 383h232l19 105h-232z" />
    <glyph glyph-name="Hcircumflex" unicode="&#x124;" horiz-adv-x="784" 
d="M-20 0l7 40l36 7c32 8 41 13 52 72l82 455c11 57 5 64 -26 72l-34 8l8 39h323l-7 -39l-37 -8c-31 -8 -39 -12 -51 -72l-35 -191h232l35 191c10 57 5 64 -27 72l-32 8l8 39h323l-8 -39l-37 -8c-30 -7 -40 -12 -51 -72l-83 -455c-10 -57 -5 -64 26 -72l35 -7l-8 -40h-323
l7 40l36 7c32 8 40 13 51 72l39 207h-233l-37 -207c-11 -57 -7 -64 26 -72l33 -7l-7 -40h-323zM328 743l-14 27l153 131h62l117 -133l-18 -25l-142 54z" />
    <glyph glyph-name="Idotaccent" unicode="&#x130;" horiz-adv-x="383" 
d="M-20 0l7 40l40 7c32 7 40 13 51 72l83 455c10 57 4 65 -27 72l-37 8l8 39h331l-7 -39l-41 -8c-30 -6 -40 -13 -51 -72l-81 -455c-11 -57 -8 -64 25 -72l37 -7l-8 -40h-330zM286 744c-51 0 -90 36 -90 83c0 48 39 84 90 84c50 0 89 -35 89 -83c0 -46 -39 -84 -89 -84z" />
    <glyph glyph-name="Ibreve" unicode="&#x12c;" horiz-adv-x="383" 
d="M-20 0l7 40l40 7c32 7 40 13 51 72l83 455c10 57 4 65 -27 72l-37 8l8 39h331l-7 -39l-41 -8c-30 -6 -40 -13 -51 -72l-81 -455c-11 -57 -8 -64 25 -72l37 -7l-8 -40h-330zM285 754c-82 0 -142 64 -142 148l40 11c12 -40 42 -62 114 -62c67 0 103 16 129 62l41 -12
c-28 -90 -92 -147 -182 -147z" />
    <glyph glyph-name="Imacron" unicode="&#x12a;" horiz-adv-x="383" 
d="M-20 0l7 40l40 7c32 7 40 13 51 72l83 455c10 57 4 65 -27 72l-37 8l8 39h331l-7 -39l-41 -8c-30 -6 -40 -13 -51 -72l-81 -455c-11 -57 -8 -64 25 -72l37 -7l-8 -40h-330zM129 777l14 78h306l-14 -78h-306z" />
    <glyph glyph-name="Iogonek" unicode="&#x12e;" horiz-adv-x="383" 
d="M-20 0l7 40l40 7c32 7 40 13 51 72l83 455c10 57 4 65 -27 72l-37 8l8 39h331l-7 -39l-41 -8c-30 -6 -40 -13 -51 -72l-81 -455c-11 -57 -8 -64 25 -72l37 -7l-8 -40h-81c-45 -36 -81 -93 -81 -138c0 -26 19 -44 49 -44c19 0 36 5 48 10l-6 -39c-16 -13 -49 -30 -101 -30
c-66 0 -110 33 -110 86c0 69 70 119 141 155h-189z" />
    <glyph glyph-name="Itilde" unicode="&#x128;" horiz-adv-x="383" 
d="M-20 0l7 40l40 7c32 7 40 13 51 72l83 455c10 57 4 65 -27 72l-37 8l8 39h331l-7 -39l-41 -8c-30 -6 -40 -13 -51 -72l-81 -455c-11 -57 -8 -64 25 -72l37 -7l-8 -40h-330zM139 753l-38 18c37 88 70 141 118 141c54 0 120 -43 157 -43c27 0 43 26 67 63l37 -17
c-36 -88 -65 -141 -115 -141c-54 0 -122 43 -159 43c-27 0 -43 -27 -67 -64z" />
    <glyph glyph-name="Jcircumflex" unicode="&#x134;" horiz-adv-x="370" 
d="M-32 -190c-85 0 -140 41 -140 96c0 36 28 63 71 63c50 0 65 -19 71 -89c1 -17 6 -22 19 -22c30 0 42 19 53 80l115 636c11 57 5 64 -26 72l-34 8l8 39h324l-7 -39l-38 -8c-31 -7 -40 -12 -51 -72l-93 -504c-27 -146 -121 -260 -272 -260zM123 743l-14 27l153 131h62
l117 -133l-18 -25l-142 54z" />
    <glyph glyph-name="Kcommaaccent" unicode="&#x136;" horiz-adv-x="736" 
d="M457 0c-60 102 -110 230 -143 335l4 18l189 176c53 48 62 63 62 87c0 13 -10 24 -32 30l-26 8l7 39h254l-7 -39l-15 -4c-42 -11 -74 -35 -133 -87l-159 -145c46 -127 99 -251 148 -343c9 -16 20 -21 42 -26l36 -9l-7 -40h-220zM-20 0l7 40l36 7c32 8 41 13 52 72l82 455
c11 57 5 64 -26 72l-34 8l8 39h323l-7 -39l-37 -8c-31 -8 -40 -12 -51 -72l-82 -455c-11 -57 -7 -64 26 -72l33 -7l-7 -40h-323zM210 -284l-4 28c90 12 124 49 125 83c-6 -3 -15 -7 -28 -7c-37 0 -62 22 -62 56c0 42 39 67 84 67c49 0 85 -30 85 -82
c0 -67 -52 -138 -200 -145z" />
    <glyph glyph-name="Lacute" unicode="&#x139;" horiz-adv-x="628" 
d="M-20 0l7 40l36 7c32 8 41 12 52 72l82 455c11 57 5 64 -26 72l-34 8l8 39h332l-8 -39l-43 -9c-36 -8 -42 -13 -53 -71l-77 -429c-15 -75 -7 -93 73 -93c82 0 105 16 141 56c28 33 52 69 92 139h43l-56 -247h-569zM197 745l-13 25l149 114c19 15 35 24 54 24
c31 0 52 -29 52 -58c0 -24 -14 -48 -47 -56z" />
    <glyph glyph-name="Lcaron" unicode="&#x13d;" horiz-adv-x="640" 
d="M491 492l-24 10l43 165c7 27 21 45 48 46c26 0 61 -18 60 -52c0 -16 -10 -31 -21 -44zM-20 0l7 40l36 7c32 8 41 12 52 72l82 455c11 57 5 64 -26 72l-34 8l8 39h332l-8 -39l-43 -9c-36 -8 -42 -13 -53 -71l-77 -429c-15 -75 -7 -93 73 -93c82 0 105 16 141 56
c28 33 52 69 92 139h43l-56 -247h-569z" />
    <glyph glyph-name="Lcommaaccent" unicode="&#x13b;" horiz-adv-x="628" 
d="M-20 0l7 40l36 7c32 8 41 12 52 72l82 455c11 57 5 64 -26 72l-34 8l8 39h332l-8 -39l-43 -9c-36 -8 -42 -13 -53 -71l-77 -429c-15 -75 -7 -93 73 -93c82 0 105 16 141 56c28 33 52 69 92 139h43l-56 -247h-569zM155 -284l-4 28c90 12 124 49 125 83
c-6 -3 -15 -7 -28 -7c-37 0 -62 22 -62 56c0 42 39 67 84 67c49 0 85 -30 85 -82c0 -67 -52 -138 -200 -145z" />
    <glyph glyph-name="Ldot" unicode="&#x13f;" horiz-adv-x="584" 
d="M-20 0l7 40l36 7c32 8 41 12 52 72l82 455c11 57 5 64 -26 72l-34 8l8 39h332l-8 -39l-43 -9c-36 -8 -42 -13 -53 -71l-77 -429c-15 -75 -7 -93 73 -93c82 0 105 16 141 56c28 33 52 69 92 139h43l-56 -247h-569zM509 309c-48 0 -88 39 -88 85c0 48 40 87 88 87
c49 0 88 -39 88 -87c0 -46 -39 -85 -88 -85z" />
    <glyph glyph-name="Nacute" unicode="&#x143;" horiz-adv-x="719" 
d="M498 -2l-268 594h-5l-83 -458c-12 -66 -2 -79 37 -88l30 -6l-7 -40h-222l7 40l30 6c39 8 50 25 62 93l79 435c10 57 5 64 -27 72l-33 8l8 39h262l189 -420h4l52 287c13 67 6 79 -33 87l-35 7l8 39h221l-8 -39l-30 -7c-36 -9 -47 -21 -60 -96l-102 -553h-76zM391 745
l-13 25l149 114c19 15 35 24 54 24c31 0 52 -29 52 -58c0 -24 -14 -48 -47 -56z" />
    <glyph glyph-name="Ncaron" unicode="&#x147;" horiz-adv-x="719" 
d="M498 -2l-268 594h-5l-83 -458c-12 -66 -2 -79 37 -88l30 -6l-7 -40h-222l7 40l30 6c39 8 50 25 62 93l79 435c10 57 5 64 -27 72l-33 8l8 39h262l189 -420h4l52 287c13 67 6 79 -33 87l-35 7l8 39h221l-8 -39l-30 -7c-36 -9 -47 -21 -60 -96l-102 -553h-76zM641 914
l14 -27l-153 -131h-62l-117 133l18 25l142 -54z" />
    <glyph glyph-name="Ncommaaccent" unicode="&#x145;" horiz-adv-x="719" 
d="M498 -2l-268 594h-5l-83 -458c-12 -66 -2 -79 37 -88l30 -6l-7 -40h-222l7 40l30 6c39 8 50 25 62 93l79 435c10 57 5 64 -27 72l-33 8l8 39h262l189 -420h4l52 287c13 67 6 79 -33 87l-35 7l8 39h221l-8 -39l-30 -7c-36 -9 -47 -21 -60 -96l-102 -553h-76zM194 -284
l-4 28c90 12 124 49 125 83c-6 -3 -15 -7 -28 -7c-37 0 -62 22 -62 56c0 42 39 67 84 67c49 0 85 -30 85 -82c0 -67 -52 -138 -200 -145z" />
    <glyph glyph-name="Nacute.pl" horiz-adv-x="719" 
d="M498 -2l-268 594h-5l-83 -458c-12 -66 -2 -79 37 -88l30 -6l-7 -40h-222l7 40l30 6c39 8 50 25 62 93l79 435c10 57 5 64 -27 72l-33 8l8 39h262l189 -420h4l52 287c13 67 6 79 -33 87l-35 7l8 39h221l-8 -39l-30 -7c-36 -9 -47 -21 -60 -96l-102 -553h-76zM472 747
l-21 20l54 125c12 28 29 47 54 47c33 0 67 -30 67 -61c0 -18 -10 -36 -30 -49z" />
    <glyph glyph-name="Obreve" unicode="&#x14e;" horiz-adv-x="744" 
d="M335 -13c-160 0 -291 109 -291 284c0 256 199 434 398 434c158 0 289 -104 289 -286c0 -261 -197 -432 -396 -432zM340 41c135 0 215 235 215 434c0 113 -32 176 -117 176c-138 0 -217 -244 -217 -435c0 -111 29 -175 119 -175zM464 754c-82 0 -142 64 -142 148l40 11
c12 -40 42 -62 114 -62c67 0 103 16 129 62l41 -12c-28 -90 -92 -147 -182 -147z" />
    <glyph glyph-name="Ohungarumlaut" unicode="&#x150;" horiz-adv-x="744" 
d="M335 -13c-160 0 -291 109 -291 284c0 256 199 434 398 434c158 0 289 -104 289 -286c0 -261 -197 -432 -396 -432zM340 41c135 0 215 235 215 434c0 113 -32 176 -117 176c-138 0 -217 -244 -217 -435c0 -111 29 -175 119 -175zM558 759l-20 22l69 114c16 27 30 37 49 37
c26 0 58 -27 58 -55c0 -18 -10 -36 -39 -52zM372 759l-20 22l68 114c16 27 32 37 50 37c23 0 56 -25 56 -54c0 -20 -12 -41 -43 -58z" />
    <glyph glyph-name="Omacron" unicode="&#x14c;" horiz-adv-x="744" 
d="M335 -13c-160 0 -291 109 -291 284c0 256 199 434 398 434c158 0 289 -104 289 -286c0 -261 -197 -432 -396 -432zM340 41c135 0 215 235 215 434c0 113 -32 176 -117 176c-138 0 -217 -244 -217 -435c0 -111 29 -175 119 -175zM308 777l14 78h306l-14 -78h-306z" />
    <glyph glyph-name="Oacute.pl" horiz-adv-x="744" 
d="M335 -13c-160 0 -291 109 -291 284c0 256 199 434 398 434c158 0 289 -104 289 -286c0 -261 -197 -432 -396 -432zM340 41c135 0 215 235 215 434c0 113 -32 176 -117 176c-138 0 -217 -244 -217 -435c0 -111 29 -175 119 -175zM465 747l-21 20l54 125c12 28 29 47 54 47
c33 0 67 -30 67 -61c0 -18 -10 -36 -30 -49z" />
    <glyph glyph-name="Oslashacute" unicode="&#x1fe;" horiz-adv-x="744" 
d="M51 -64l88 119c-58 49 -95 123 -95 216c0 256 200 434 399 434c55 0 107 -13 152 -38l47 63h65l-69 -93c57 -49 93 -123 93 -218c0 -261 -197 -432 -397 -432c-55 0 -107 13 -151 38l-66 -89h-66zM213 216c0 -22 0 -42 2 -60l329 443c-16 35 -48 52 -106 52
c-138 0 -225 -244 -225 -435zM340 41c135 0 222 235 222 434c0 21 -1 40 -2 57l-329 -442c17 -33 49 -49 109 -49zM384 745l-13 25l149 114c19 15 35 24 54 24c31 0 52 -29 52 -58c0 -24 -14 -48 -47 -56z" />
    <glyph glyph-name="Racute" unicode="&#x154;" horiz-adv-x="719" 
d="M-20 0l7 40l36 7c32 8 41 12 52 72l82 455c11 57 6 64 -26 72l-34 8l8 39h307c183 0 258 -70 259 -171c0 -95 -60 -162 -160 -188v-5c30 -93 67 -185 107 -254c9 -15 15 -22 38 -28l27 -7l-7 -40h-205c-51 88 -91 203 -117 295h-72l-32 -176c-11 -57 -7 -65 23 -72l36 -7
l-8 -40h-321zM342 348c115 0 158 82 158 199c0 70 -28 93 -98 93c-27 0 -47 -4 -60 -7l-50 -281c3 -1 20 -4 50 -4zM330 745l-13 25l149 114c19 15 35 24 54 24c31 0 52 -29 52 -58c0 -24 -14 -48 -47 -56z" />
    <glyph glyph-name="Rcaron" unicode="&#x158;" horiz-adv-x="719" 
d="M-20 0l7 40l36 7c32 8 41 12 52 72l82 455c11 57 6 64 -26 72l-34 8l8 39h307c183 0 258 -70 259 -171c0 -95 -60 -162 -160 -188v-5c30 -93 67 -185 107 -254c9 -15 15 -22 38 -28l27 -7l-7 -40h-205c-51 88 -91 203 -117 295h-72l-32 -176c-11 -57 -7 -65 23 -72l36 -7
l-8 -40h-321zM342 348c115 0 158 82 158 199c0 70 -28 93 -98 93c-27 0 -47 -4 -60 -7l-50 -281c3 -1 20 -4 50 -4zM580 914l14 -27l-153 -131h-62l-117 133l18 25l142 -54z" />
    <glyph glyph-name="Rcommaaccent" unicode="&#x156;" horiz-adv-x="719" 
d="M-20 0l7 40l36 7c32 8 41 12 52 72l82 455c11 57 6 64 -26 72l-34 8l8 39h307c183 0 258 -70 259 -171c0 -95 -60 -162 -160 -188v-5c30 -93 67 -185 107 -254c9 -15 15 -22 38 -28l27 -7l-7 -40h-205c-51 88 -91 203 -117 295h-72l-32 -176c-11 -57 -7 -65 23 -72l36 -7
l-8 -40h-321zM342 348c115 0 158 82 158 199c0 70 -28 93 -98 93c-27 0 -47 -4 -60 -7l-50 -281c3 -1 20 -4 50 -4zM207 -284l-4 28c90 12 124 49 125 83c-6 -3 -15 -7 -28 -7c-37 0 -62 22 -62 56c0 42 39 67 84 67c49 0 85 -30 85 -82c0 -67 -52 -138 -200 -145z" />
    <glyph glyph-name="Sacute" unicode="&#x15a;" horiz-adv-x="548" 
d="M214 -13c-85 0 -168 22 -208 44l16 182h45c18 -55 33 -86 48 -113c23 -39 51 -59 110 -59c84 0 127 49 127 106c0 52 -24 87 -131 144c-97 53 -138 111 -138 192c0 132 119 222 270 222c87 0 141 -15 175 -31l-16 -164h-42c-16 48 -24 69 -44 99c-17 27 -38 43 -92 43
c-62 0 -114 -37 -114 -99c0 -46 21 -76 116 -128c113 -63 165 -118 165 -206c0 -130 -124 -232 -287 -232zM274 745l-13 25l149 114c19 15 35 24 54 24c31 0 52 -29 52 -58c0 -24 -14 -48 -47 -56z" />
    <glyph glyph-name="Scedilla" unicode="&#x15e;" horiz-adv-x="548" 
d="M56 -262l4 31c101 19 136 44 136 75c0 19 -13 35 -61 37l-5 14l55 93c-75 4 -144 23 -179 43l16 182h45c18 -55 33 -86 48 -113c23 -39 51 -59 110 -59c84 0 127 49 127 106c0 52 -24 87 -131 144c-97 53 -138 111 -138 192c0 132 119 222 270 222c87 0 141 -15 175 -31
l-16 -164h-42c-16 48 -24 69 -44 99c-17 27 -38 43 -92 43c-62 0 -114 -37 -114 -99c0 -46 21 -76 116 -128c113 -63 165 -118 165 -206c0 -125 -114 -223 -267 -231l-34 -41c75 -8 94 -48 94 -80c0 -67 -90 -119 -238 -129z" />
    <glyph glyph-name="Scircumflex" unicode="&#x15c;" horiz-adv-x="548" 
d="M214 -13c-85 0 -168 22 -208 44l16 182h45c18 -55 33 -86 48 -113c23 -39 51 -59 110 -59c84 0 127 49 127 106c0 52 -24 87 -131 144c-97 53 -138 111 -138 192c0 132 119 222 270 222c87 0 141 -15 175 -31l-16 -164h-42c-16 48 -24 69 -44 99c-17 27 -38 43 -92 43
c-62 0 -114 -37 -114 -99c0 -46 21 -76 116 -128c113 -63 165 -118 165 -206c0 -130 -124 -232 -287 -232zM197 743l-14 27l153 131h62l117 -133l-18 -25l-142 54z" />
    <glyph glyph-name="Scommaaccent" unicode="&#x218;" horiz-adv-x="548" 
d="M214 -13c-85 0 -168 22 -208 44l16 182h45c18 -55 33 -86 48 -113c23 -39 51 -59 110 -59c84 0 127 49 127 106c0 52 -24 87 -131 144c-97 53 -138 111 -138 192c0 132 119 222 270 222c87 0 141 -15 175 -31l-16 -164h-42c-16 48 -24 69 -44 99c-17 27 -38 43 -92 43
c-62 0 -114 -37 -114 -99c0 -46 21 -76 116 -128c113 -63 165 -118 165 -206c0 -130 -124 -232 -287 -232zM84 -284l-4 28c90 12 124 49 125 83c-6 -3 -15 -7 -28 -7c-37 0 -62 22 -62 56c0 42 39 67 84 67c49 0 85 -30 85 -82c0 -67 -52 -138 -200 -145z" />
    <glyph glyph-name="Sacute.pl" horiz-adv-x="548" 
d="M214 -13c-85 0 -168 22 -208 44l16 182h45c18 -55 33 -86 48 -113c23 -39 51 -59 110 -59c84 0 127 49 127 106c0 52 -24 87 -131 144c-97 53 -138 111 -138 192c0 132 119 222 270 222c87 0 141 -15 175 -31l-16 -164h-42c-16 48 -24 69 -44 99c-17 27 -38 43 -92 43
c-62 0 -114 -37 -114 -99c0 -46 21 -76 116 -128c113 -63 165 -118 165 -206c0 -130 -124 -232 -287 -232zM355 747l-21 20l54 125c12 28 29 47 54 47c33 0 67 -30 67 -61c0 -18 -10 -36 -30 -49z" />
    <glyph glyph-name="Tcaron" unicode="&#x164;" horiz-adv-x="653" 
d="M112 0l7 40l40 7c37 8 45 12 56 72l94 521h-13c-59 0 -74 -4 -99 -36c-30 -35 -59 -90 -96 -159h-45l55 248h587l-31 -248h-42c-14 67 -28 123 -44 163c-10 26 -22 32 -87 32h-10l-94 -521c-10 -58 -6 -65 28 -72l37 -7l-7 -40h-336zM587 914l14 -27l-153 -131h-62
l-117 133l18 25l142 -54z" />
    <glyph glyph-name="Tcommaaccent" unicode="&#x162;" horiz-adv-x="653" 
d="M112 0l7 40l40 7c37 8 45 12 56 72l94 521h-13c-59 0 -74 -4 -99 -36c-30 -35 -59 -90 -96 -159h-45l55 248h587l-31 -248h-42c-14 67 -28 123 -44 163c-10 26 -22 32 -87 32h-10l-94 -521c-10 -58 -6 -65 28 -72l37 -7l-7 -40h-336zM147 -284l-4 28c90 12 124 49 125 83
c-6 -3 -15 -7 -28 -7c-37 0 -62 22 -62 56c0 42 39 67 84 67c49 0 85 -30 85 -82c0 -67 -52 -138 -200 -145z" />
    <glyph glyph-name="Tbar" unicode="&#x166;" horiz-adv-x="653" 
d="M117 349l9 53h140l43 238h-13c-59 0 -74 -4 -99 -36c-30 -35 -59 -90 -96 -159h-45l55 248h587l-31 -248h-42c-14 67 -28 123 -44 163c-10 26 -22 32 -87 32h-10l-43 -238h144l-9 -53h-145l-41 -230c-10 -58 -6 -65 28 -72l37 -7l-7 -40h-336l7 40l40 7c37 8 45 12 56 72
l41 230h-139z" />
    <glyph glyph-name="Ubreve" unicode="&#x16c;" horiz-adv-x="721" 
d="M358 -13c-183 0 -301 75 -265 269l58 318c10 57 5 64 -26 72l-34 8l8 39h324l-8 -39l-37 -8c-33 -8 -40 -12 -51 -72l-63 -349c-20 -110 13 -170 129 -170c103 0 145 48 164 151l64 354c13 69 4 79 -36 87l-33 7l8 39h223l-8 -39l-31 -7c-31 -7 -46 -18 -60 -90l-67 -364
c-21 -118 -99 -206 -259 -206zM490 754c-82 0 -142 64 -142 148l40 11c12 -40 42 -62 114 -62c67 0 103 16 129 62l41 -12c-28 -90 -92 -147 -182 -147z" />
    <glyph glyph-name="Uhungarumlaut" unicode="&#x170;" horiz-adv-x="721" 
d="M358 -13c-183 0 -301 75 -265 269l58 318c10 57 5 64 -26 72l-34 8l8 39h324l-8 -39l-37 -8c-33 -8 -40 -12 -51 -72l-63 -349c-20 -110 13 -170 129 -170c103 0 145 48 164 151l64 354c13 69 4 79 -36 87l-33 7l8 39h223l-8 -39l-31 -7c-31 -7 -46 -18 -60 -90l-67 -364
c-21 -118 -99 -206 -259 -206zM584 759l-20 22l69 114c16 27 30 37 49 37c26 0 58 -27 58 -55c0 -18 -10 -36 -39 -52zM398 759l-20 22l68 114c16 27 32 37 50 37c23 0 56 -25 56 -54c0 -20 -12 -41 -43 -58z" />
    <glyph glyph-name="Umacron" unicode="&#x16a;" horiz-adv-x="721" 
d="M358 -13c-183 0 -301 75 -265 269l58 318c10 57 5 64 -26 72l-34 8l8 39h324l-8 -39l-37 -8c-33 -8 -40 -12 -51 -72l-63 -349c-20 -110 13 -170 129 -170c103 0 145 48 164 151l64 354c13 69 4 79 -36 87l-33 7l8 39h223l-8 -39l-31 -7c-31 -7 -46 -18 -60 -90l-67 -364
c-21 -118 -99 -206 -259 -206zM334 777l14 78h306l-14 -78h-306z" />
    <glyph glyph-name="Uogonek" unicode="&#x172;" horiz-adv-x="721" 
d="M358 -13c-183 0 -301 75 -265 269l58 318c10 57 5 64 -26 72l-34 8l8 39h324l-8 -39l-37 -8c-33 -8 -40 -12 -51 -72l-63 -349c-20 -110 13 -170 129 -170c103 0 145 48 164 151l64 354c13 69 4 79 -36 87l-33 7l8 39h223l-8 -39l-31 -7c-31 -7 -46 -18 -60 -90l-67 -364
c-14 -79 -54 -145 -126 -179c-70 -33 -137 -62 -137 -152c0 -26 19 -44 49 -44c19 0 36 5 48 10l-6 -39c-16 -13 -49 -30 -101 -30c-66 0 -110 33 -110 86c0 65 59 108 127 142h-3z" />
    <glyph glyph-name="Uring" unicode="&#x16e;" horiz-adv-x="721" 
d="M358 -13c-183 0 -301 75 -265 269l58 318c10 57 5 64 -26 72l-34 8l8 39h324l-8 -39l-37 -8c-33 -8 -40 -12 -51 -72l-63 -349c-20 -110 13 -170 129 -170c103 0 145 48 164 151l64 354c13 69 4 79 -36 87l-33 7l8 39h223l-8 -39l-31 -7c-31 -7 -46 -18 -60 -90l-67 -364
c-21 -118 -99 -206 -259 -206zM494 711c-69 0 -116 46 -116 107c0 62 52 109 116 109s115 -45 115 -109c0 -61 -51 -107 -115 -107zM494 756c35 0 57 26 57 62s-22 63 -57 63s-58 -27 -58 -63s22 -62 58 -62z" />
    <glyph glyph-name="Utilde" unicode="&#x168;" horiz-adv-x="721" 
d="M358 -13c-183 0 -301 75 -265 269l58 318c10 57 5 64 -26 72l-34 8l8 39h324l-8 -39l-37 -8c-33 -8 -40 -12 -51 -72l-63 -349c-20 -110 13 -170 129 -170c103 0 145 48 164 151l64 354c13 69 4 79 -36 87l-33 7l8 39h223l-8 -39l-31 -7c-31 -7 -46 -18 -60 -90l-67 -364
c-21 -118 -99 -206 -259 -206zM345 753l-38 18c37 88 70 141 118 141c54 0 120 -43 157 -43c27 0 43 26 67 63l37 -17c-36 -88 -65 -141 -115 -141c-54 0 -122 43 -159 43c-27 0 -43 -27 -67 -64z" />
    <glyph glyph-name="Wacute" unicode="&#x1e82;" horiz-adv-x="1010" 
d="M222 0l-72 570c-9 68 -20 69 -49 77l-23 7l7 39h311l-8 -39l-23 -6c-31 -8 -42 -23 -42 -56c0 -18 3 -36 5 -58l37 -348h4l159 311l-10 86c-5 43 -16 56 -41 64l-22 7l7 39h308l-7 -39l-33 -7c-33 -8 -44 -28 -44 -57c0 -18 1 -40 3 -58l34 -346h6l172 361
c14 30 19 46 19 68c0 19 -11 29 -36 34l-22 5l7 39h219l-7 -39l-22 -6c-33 -8 -44 -18 -86 -101l-279 -547h-109l-41 401h-3l-207 -401h-112zM547 745l-13 25l149 114c19 15 35 24 54 24c31 0 52 -29 52 -58c0 -24 -14 -48 -47 -56z" />
    <glyph glyph-name="Wcircumflex" unicode="&#x174;" horiz-adv-x="1010" 
d="M222 0l-72 570c-9 68 -20 69 -49 77l-23 7l7 39h311l-8 -39l-23 -6c-31 -8 -42 -23 -42 -56c0 -18 3 -36 5 -58l37 -348h4l159 311l-10 86c-5 43 -16 56 -41 64l-22 7l7 39h308l-7 -39l-33 -7c-33 -8 -44 -28 -44 -57c0 -18 1 -40 3 -58l34 -346h6l172 361
c14 30 19 46 19 68c0 19 -11 29 -36 34l-22 5l7 39h219l-7 -39l-22 -6c-33 -8 -44 -18 -86 -101l-279 -547h-109l-41 401h-3l-207 -401h-112zM470 743l-14 27l153 131h62l117 -133l-18 -25l-142 54z" />
    <glyph glyph-name="Wdieresis" unicode="&#x1e84;" horiz-adv-x="1010" 
d="M222 0l-72 570c-9 68 -20 69 -49 77l-23 7l7 39h311l-8 -39l-23 -6c-31 -8 -42 -23 -42 -56c0 -18 3 -36 5 -58l37 -348h4l159 311l-10 86c-5 43 -16 56 -41 64l-22 7l7 39h308l-7 -39l-33 -7c-33 -8 -44 -28 -44 -57c0 -18 1 -40 3 -58l34 -346h6l172 361
c14 30 19 46 19 68c0 19 -11 29 -36 34l-22 5l7 39h219l-7 -39l-22 -6c-33 -8 -44 -18 -86 -101l-279 -547h-109l-41 401h-3l-207 -401h-112zM514 748c-45 0 -82 32 -82 78s39 80 84 80c43 0 82 -32 82 -78c0 -45 -40 -80 -84 -80zM749 748c-45 0 -82 32 -82 78s39 80 84 80
c44 0 81 -32 81 -78c0 -45 -39 -80 -83 -80z" />
    <glyph glyph-name="Wgrave" unicode="&#x1e80;" horiz-adv-x="1010" 
d="M222 0l-72 570c-9 68 -20 69 -49 77l-23 7l7 39h311l-8 -39l-23 -6c-31 -8 -42 -23 -42 -56c0 -18 3 -36 5 -58l37 -348h4l159 311l-10 86c-5 43 -16 56 -41 64l-22 7l7 39h308l-7 -39l-33 -7c-33 -8 -44 -28 -44 -57c0 -18 1 -40 3 -58l34 -346h6l172 361
c14 30 19 46 19 68c0 19 -11 29 -36 34l-22 5l7 39h219l-7 -39l-22 -6c-33 -8 -44 -18 -86 -101l-279 -547h-109l-41 401h-3l-207 -401h-112zM725 745l-195 49c-33 8 -47 33 -47 55c0 30 24 60 54 60c20 0 36 -9 54 -23l148 -112z" />
    <glyph glyph-name="Ycircumflex" unicode="&#x176;" horiz-adv-x="650" 
d="M109 0l8 40l39 7c38 8 44 14 55 72l31 168l-89 274c-20 64 -31 78 -57 86l-21 7l8 39h323l-8 -39l-30 -7c-32 -7 -47 -21 -47 -46c0 -14 3 -33 12 -64l56 -186h5l124 186c25 37 34 57 34 75c0 17 -9 29 -36 35l-23 7l8 39h225l-8 -39l-20 -6c-33 -10 -55 -33 -100 -98
l-181 -262l-31 -169c-10 -57 -6 -64 29 -72l35 -7l-7 -40h-334zM288 743l-14 27l153 131h62l117 -133l-18 -25l-142 54z" />
    <glyph glyph-name="Ygrave" unicode="&#x1ef2;" horiz-adv-x="650" 
d="M109 0l8 40l39 7c38 8 44 14 55 72l31 168l-89 274c-20 64 -31 78 -57 86l-21 7l8 39h323l-8 -39l-30 -7c-32 -7 -47 -21 -47 -46c0 -14 3 -33 12 -64l56 -186h5l124 186c25 37 34 57 34 75c0 17 -9 29 -36 35l-23 7l8 39h225l-8 -39l-20 -6c-33 -10 -55 -33 -100 -98
l-181 -262l-31 -169c-10 -57 -6 -64 29 -72l35 -7l-7 -40h-334zM543 745l-195 49c-33 8 -47 33 -47 55c0 30 24 60 54 60c20 0 36 -9 54 -23l148 -112z" />
    <glyph glyph-name="Zacute" unicode="&#x179;" horiz-adv-x="598" 
d="M-23 0l10 52l457 588v4h-41c-129 0 -148 -9 -183 -49c-32 -33 -50 -63 -92 -130h-43l49 228h514l-10 -52l-455 -585v-5h44c143 0 158 6 200 50c36 36 62 81 102 149h43l-52 -250h-543zM311 745l-13 25l149 114c19 15 35 24 54 24c31 0 52 -29 52 -58
c0 -24 -14 -48 -47 -56z" />
    <glyph glyph-name="Zacute.pl" horiz-adv-x="598" 
d="M-23 0l10 52l457 588v4h-41c-129 0 -148 -9 -183 -49c-32 -33 -50 -63 -92 -130h-43l49 228h514l-10 -52l-455 -585v-5h44c143 0 158 6 200 50c36 36 62 81 102 149h43l-52 -250h-543zM368 747l-21 20l54 125c12 28 29 47 54 47c33 0 67 -30 67 -61
c0 -18 -10 -36 -30 -49z" />
    <glyph glyph-name="Zdotaccent" unicode="&#x17b;" horiz-adv-x="598" 
d="M-23 0l10 52l457 588v4h-41c-129 0 -148 -9 -183 -49c-32 -33 -50 -63 -92 -130h-43l49 228h514l-10 -52l-455 -585v-5h44c143 0 158 6 200 50c36 36 62 81 102 149h43l-52 -250h-543zM392 744c-51 0 -90 36 -90 83c0 48 39 84 90 84c50 0 89 -35 89 -83
c0 -46 -39 -84 -89 -84z" />
    <glyph glyph-name="abreve" unicode="&#x103;" horiz-adv-x="605" 
d="M140 -13c-82 0 -124 57 -124 137c0 222 180 408 339 408c67 0 95 -15 130 -40h4l67 45l24 -10s-21 -46 -45 -156l-48 -225c-3 -14 -5 -24 -5 -35c0 -20 15 -27 50 -5l19 11l22 -29c-48 -45 -119 -99 -189 -99c-52 0 -59 38 -59 62c0 15 4 38 7 54h-4
c-45 -60 -110 -118 -188 -118zM215 79c43 0 93 54 127 97l59 266c-8 19 -21 39 -55 39c-81 0 -174 -171 -174 -341c0 -42 15 -61 43 -61zM372 593c-82 0 -128 71 -129 165l40 11c12 -46 29 -79 101 -79c67 0 96 32 122 79l41 -12c-28 -99 -89 -164 -175 -164z" />
    <glyph glyph-name="amacron" unicode="&#x101;" horiz-adv-x="605" 
d="M140 -13c-82 0 -124 57 -124 137c0 222 180 408 339 408c67 0 95 -15 130 -40h4l67 45l24 -10s-21 -46 -45 -156l-48 -225c-3 -14 -5 -24 -5 -35c0 -20 15 -27 50 -5l19 11l22 -29c-48 -45 -119 -99 -189 -99c-52 0 -59 38 -59 62c0 15 4 38 7 54h-4
c-45 -60 -110 -118 -188 -118zM215 79c43 0 93 54 127 97l59 266c-8 19 -21 39 -55 39c-81 0 -174 -171 -174 -341c0 -42 15 -61 43 -61zM228 622l14 78h292l-14 -78h-292z" />
    <glyph glyph-name="aogonek" unicode="&#x105;" horiz-adv-x="605" 
d="M338 -241c-66 0 -110 33 -110 86c0 68 64 111 136 146c-34 9 -39 39 -39 60c0 15 4 38 7 54h-4c-45 -60 -110 -118 -188 -118c-82 0 -124 57 -124 137c0 222 180 408 339 408c67 0 95 -15 130 -40h4l67 45l24 -10s-21 -46 -45 -156l-48 -225c-3 -14 -5 -24 -5 -35
c0 -20 15 -27 50 -5l19 11l22 -29c-27 -25 -63 -53 -98 -73c-63 -36 -127 -85 -127 -153c0 -26 19 -44 49 -44c19 0 36 5 48 10l-6 -39c-16 -13 -49 -30 -101 -30zM215 79c43 0 93 54 127 97l59 266c-8 19 -21 39 -55 39c-81 0 -174 -171 -174 -341c0 -42 15 -61 43 -61z
" />
    <glyph glyph-name="aringacute" unicode="&#x1fb;" horiz-adv-x="605" 
d="M140 -13c-82 0 -124 57 -124 137c0 222 180 408 339 408c67 0 95 -15 130 -40h4l67 45l24 -10s-21 -46 -45 -156l-48 -225c-3 -14 -5 -24 -5 -35c0 -20 15 -27 50 -5l19 11l22 -29c-48 -45 -119 -99 -189 -99c-52 0 -59 38 -59 62c0 15 4 38 7 54h-4
c-45 -60 -110 -118 -188 -118zM215 79c43 0 93 54 127 97l59 266c-8 19 -21 39 -55 39c-81 0 -174 -171 -174 -341c0 -42 15 -61 43 -61zM386 592c-69 0 -116 46 -116 107c0 62 52 109 116 109s115 -45 115 -109c0 -61 -51 -107 -115 -107zM386 637c35 0 57 26 57 62
s-22 63 -57 63s-58 -27 -58 -63s22 -62 58 -62zM323 835l-13 25l149 114c19 15 35 24 54 24c31 0 52 -29 52 -58c0 -24 -14 -48 -47 -56z" />
    <glyph glyph-name="aeacute" unicode="&#x1fd;" horiz-adv-x="772" 
d="M123 -13c-68 0 -115 42 -115 115c0 97 81 162 308 200l8 45c18 102 2 137 -64 137c-27 0 -39 -6 -42 -31c-8 -59 -28 -79 -72 -79c-38 0 -62 21 -62 55c0 61 83 104 192 104c86 0 143 -27 164 -84c57 53 125 84 191 84c90 0 145 -36 145 -105c0 -96 -174 -175 -328 -201
c-2 -16 -3 -32 -3 -49c0 -69 26 -111 86 -111c54 0 104 38 152 82l31 -30c-48 -58 -124 -132 -248 -132c-88 0 -142 42 -161 107h-4c-37 -48 -96 -107 -178 -107zM609 484c-49 0 -126 -87 -154 -211c66 16 115 40 146 69c25 23 44 52 44 97c0 31 -15 45 -36 45zM297 153
c0 39 4 75 9 102c-125 -27 -158 -58 -158 -127c0 -35 16 -53 45 -53c30 0 71 27 104 67v11zM417 592l-13 25l149 114c19 15 35 24 54 24c31 0 52 -29 52 -58c0 -24 -14 -48 -47 -56z" />
    <glyph glyph-name="cacute" unicode="&#x107;" horiz-adv-x="493" 
d="M192 -13c-111 0 -171 71 -171 164c0 221 180 381 333 381c100 0 150 -47 150 -96c0 -44 -25 -67 -70 -67s-64 25 -69 80c-2 29 -8 33 -30 33c-78 0 -160 -155 -160 -306c0 -70 24 -108 80 -108c57 0 103 38 153 84l30 -31c-44 -60 -122 -134 -246 -134zM276 592l-13 25
l149 114c19 15 35 24 54 24c31 0 52 -29 52 -58c0 -24 -14 -48 -47 -56z" />
    <glyph glyph-name="ccaron" unicode="&#x10d;" horiz-adv-x="493" 
d="M192 -13c-111 0 -171 71 -171 164c0 221 180 381 333 381c100 0 150 -47 150 -96c0 -44 -25 -67 -70 -67s-64 25 -69 80c-2 29 -8 33 -30 33c-78 0 -160 -155 -160 -306c0 -70 24 -108 80 -108c57 0 103 38 153 84l30 -31c-44 -60 -122 -134 -246 -134zM328 587l-105 162
l23 25l125 -83l160 83l18 -26l-160 -161h-61z" />
    <glyph glyph-name="ccircumflex" unicode="&#x109;" horiz-adv-x="493" 
d="M192 -13c-111 0 -171 71 -171 164c0 221 180 381 333 381c100 0 150 -47 150 -96c0 -44 -25 -67 -70 -67s-64 25 -69 80c-2 29 -8 33 -30 33c-78 0 -160 -155 -160 -306c0 -70 24 -108 80 -108c57 0 103 38 153 84l30 -31c-44 -60 -122 -134 -246 -134zM203 581l-17 27
l159 161h62l104 -163l-22 -25l-125 84z" />
    <glyph glyph-name="cdotaccent" unicode="&#x10b;" horiz-adv-x="493" 
d="M192 -13c-111 0 -171 71 -171 164c0 221 180 381 333 381c100 0 150 -47 150 -96c0 -44 -25 -67 -70 -67s-64 25 -69 80c-2 29 -8 33 -30 33c-78 0 -160 -155 -160 -306c0 -70 24 -108 80 -108c57 0 103 38 153 84l30 -31c-44 -60 -122 -134 -246 -134zM365 598
c-51 0 -90 36 -90 83c0 48 39 84 90 84c50 0 89 -35 89 -83c0 -46 -39 -84 -89 -84z" />
    <glyph glyph-name="cacute.pl" horiz-adv-x="493" 
d="M192 -13c-111 0 -171 71 -171 164c0 221 180 381 333 381c100 0 150 -47 150 -96c0 -44 -25 -67 -70 -67s-64 25 -69 80c-2 29 -8 33 -30 33c-78 0 -160 -155 -160 -306c0 -70 24 -108 80 -108c57 0 103 38 153 84l30 -31c-44 -60 -122 -134 -246 -134zM340 575l-21 20
l65 139c13 28 29 47 54 47c33 0 67 -30 67 -61c0 -18 -11 -35 -30 -49z" />
    <glyph glyph-name="dcaron" unicode="&#x10f;" horiz-adv-x="617" 
d="M145 -13c-83 0 -129 56 -129 148c0 213 179 397 336 397c36 0 59 -7 72 -14h5s3 33 12 73l8 38c11 46 6 55 -21 67l-37 16l6 35l226 19l13 -10s-18 -50 -31 -115l-103 -495c-3 -12 -6 -22 -6 -37c0 -20 18 -26 52 -3l17 11l22 -29c-48 -45 -120 -99 -191 -99
c-49 0 -56 36 -56 61c0 16 2 37 7 56h-4c-49 -60 -117 -119 -198 -119zM219 77c45 0 100 57 135 100l57 266c-7 19 -26 38 -61 38c-87 0 -179 -176 -179 -336c0 -50 20 -68 48 -68zM677 571l-24 10l32 138c6 27 19 45 46 46c26 0 61 -18 60 -52c0 -16 -9 -31 -21 -44z" />
    <glyph glyph-name="ebreve" unicode="&#x115;" horiz-adv-x="502" 
d="M194 -13c-115 0 -173 70 -173 166c0 217 191 380 344 380c83 0 140 -39 140 -109c0 -99 -145 -166 -330 -220v-26c0 -69 27 -111 84 -111c55 0 103 39 152 82l30 -30c-44 -55 -122 -132 -247 -132zM338 484c-54 0 -133 -97 -156 -230c63 21 107 43 137 70
c31 29 53 68 53 113c0 29 -13 47 -34 47zM353 593c-82 0 -128 71 -129 165l40 11c12 -46 29 -79 101 -79c67 0 96 32 122 79l41 -12c-28 -99 -89 -164 -175 -164z" />
    <glyph glyph-name="ecaron" unicode="&#x11b;" horiz-adv-x="502" 
d="M194 -13c-115 0 -173 70 -173 166c0 217 191 380 344 380c83 0 140 -39 140 -109c0 -99 -145 -166 -330 -220v-26c0 -69 27 -111 84 -111c55 0 103 39 152 82l30 -30c-44 -55 -122 -132 -247 -132zM338 484c-54 0 -133 -97 -156 -230c63 21 107 43 137 70
c31 29 53 68 53 113c0 29 -13 47 -34 47zM326 587l-105 162l23 25l125 -83l160 83l18 -26l-160 -161h-61z" />
    <glyph glyph-name="edotaccent" unicode="&#x117;" horiz-adv-x="502" 
d="M194 -13c-115 0 -173 70 -173 166c0 217 191 380 344 380c83 0 140 -39 140 -109c0 -99 -145 -166 -330 -220v-26c0 -69 27 -111 84 -111c55 0 103 39 152 82l30 -30c-44 -55 -122 -132 -247 -132zM338 484c-54 0 -133 -97 -156 -230c63 21 107 43 137 70
c31 29 53 68 53 113c0 29 -13 47 -34 47zM363 598c-51 0 -90 36 -90 83c0 48 39 84 90 84c50 0 89 -35 89 -83c0 -46 -39 -84 -89 -84z" />
    <glyph glyph-name="emacron" unicode="&#x113;" horiz-adv-x="502" 
d="M194 -13c-115 0 -173 70 -173 166c0 217 191 380 344 380c83 0 140 -39 140 -109c0 -99 -145 -166 -330 -220v-26c0 -69 27 -111 84 -111c55 0 103 39 152 82l30 -30c-44 -55 -122 -132 -247 -132zM338 484c-54 0 -133 -97 -156 -230c63 21 107 43 137 70
c31 29 53 68 53 113c0 29 -13 47 -34 47zM210 622l14 78h292l-14 -78h-292z" />
    <glyph glyph-name="eogonek" unicode="&#x119;" horiz-adv-x="502" 
d="M200 -241c-66 0 -110 33 -110 86c0 66 61 108 130 143c-9 0 -17 -1 -26 -1c-115 0 -173 70 -173 166c0 217 191 380 344 380c83 0 140 -39 140 -109c0 -99 -145 -166 -330 -220v-26c0 -69 27 -111 84 -111c55 0 103 39 152 82l30 -30c-33 -42 -81 -83 -140 -121
c-49 -31 -91 -86 -91 -136c0 -26 19 -44 49 -44c19 0 36 5 48 10l-6 -39c-16 -13 -49 -30 -101 -30zM338 484c-54 0 -133 -97 -156 -230c63 21 107 43 137 70c31 29 53 68 53 113c0 29 -13 47 -34 47z" />
    <glyph glyph-name="gbreve" unicode="&#x11f;" horiz-adv-x="535" 
d="M179 -230c-164 0 -242 52 -242 122c0 64 80 103 154 123v4c-37 12 -65 36 -65 80c0 55 50 98 92 122v4c-36 20 -64 60 -64 114c0 119 120 195 242 195c53 0 86 -10 118 -27c43 46 92 76 144 76c38 0 58 -22 58 -51c0 -37 -23 -61 -55 -61c-30 0 -40 16 -51 30
c-10 13 -42 0 -61 -26v-4c30 -26 42 -57 42 -92c0 -118 -117 -190 -243 -190c-33 0 -65 7 -91 17c-14 -9 -27 -29 -27 -51c0 -21 13 -32 45 -34l127 -6c118 -6 179 -49 179 -134c0 -128 -131 -211 -302 -211zM196 -181c105 0 162 47 162 103c0 37 -15 56 -76 62l-143 14
c-31 -15 -74 -47 -74 -98s40 -81 131 -81zM250 235c62 0 104 78 104 179c0 45 -20 73 -60 73c-66 0 -104 -98 -104 -182c0 -43 20 -70 60 -70zM329 593c-82 0 -128 71 -129 165l40 11c12 -46 29 -79 101 -79c67 0 96 32 122 79l41 -12c-28 -99 -89 -164 -175 -164z" />
    <glyph glyph-name="gcircumflex" unicode="&#x11d;" horiz-adv-x="535" 
d="M179 -230c-164 0 -242 52 -242 122c0 64 80 103 154 123v4c-37 12 -65 36 -65 80c0 55 50 98 92 122v4c-36 20 -64 60 -64 114c0 119 120 195 242 195c53 0 86 -10 118 -27c43 46 92 76 144 76c38 0 58 -22 58 -51c0 -37 -23 -61 -55 -61c-30 0 -40 16 -51 30
c-10 13 -42 0 -61 -26v-4c30 -26 42 -57 42 -92c0 -118 -117 -190 -243 -190c-33 0 -65 7 -91 17c-14 -9 -27 -29 -27 -51c0 -21 13 -32 45 -34l127 -6c118 -6 179 -49 179 -134c0 -128 -131 -211 -302 -211zM196 -181c105 0 162 47 162 103c0 37 -15 56 -76 62l-143 14
c-31 -15 -74 -47 -74 -98s40 -81 131 -81zM250 235c62 0 104 78 104 179c0 45 -20 73 -60 73c-66 0 -104 -98 -104 -182c0 -43 20 -70 60 -70zM177 581l-17 27l159 161h62l104 -163l-22 -25l-125 84z" />
    <glyph glyph-name="gcommaaccent" unicode="&#x123;" horiz-adv-x="535" 
d="M179 -230c-164 0 -242 52 -242 122c0 64 80 103 154 123v4c-37 12 -65 36 -65 80c0 55 50 98 92 122v4c-36 20 -64 60 -64 114c0 119 120 195 242 195c53 0 86 -10 118 -27c43 46 92 76 144 76c38 0 58 -22 58 -51c0 -37 -23 -61 -55 -61c-30 0 -40 16 -51 30
c-10 13 -42 0 -61 -26v-4c30 -26 42 -57 42 -92c0 -118 -117 -190 -243 -190c-33 0 -65 7 -91 17c-14 -9 -27 -29 -27 -51c0 -21 13 -32 45 -34l127 -6c118 -6 179 -49 179 -134c0 -128 -131 -211 -302 -211zM196 -181c105 0 162 47 162 103c0 37 -15 56 -76 62l-143 14
c-31 -15 -74 -47 -74 -98s40 -81 131 -81zM250 235c62 0 104 78 104 179c0 45 -20 73 -60 73c-66 0 -104 -98 -104 -182c0 -43 20 -70 60 -70zM450 822l4 -28c-90 -12 -124 -49 -125 -83c6 3 15 7 28 7c37 0 62 -22 62 -56c0 -42 -39 -67 -84 -67c-49 0 -85 30 -85 82
c0 67 52 138 200 145z" />
    <glyph glyph-name="gdotaccent" unicode="&#x121;" horiz-adv-x="535" 
d="M179 -230c-164 0 -242 52 -242 122c0 64 80 103 154 123v4c-37 12 -65 36 -65 80c0 55 50 98 92 122v4c-36 20 -64 60 -64 114c0 119 120 195 242 195c53 0 86 -10 118 -27c43 46 92 76 144 76c38 0 58 -22 58 -51c0 -37 -23 -61 -55 -61c-30 0 -40 16 -51 30
c-10 13 -42 0 -61 -26v-4c30 -26 42 -57 42 -92c0 -118 -117 -190 -243 -190c-33 0 -65 7 -91 17c-14 -9 -27 -29 -27 -51c0 -21 13 -32 45 -34l127 -6c118 -6 179 -49 179 -134c0 -128 -131 -211 -302 -211zM196 -181c105 0 162 47 162 103c0 37 -15 56 -76 62l-143 14
c-31 -15 -74 -47 -74 -98s40 -81 131 -81zM250 235c62 0 104 78 104 179c0 45 -20 73 -60 73c-66 0 -104 -98 -104 -182c0 -43 20 -70 60 -70zM339 598c-51 0 -90 36 -90 83c0 48 39 84 90 84c50 0 89 -35 89 -83c0 -46 -39 -84 -89 -84z" />
    <glyph glyph-name="hbar" unicode="&#x127;" horiz-adv-x="619" 
d="M56 593l9 51h88c5 33 -1 42 -22 52l-37 16l6 35l222 19l12 -10s-17 -49 -29 -112h153l-9 -51h-154l-20 -98c-10 -49 -19 -80 -26 -103h5c61 70 139 140 226 140c55 0 87 -40 87 -92c0 -22 -3 -52 -11 -85l-51 -215c-2 -10 -4 -20 -4 -32c0 -19 11 -28 51 -2l17 11l24 -29
c-50 -45 -121 -99 -192 -99c-46 0 -62 33 -62 62c0 26 7 56 14 87l46 199c16 71 12 90 -15 90c-42 0 -100 -53 -143 -103l-68 -324h-151l121 593h-87z" />
    <glyph glyph-name="hcircumflex" unicode="&#x125;" horiz-adv-x="619" 
d="M401 -11c-46 0 -62 33 -62 62c0 26 7 56 14 87l46 199c16 71 12 90 -15 90c-42 0 -100 -53 -143 -103l-68 -324h-151l129 629c9 46 4 56 -20 67l-37 16l6 35l222 19l12 -10s-17 -50 -29 -115l-30 -146c-10 -49 -19 -80 -26 -103h5c61 70 139 140 226 140
c55 0 87 -40 87 -92c0 -22 -3 -52 -11 -85l-51 -215c-2 -10 -4 -20 -4 -32c0 -19 11 -28 51 -2l17 11l24 -29c-50 -45 -121 -99 -192 -99zM250 803l-14 27l153 131h62l117 -133l-18 -25l-142 54z" />
    <glyph glyph-name="ibreve" unicode="&#x12d;" horiz-adv-x="321" 
d="M101 -11c-46 0 -64 33 -64 62s7 60 15 92l61 227c4 15 6 27 6 36c0 21 -22 14 -56 -6l-11 -7l-22 29c55 56 129 110 193 110c44 0 60 -30 60 -61c0 -26 -6 -63 -20 -112l-57 -213c-3 -12 -6 -25 -6 -37c0 -20 16 -25 52 -3l20 12l22 -29c-49 -46 -122 -100 -193 -100z
M222 593c-82 0 -128 71 -129 165l40 11c12 -46 29 -79 101 -79c67 0 96 32 122 79l41 -12c-28 -99 -89 -164 -175 -164z" />
    <glyph glyph-name="imacron" unicode="&#x12b;" horiz-adv-x="321" 
d="M79 622l14 78h272l-14 -78h-272zM101 -11c-46 0 -64 33 -64 62s7 60 15 92l61 227c4 15 6 27 6 36c0 21 -22 14 -56 -6l-11 -7l-22 29c55 56 129 110 193 110c44 0 60 -30 60 -61c0 -26 -6 -63 -20 -112l-57 -213c-3 -12 -6 -25 -6 -37c0 -20 16 -25 52 -3l20 12l22 -29
c-49 -46 -122 -100 -193 -100z" />
    <glyph glyph-name="iogonek" unicode="&#x12f;" horiz-adv-x="321" 
d="M58 -241c-66 0 -110 33 -110 86c0 67 64 111 135 146c-33 8 -46 35 -46 60c0 29 7 60 15 92l61 227c4 15 6 27 6 36c0 21 -22 14 -56 -6l-11 -7l-22 29c55 56 129 110 193 110c44 0 60 -30 60 -61c0 -26 -6 -63 -20 -112l-57 -213c-3 -12 -6 -25 -6 -37
c0 -20 16 -25 52 -3l20 12l22 -29c-29 -27 -67 -56 -107 -78c-62 -34 -119 -84 -119 -149c0 -26 19 -44 49 -44c19 0 36 5 48 10l-6 -39c-16 -13 -49 -30 -101 -30zM235 598c-51 0 -90 36 -90 83c0 48 39 84 90 84c50 0 89 -35 89 -83c0 -46 -39 -84 -89 -84z" />
    <glyph glyph-name="itilde" unicode="&#x129;" horiz-adv-x="321" 
d="M101 -11c-46 0 -64 33 -64 62s7 60 15 92l61 227c4 15 6 27 6 36c0 21 -22 14 -56 -6l-11 -7l-22 29c55 56 129 110 193 110c44 0 60 -30 60 -61c0 -26 -6 -63 -20 -112l-57 -213c-3 -12 -6 -25 -6 -37c0 -20 16 -25 52 -3l20 12l22 -29c-49 -46 -122 -100 -193 -100z
M80 584l-38 18c37 88 70 141 118 141c54 0 110 -39 147 -39c27 0 43 26 67 63l37 -17c-36 -88 -65 -141 -115 -141c-54 0 -112 39 -149 39c-27 0 -43 -27 -67 -64z" />
    <glyph glyph-name="idotaccent" horiz-adv-x="321" 
d="M101 -11c-46 0 -64 33 -64 62s7 60 15 92l61 227c4 15 6 27 6 36c0 21 -22 14 -56 -6l-11 -7l-22 29c55 56 129 110 193 110c44 0 60 -30 60 -61c0 -26 -6 -63 -20 -112l-57 -213c-3 -12 -6 -25 -6 -37c0 -20 16 -25 52 -3l20 12l22 -29c-49 -46 -122 -100 -193 -100z
M235 598c-51 0 -90 36 -90 83c0 48 39 84 90 84c50 0 89 -35 89 -83c0 -46 -39 -84 -89 -84z" />
    <glyph glyph-name="jcircumflex" unicode="&#x135;" horiz-adv-x="312" 
d="M-56 -225c-75 0 -112 39 -112 80c0 36 21 57 60 57c41 0 56 -19 64 -72c3 -15 7 -20 15 -20c24 0 44 21 63 129l80 421c3 16 5 27 5 35c0 24 -22 15 -56 -5l-11 -7l-22 29c55 56 129 110 193 110c44 0 60 -30 60 -61c0 -25 -7 -66 -17 -112l-70 -318
c-38 -175 -131 -266 -252 -266zM78 581l-17 27l159 161h62l104 -163l-22 -25l-125 84z" />
    <glyph glyph-name="kcommaaccent" unicode="&#x137;" horiz-adv-x="578" 
d="M389 -11c-38 0 -56 28 -81 86c-21 47 -39 88 -62 169l2 21c100 146 191 267 275 267c40 0 67 -22 67 -67c0 -52 -34 -73 -65 -73c-43 0 -45 35 -65 35c-22 0 -69 -43 -103 -87c35 -101 59 -153 84 -207c22 -48 37 -52 74 -26l15 10l24 -30c-57 -52 -110 -98 -165 -98z
M21 0l128 629c10 46 7 56 -19 67l-37 16l6 35l222 19l13 -10s-16 -50 -30 -115l-131 -641h-152zM117 -284l-4 28c90 12 124 49 125 83c-6 -3 -15 -7 -28 -7c-37 0 -62 22 -62 56c0 42 39 67 84 67c49 0 85 -30 85 -82c0 -67 -52 -138 -200 -145z" />
    <glyph glyph-name="lacute" unicode="&#x13a;" horiz-adv-x="322" 
d="M102 -11c-47 0 -64 33 -64 59c0 30 7 60 13 90l98 491c9 46 6 57 -19 67l-39 16l6 35l225 19l12 -10s-17 -50 -30 -115l-100 -501c-2 -10 -4 -21 -4 -32c0 -19 17 -25 55 -1l19 12l22 -29c-53 -49 -121 -101 -194 -101zM167 805l-13 25l149 114c19 15 35 24 54 24
c31 0 52 -29 52 -58c0 -24 -14 -48 -47 -56z" />
    <glyph glyph-name="lcaron" unicode="&#x13e;" horiz-adv-x="322" 
d="M102 -11c-47 0 -64 33 -64 59c0 30 7 60 13 90l98 491c9 46 6 57 -19 67l-39 16l6 35l225 19l12 -10s-17 -50 -30 -115l-100 -501c-2 -10 -4 -21 -4 -32c0 -19 17 -25 55 -1l19 12l22 -29c-53 -49 -121 -101 -194 -101zM376 571l-24 10l32 138c6 27 19 45 46 46
c26 0 61 -18 60 -52c0 -16 -9 -31 -21 -44z" />
    <glyph glyph-name="lcommaaccent" unicode="&#x13c;" horiz-adv-x="322" 
d="M102 -11c-47 0 -64 33 -64 59c0 30 7 60 13 90l98 491c9 46 6 57 -19 67l-39 16l6 35l225 19l12 -10s-17 -50 -30 -115l-100 -501c-2 -10 -4 -21 -4 -32c0 -19 17 -25 55 -1l19 12l22 -29c-53 -49 -121 -101 -194 -101zM-27 -284l-4 28c90 12 124 49 125 83
c-6 -3 -15 -7 -28 -7c-37 0 -62 22 -62 56c0 42 39 67 84 67c49 0 85 -30 85 -82c0 -67 -52 -138 -200 -145z" />
    <glyph glyph-name="ldot" unicode="&#x140;" horiz-adv-x="407" 
d="M102 -11c-47 0 -64 33 -64 59c0 30 7 60 13 90l98 491c9 46 6 57 -19 67l-39 16l6 35l225 19l12 -10s-17 -50 -30 -115l-100 -501c-2 -10 -4 -21 -4 -32c0 -19 17 -25 55 -1l19 12l22 -29c-53 -49 -121 -101 -194 -101zM377 290c-44 0 -82 36 -82 79c0 45 38 80 82 80
c46 0 82 -35 82 -80c0 -43 -36 -79 -82 -79z" />
    <glyph glyph-name="nacute" unicode="&#x144;" horiz-adv-x="631" 
d="M413 -11c-46 0 -61 33 -61 62c0 26 6 56 13 87l46 199c16 71 12 90 -13 90c-42 0 -102 -55 -140 -100l-72 -327h-153l80 370c3 13 6 30 6 38c0 20 -15 16 -57 -8l-10 -6l-21 29c54 55 121 109 184 109c43 0 57 -26 57 -57c0 -19 -7 -63 -12 -85h5c63 71 139 142 227 142
c55 0 87 -40 87 -92c0 -22 -3 -52 -11 -85l-50 -210c-3 -15 -5 -24 -5 -35c0 -20 12 -30 51 -4l17 11l24 -29c-50 -45 -120 -99 -192 -99zM303 592l-13 25l149 114c19 15 35 24 54 24c31 0 52 -29 52 -58c0 -24 -14 -48 -47 -56z" />
    <glyph glyph-name="napostrophe" unicode="&#x149;" horiz-adv-x="751" 
d="M533 -11c-46 0 -61 33 -61 62c0 26 6 56 13 87l46 199c16 71 12 90 -13 90c-42 0 -102 -55 -140 -100l-72 -327h-153l80 370c3 13 6 30 6 38c0 20 -15 16 -57 -8l-10 -6l-21 29c54 55 121 109 184 109c43 0 57 -26 57 -57c0 -19 -7 -63 -12 -85h5c63 71 139 142 227 142
c55 0 87 -40 87 -92c0 -22 -3 -52 -11 -85l-50 -210c-3 -15 -5 -24 -5 -35c0 -20 12 -30 51 -4l17 11l24 -29c-50 -45 -120 -99 -192 -99zM-53 381l-11 37c106 32 148 86 152 144c-9 -7 -22 -12 -38 -12c-27 0 -68 20 -68 75c0 51 41 81 89 81c62 0 106 -47 106 -113
c0 -96 -74 -188 -230 -212z" />
    <glyph glyph-name="ncaron" unicode="&#x148;" horiz-adv-x="631" 
d="M413 -11c-46 0 -61 33 -61 62c0 26 6 56 13 87l46 199c16 71 12 90 -13 90c-42 0 -102 -55 -140 -100l-72 -327h-153l80 370c3 13 6 30 6 38c0 20 -15 16 -57 -8l-10 -6l-21 29c54 55 121 109 184 109c43 0 57 -26 57 -57c0 -19 -7 -63 -12 -85h5c63 71 139 142 227 142
c55 0 87 -40 87 -92c0 -22 -3 -52 -11 -85l-50 -210c-3 -15 -5 -24 -5 -35c0 -20 12 -30 51 -4l17 11l24 -29c-50 -45 -120 -99 -192 -99zM355 587l-105 162l23 25l125 -83l160 83l18 -26l-160 -161h-61z" />
    <glyph glyph-name="ncommaaccent" unicode="&#x146;" horiz-adv-x="631" 
d="M413 -11c-46 0 -61 33 -61 62c0 26 6 56 13 87l46 199c16 71 12 90 -13 90c-42 0 -102 -55 -140 -100l-72 -327h-153l80 370c3 13 6 30 6 38c0 20 -15 16 -57 -8l-10 -6l-21 29c54 55 121 109 184 109c43 0 57 -26 57 -57c0 -19 -7 -63 -12 -85h5c63 71 139 142 227 142
c55 0 87 -40 87 -92c0 -22 -3 -52 -11 -85l-50 -210c-3 -15 -5 -24 -5 -35c0 -20 12 -30 51 -4l17 11l24 -29c-50 -45 -120 -99 -192 -99zM144 -284l-4 28c90 12 124 49 125 83c-6 -3 -15 -7 -28 -7c-37 0 -62 22 -62 56c0 42 39 67 84 67c49 0 85 -30 85 -82
c0 -67 -52 -138 -200 -145z" />
    <glyph glyph-name="nacute.pl" horiz-adv-x="631" 
d="M413 -11c-46 0 -61 33 -61 62c0 26 6 56 13 87l46 199c16 71 12 90 -13 90c-42 0 -102 -55 -140 -100l-72 -327h-153l80 370c3 13 6 30 6 38c0 20 -15 16 -57 -8l-10 -6l-21 29c54 55 121 109 184 109c43 0 57 -26 57 -57c0 -19 -7 -63 -12 -85h5c63 71 139 142 227 142
c55 0 87 -40 87 -92c0 -22 -3 -52 -11 -85l-50 -210c-3 -15 -5 -24 -5 -35c0 -20 12 -30 51 -4l17 11l24 -29c-50 -45 -120 -99 -192 -99zM367 575l-21 20l65 139c13 28 29 47 54 47c33 0 67 -30 67 -61c0 -18 -11 -35 -30 -49z" />
    <glyph glyph-name="obreve" unicode="&#x14f;" horiz-adv-x="573" 
d="M244 -13c-145 0 -221 94 -221 209c0 211 161 337 306 337c143 0 220 -94 220 -208c0 -213 -159 -338 -305 -338zM244 38c99 0 155 205 155 333c0 72 -26 111 -72 111c-98 0 -154 -203 -154 -329c0 -75 25 -115 71 -115zM346 593c-82 0 -128 71 -129 165l40 11
c12 -46 29 -79 101 -79c67 0 96 32 122 79l41 -12c-28 -99 -89 -164 -175 -164z" />
    <glyph glyph-name="ohungarumlaut" unicode="&#x151;" horiz-adv-x="573" 
d="M244 -13c-145 0 -221 94 -221 209c0 211 161 337 306 337c143 0 220 -94 220 -208c0 -213 -159 -338 -305 -338zM244 38c99 0 155 205 155 333c0 72 -26 111 -72 111c-98 0 -154 -203 -154 -329c0 -75 25 -115 71 -115zM243 587l-20 22l76 123c16 28 34 38 52 38
c24 0 56 -23 56 -52c0 -20 -11 -41 -42 -59zM428 587l-20 22l78 123c16 27 32 38 51 38c26 0 58 -25 58 -53c0 -18 -9 -36 -38 -53z" />
    <glyph glyph-name="omacron" unicode="&#x14d;" horiz-adv-x="573" 
d="M244 -13c-145 0 -221 94 -221 209c0 211 161 337 306 337c143 0 220 -94 220 -208c0 -213 -159 -338 -305 -338zM244 38c99 0 155 205 155 333c0 72 -26 111 -72 111c-98 0 -154 -203 -154 -329c0 -75 25 -115 71 -115zM203 622l14 78h292l-14 -78h-292z" />
    <glyph glyph-name="oacute.pl" horiz-adv-x="573" 
d="M244 -13c-145 0 -221 94 -221 209c0 211 161 337 306 337c143 0 220 -94 220 -208c0 -213 -159 -338 -305 -338zM244 38c99 0 155 205 155 333c0 72 -26 111 -72 111c-98 0 -154 -203 -154 -329c0 -75 25 -115 71 -115zM331 575l-21 20l65 139c13 28 29 47 54 47
c33 0 67 -30 67 -61c0 -18 -11 -35 -30 -49z" />
    <glyph glyph-name="oslashacute" unicode="&#x1ff;" horiz-adv-x="573" 
d="M22 -64l71 99c-47 39 -70 98 -70 163c0 211 161 335 306 335c41 0 77 -8 107 -22l50 70h63l-70 -97c47 -39 70 -97 70 -161c0 -213 -159 -336 -305 -336c-42 0 -77 8 -107 21l-52 -72h-63zM162 143v-13l230 321c-13 20 -34 32 -65 32c-98 0 -165 -189 -165 -340zM244 36
c99 0 166 192 166 339v12l-232 -322c12 -18 33 -29 66 -29zM267 592l-13 25l149 114c19 15 35 24 54 24c31 0 52 -29 52 -58c0 -24 -14 -48 -47 -56z" />
    <glyph glyph-name="racute" unicode="&#x155;" horiz-adv-x="495" 
d="M33 0l80 370c3 14 6 28 6 37c0 21 -15 18 -57 -7l-10 -6l-21 29c54 55 123 109 184 109c43 0 57 -28 57 -59c0 -24 -12 -84 -19 -111h5c50 83 114 170 186 170c37 0 68 -24 68 -68c0 -50 -33 -76 -70 -76c-41 0 -48 30 -70 30c-29 0 -83 -70 -124 -142l-62 -276h-153z
M246 592l-13 25l149 114c19 15 35 24 54 24c31 0 52 -29 52 -58c0 -24 -14 -48 -47 -56z" />
    <glyph glyph-name="rcaron" unicode="&#x159;" horiz-adv-x="495" 
d="M33 0l80 370c3 14 6 28 6 37c0 21 -15 18 -57 -7l-10 -6l-21 29c54 55 123 109 184 109c43 0 57 -28 57 -59c0 -24 -12 -84 -19 -111h5c50 83 114 170 186 170c37 0 68 -24 68 -68c0 -50 -33 -76 -70 -76c-41 0 -48 30 -70 30c-29 0 -83 -70 -124 -142l-62 -276h-153z
M298 587l-105 162l23 25l125 -83l160 83l18 -26l-160 -161h-61z" />
    <glyph glyph-name="rcommaaccent" unicode="&#x157;" horiz-adv-x="495" 
d="M33 0l80 370c3 14 6 28 6 37c0 21 -15 18 -57 -7l-10 -6l-21 29c54 55 123 109 184 109c43 0 57 -28 57 -59c0 -24 -12 -84 -19 -111h5c50 83 114 170 186 170c37 0 68 -24 68 -68c0 -50 -33 -76 -70 -76c-41 0 -48 30 -70 30c-29 0 -83 -70 -124 -142l-62 -276h-153z
M-29 -284l-4 28c90 12 124 49 125 83c-6 -3 -15 -7 -28 -7c-37 0 -62 22 -62 56c0 42 39 67 84 67c49 0 85 -30 85 -82c0 -67 -52 -138 -200 -145z" />
    <glyph glyph-name="sacute" unicode="&#x15b;" horiz-adv-x="451" 
d="M180 -12c-129 0 -185 54 -185 105c0 39 27 61 70 61c41 0 57 -23 72 -76c7 -27 15 -40 56 -40c53 0 85 25 85 62c0 35 -23 64 -94 107c-77 48 -122 94 -122 160c0 103 102 165 210 165c121 0 167 -50 167 -99c0 -35 -25 -56 -62 -56c-46 0 -58 26 -69 66
c-7 27 -22 39 -48 39c-47 0 -77 -21 -77 -58c0 -35 19 -57 105 -108c78 -46 115 -96 115 -154c0 -104 -91 -174 -223 -174zM208 592l-13 25l149 114c19 15 35 24 54 24c31 0 52 -29 52 -58c0 -24 -14 -48 -47 -56z" />
    <glyph glyph-name="scedilla" unicode="&#x15f;" horiz-adv-x="451" 
d="M1 -262l4 31c101 19 136 44 136 75c0 19 -13 35 -61 37l-5 14l56 96c-94 12 -136 58 -136 102c0 39 27 61 70 61c41 0 57 -23 72 -76c7 -27 15 -40 56 -40c53 0 85 25 85 62c0 35 -23 64 -94 107c-77 48 -122 94 -122 160c0 103 102 165 210 165c121 0 167 -50 167 -99
c0 -35 -25 -56 -62 -56c-46 0 -58 26 -69 66c-7 27 -22 39 -48 39c-47 0 -77 -21 -77 -58c0 -35 19 -57 105 -108c78 -46 115 -96 115 -154c0 -104 -91 -174 -223 -174l-35 -41c75 -8 94 -48 94 -80c0 -67 -90 -119 -238 -129z" />
    <glyph glyph-name="scircumflex" unicode="&#x15d;" horiz-adv-x="451" 
d="M180 -12c-129 0 -185 54 -185 105c0 39 27 61 70 61c41 0 57 -23 72 -76c7 -27 15 -40 56 -40c53 0 85 25 85 62c0 35 -23 64 -94 107c-77 48 -122 94 -122 160c0 103 102 165 210 165c121 0 167 -50 167 -99c0 -35 -25 -56 -62 -56c-46 0 -58 26 -69 66
c-7 27 -22 39 -48 39c-47 0 -77 -21 -77 -58c0 -35 19 -57 105 -108c78 -46 115 -96 115 -154c0 -104 -91 -174 -223 -174zM135 581l-17 27l159 161h62l104 -163l-22 -25l-125 84z" />
    <glyph glyph-name="scommaaccent" unicode="&#x219;" horiz-adv-x="451" 
d="M180 -12c-129 0 -185 54 -185 105c0 39 27 61 70 61c41 0 57 -23 72 -76c7 -27 15 -40 56 -40c53 0 85 25 85 62c0 35 -23 64 -94 107c-77 48 -122 94 -122 160c0 103 102 165 210 165c121 0 167 -50 167 -99c0 -35 -25 -56 -62 -56c-46 0 -58 26 -69 66
c-7 27 -22 39 -48 39c-47 0 -77 -21 -77 -58c0 -35 19 -57 105 -108c78 -46 115 -96 115 -154c0 -104 -91 -174 -223 -174zM32 -284l-4 28c90 12 124 49 125 83c-6 -3 -15 -7 -28 -7c-37 0 -62 22 -62 56c0 42 39 67 84 67c49 0 85 -30 85 -82c0 -67 -52 -138 -200 -145z
" />
    <glyph glyph-name="sacute.pl" horiz-adv-x="451" 
d="M180 -12c-129 0 -185 54 -185 105c0 39 27 61 70 61c41 0 57 -23 72 -76c7 -27 15 -40 56 -40c53 0 85 25 85 62c0 35 -23 64 -94 107c-77 48 -122 94 -122 160c0 103 102 165 210 165c121 0 167 -50 167 -99c0 -35 -25 -56 -62 -56c-46 0 -58 26 -69 66
c-7 27 -22 39 -48 39c-47 0 -77 -21 -77 -58c0 -35 19 -57 105 -108c78 -46 115 -96 115 -154c0 -104 -91 -174 -223 -174zM272 575l-21 20l65 139c13 28 29 47 54 47c33 0 67 -30 67 -61c0 -18 -11 -35 -30 -49z" />
    <glyph glyph-name="tbar" unicode="&#x167;" horiz-adv-x="377" 
d="M19 305l9 51h74l21 93h-72l7 36l80 33l19 84l128 57h36l-29 -140h113l-17 -70h-113l-20 -93h118l-9 -51h-120l-32 -151c-5 -20 -8 -36 -8 -50c0 -19 11 -28 82 17l29 17l25 -28c-82 -78 -157 -122 -230 -122c-53 0 -67 34 -67 69c0 23 5 52 11 81l37 167h-72z" />
    <glyph glyph-name="tcaron" unicode="&#x165;" horiz-adv-x="377" 
d="M110 -12c-53 0 -67 34 -67 69c0 23 5 52 11 81l69 311h-72l7 36l80 33l19 84l128 57h36l-29 -140h113l-17 -70h-113l-63 -295c-5 -20 -8 -36 -8 -50c0 -19 11 -28 82 17l29 17l25 -28c-82 -78 -157 -122 -230 -122zM388 571l-24 10l32 138c6 27 19 45 46 46
c26 0 61 -18 60 -52c0 -16 -9 -31 -21 -44z" />
    <glyph glyph-name="tcommaaccent" unicode="&#x163;" horiz-adv-x="377" 
d="M110 -12c-53 0 -67 34 -67 69c0 23 5 52 11 81l69 311h-72l7 36l80 33l19 84l128 57h36l-29 -140h113l-17 -70h-113l-63 -295c-5 -20 -8 -36 -8 -50c0 -19 11 -28 82 17l29 17l25 -28c-82 -78 -157 -122 -230 -122zM-13 -284l-4 28c90 12 124 49 125 83
c-6 -3 -15 -7 -28 -7c-37 0 -62 22 -62 56c0 42 39 67 84 67c49 0 85 -30 85 -82c0 -67 -52 -138 -200 -145z" />
    <glyph glyph-name="ubreve" unicode="&#x16d;" horiz-adv-x="628" 
d="M138 -14c-55 0 -88 39 -88 95c0 22 4 52 11 83l50 208c3 13 6 25 6 34c0 21 -20 20 -57 -6l-9 -6l-23 29c55 57 123 109 187 109c45 0 62 -32 62 -65c0 -26 -4 -50 -12 -86l-46 -200c-17 -71 -11 -89 15 -89c39 0 95 53 135 97l71 330h154l-81 -373c-4 -16 -6 -25 -6 -38
c0 -19 14 -25 52 -1l17 10l22 -29c-48 -45 -125 -102 -191 -102c-45 0 -56 33 -56 62c0 19 8 58 15 81h-4c-64 -70 -134 -143 -224 -143zM377 593c-82 0 -128 71 -129 165l40 11c12 -46 29 -79 101 -79c67 0 96 32 122 79l41 -12c-28 -99 -89 -164 -175 -164z" />
    <glyph glyph-name="uhungarumlaut" unicode="&#x171;" horiz-adv-x="628" 
d="M138 -14c-55 0 -88 39 -88 95c0 22 4 52 11 83l50 208c3 13 6 25 6 34c0 21 -20 20 -57 -6l-9 -6l-23 29c55 57 123 109 187 109c45 0 62 -32 62 -65c0 -26 -4 -50 -12 -86l-46 -200c-17 -71 -11 -89 15 -89c39 0 95 53 135 97l71 330h154l-81 -373c-4 -16 -6 -25 -6 -38
c0 -19 14 -25 52 -1l17 10l22 -29c-48 -45 -125 -102 -191 -102c-45 0 -56 33 -56 62c0 19 8 58 15 81h-4c-64 -70 -134 -143 -224 -143zM274 587l-20 22l76 123c16 28 34 38 52 38c24 0 56 -23 56 -52c0 -20 -11 -41 -42 -59zM459 587l-20 22l78 123c16 27 32 38 51 38
c26 0 58 -25 58 -53c0 -18 -9 -36 -38 -53z" />
    <glyph glyph-name="umacron" unicode="&#x16b;" horiz-adv-x="628" 
d="M138 -14c-55 0 -88 39 -88 95c0 22 4 52 11 83l50 208c3 13 6 25 6 34c0 21 -20 20 -57 -6l-9 -6l-23 29c55 57 123 109 187 109c45 0 62 -32 62 -65c0 -26 -4 -50 -12 -86l-46 -200c-17 -71 -11 -89 15 -89c39 0 95 53 135 97l71 330h154l-81 -373c-4 -16 -6 -25 -6 -38
c0 -19 14 -25 52 -1l17 10l22 -29c-48 -45 -125 -102 -191 -102c-45 0 -56 33 -56 62c0 19 8 58 15 81h-4c-64 -70 -134 -143 -224 -143zM234 622l14 78h292l-14 -78h-292z" />
    <glyph glyph-name="uogonek" unicode="&#x173;" horiz-adv-x="628" 
d="M362 -241c-66 0 -110 33 -110 86c0 67 62 110 132 145c-26 9 -33 34 -33 58c0 19 8 58 15 81h-4c-64 -70 -134 -143 -224 -143c-55 0 -88 39 -88 95c0 22 4 52 11 83l50 208c3 13 6 25 6 34c0 21 -20 20 -57 -6l-9 -6l-23 29c55 57 123 109 187 109c45 0 62 -32 62 -65
c0 -26 -4 -50 -12 -86l-46 -200c-17 -71 -11 -89 15 -89c39 0 95 53 135 97l71 330h154l-81 -373c-4 -16 -6 -25 -6 -38c0 -19 14 -25 52 -1l17 10l22 -29c-32 -29 -74 -62 -119 -87c-54 -30 -107 -78 -107 -139c0 -26 19 -44 49 -44c19 0 36 5 48 10l-6 -39
c-16 -13 -49 -30 -101 -30z" />
    <glyph glyph-name="uring" unicode="&#x16f;" horiz-adv-x="628" 
d="M138 -14c-55 0 -88 39 -88 95c0 22 4 52 11 83l50 208c3 13 6 25 6 34c0 21 -20 20 -57 -6l-9 -6l-23 29c55 57 123 109 187 109c45 0 62 -32 62 -65c0 -26 -4 -50 -12 -86l-46 -200c-17 -71 -11 -89 15 -89c39 0 95 53 135 97l71 330h154l-81 -373c-4 -16 -6 -25 -6 -38
c0 -19 14 -25 52 -1l17 10l22 -29c-48 -45 -125 -102 -191 -102c-45 0 -56 33 -56 62c0 19 8 58 15 81h-4c-64 -70 -134 -143 -224 -143zM392 592c-69 0 -116 46 -116 107c0 62 52 109 116 109s115 -45 115 -109c0 -61 -51 -107 -115 -107zM392 637c35 0 57 26 57 62
s-22 63 -57 63s-58 -27 -58 -63s22 -62 58 -62z" />
    <glyph glyph-name="utilde" unicode="&#x169;" horiz-adv-x="628" 
d="M138 -14c-55 0 -88 39 -88 95c0 22 4 52 11 83l50 208c3 13 6 25 6 34c0 21 -20 20 -57 -6l-9 -6l-23 29c55 57 123 109 187 109c45 0 62 -32 62 -65c0 -26 -4 -50 -12 -86l-46 -200c-17 -71 -11 -89 15 -89c39 0 95 53 135 97l71 330h154l-81 -373c-4 -16 -6 -25 -6 -38
c0 -19 14 -25 52 -1l17 10l22 -29c-48 -45 -125 -102 -191 -102c-45 0 -56 33 -56 62c0 19 8 58 15 81h-4c-64 -70 -134 -143 -224 -143zM235 584l-38 18c37 88 70 141 118 141c54 0 110 -39 147 -39c27 0 43 26 67 63l37 -17c-36 -88 -65 -141 -115 -141
c-54 0 -112 39 -149 39c-27 0 -43 -27 -67 -64z" />
    <glyph glyph-name="wacute" unicode="&#x1e83;" horiz-adv-x="782" 
d="M117 0c0 174 -7 299 -16 377c-5 50 -17 51 -59 26l-15 -10l-22 30c56 58 124 109 176 109c37 0 52 -26 59 -96c8 -86 17 -177 14 -303h4c49 61 108 143 142 199c-1 21 -3 38 -4 55c-3 39 -15 45 -49 22l-13 -8l-24 30c42 44 107 101 158 101c38 0 54 -26 59 -94
c6 -79 10 -184 3 -309h4c86 101 148 205 148 259c0 37 -30 49 -30 90c0 34 30 55 65 55c40 0 68 -24 68 -70c0 -99 -163 -322 -304 -463h-80c2 103 6 190 4 255h-3c-53 -78 -132 -182 -196 -255h-89zM395 592l-13 25l149 114c19 15 35 24 54 24c31 0 52 -29 52 -58
c0 -24 -14 -48 -47 -56z" />
    <glyph glyph-name="wcircumflex" unicode="&#x175;" horiz-adv-x="782" 
d="M117 0c0 174 -7 299 -16 377c-5 50 -17 51 -59 26l-15 -10l-22 30c56 58 124 109 176 109c37 0 52 -26 59 -96c8 -86 17 -177 14 -303h4c49 61 108 143 142 199c-1 21 -3 38 -4 55c-3 39 -15 45 -49 22l-13 -8l-24 30c42 44 107 101 158 101c38 0 54 -26 59 -94
c6 -79 10 -184 3 -309h4c86 101 148 205 148 259c0 37 -30 49 -30 90c0 34 30 55 65 55c40 0 68 -24 68 -70c0 -99 -163 -322 -304 -463h-80c2 103 6 190 4 255h-3c-53 -78 -132 -182 -196 -255h-89zM322 581l-17 27l159 161h62l104 -163l-22 -25l-125 84z" />
    <glyph glyph-name="wdieresis" unicode="&#x1e85;" horiz-adv-x="782" 
d="M117 0c0 174 -7 299 -16 377c-5 50 -17 51 -59 26l-15 -10l-22 30c56 58 124 109 176 109c37 0 52 -26 59 -96c8 -86 17 -177 14 -303h4c49 61 108 143 142 199c-1 21 -3 38 -4 55c-3 39 -15 45 -49 22l-13 -8l-24 30c42 44 107 101 158 101c38 0 54 -26 59 -94
c6 -79 10 -184 3 -309h4c86 101 148 205 148 259c0 37 -30 49 -30 90c0 34 30 55 65 55c40 0 68 -24 68 -70c0 -99 -163 -322 -304 -463h-80c2 103 6 190 4 255h-3c-53 -78 -132 -182 -196 -255h-89zM371 598c-45 0 -82 32 -82 78s39 80 84 80c43 0 82 -32 82 -78
c0 -45 -40 -80 -84 -80zM591 598c-45 0 -82 32 -82 78s39 80 84 80c44 0 81 -32 81 -78c0 -45 -39 -80 -83 -80z" />
    <glyph glyph-name="wgrave" unicode="&#x1e81;" horiz-adv-x="782" 
d="M117 0c0 174 -7 299 -16 377c-5 50 -17 51 -59 26l-15 -10l-22 30c56 58 124 109 176 109c37 0 52 -26 59 -96c8 -86 17 -177 14 -303h4c49 61 108 143 142 199c-1 21 -3 38 -4 55c-3 39 -15 45 -49 22l-13 -8l-24 30c42 44 107 101 158 101c38 0 54 -26 59 -94
c6 -79 10 -184 3 -309h4c86 101 148 205 148 259c0 37 -30 49 -30 90c0 34 30 55 65 55c40 0 68 -24 68 -70c0 -99 -163 -322 -304 -463h-80c2 103 6 190 4 255h-3c-53 -78 -132 -182 -196 -255h-89zM566 590l-195 49c-36 9 -48 32 -48 54c0 30 24 61 55 61
c19 0 35 -8 55 -23l147 -112z" />
    <glyph glyph-name="ycircumflex" unicode="&#x177;" horiz-adv-x="536" 
d="M-17 -228c-53 0 -84 27 -84 69c0 38 25 60 57 60c55 0 57 -44 96 -44c33 0 73 26 130 87c-21 204 -43 355 -62 430c-15 56 -31 53 -68 27l-15 -9l-23 31c54 57 124 109 175 109c34 0 55 -18 68 -77c21 -99 37 -226 46 -357h4c70 98 134 214 134 283c0 39 -33 53 -33 98
c0 33 26 54 59 54c40 0 72 -24 72 -74c0 -90 -95 -266 -216 -425c-113 -149 -234 -262 -340 -262zM177 581l-17 27l159 161h62l104 -163l-22 -25l-125 84z" />
    <glyph glyph-name="ygrave" unicode="&#x1ef3;" horiz-adv-x="536" 
d="M-17 -228c-53 0 -84 27 -84 69c0 38 25 60 57 60c55 0 57 -44 96 -44c33 0 73 26 130 87c-21 204 -43 355 -62 430c-15 56 -31 53 -68 27l-15 -9l-23 31c54 57 124 109 175 109c34 0 55 -18 68 -77c21 -99 37 -226 46 -357h4c70 98 134 214 134 283c0 39 -33 53 -33 98
c0 33 26 54 59 54c40 0 72 -24 72 -74c0 -90 -95 -266 -216 -425c-113 -149 -234 -262 -340 -262zM421 590l-195 49c-36 9 -48 32 -48 54c0 30 24 61 55 61c19 0 35 -8 55 -23l147 -112z" />
    <glyph glyph-name="zacute" unicode="&#x17a;" horiz-adv-x="480" 
d="M278 -17c-79 0 -122 89 -187 89c-22 0 -39 -21 -54 -86h-15l-59 43v15c41 26 70 49 116 92l255 245c-82 4 -139 40 -210 40c-12 0 -18 -8 -18 -14c0 -22 52 -18 52 -61c0 -26 -18 -48 -52 -48c-39 0 -57 36 -57 69c0 54 88 166 173 166c83 0 132 -87 178 -87
c18 0 31 20 44 85h16l61 -40v-16c-38 -24 -63 -41 -114 -91l-243 -238c77 -4 126 -32 176 -32c26 0 44 14 81 65l29 -17c-59 -112 -104 -179 -172 -179zM242 592l-13 25l149 114c19 15 35 24 54 24c31 0 52 -29 52 -58c0 -24 -14 -48 -47 -56z" />
    <glyph glyph-name="zacute.pl" horiz-adv-x="480" 
d="M278 -17c-79 0 -122 89 -187 89c-22 0 -39 -21 -54 -86h-15l-59 43v15c41 26 70 49 116 92l255 245c-82 4 -139 40 -210 40c-12 0 -18 -8 -18 -14c0 -22 52 -18 52 -61c0 -26 -18 -48 -52 -48c-39 0 -57 36 -57 69c0 54 88 166 173 166c83 0 132 -87 178 -87
c18 0 31 20 44 85h16l61 -40v-16c-38 -24 -63 -41 -114 -91l-243 -238c77 -4 126 -32 176 -32c26 0 44 14 81 65l29 -17c-59 -112 -104 -179 -172 -179zM295 575l-21 20l65 139c13 28 29 47 54 47c33 0 67 -30 67 -61c0 -18 -11 -35 -30 -49z" />
    <glyph glyph-name="zdotaccent" unicode="&#x17c;" horiz-adv-x="480" 
d="M278 -17c-79 0 -122 89 -187 89c-22 0 -39 -21 -54 -86h-15l-59 43v15c41 26 70 49 116 92l255 245c-82 4 -139 40 -210 40c-12 0 -18 -8 -18 -14c0 -22 52 -18 52 -61c0 -26 -18 -48 -52 -48c-39 0 -57 36 -57 69c0 54 88 166 173 166c83 0 132 -87 178 -87
c18 0 31 20 44 85h16l61 -40v-16c-38 -24 -63 -41 -114 -91l-243 -238c77 -4 126 -32 176 -32c26 0 44 14 81 65l29 -17c-59 -112 -104 -179 -172 -179zM332 598c-51 0 -90 36 -90 83c0 48 39 84 90 84c50 0 89 -35 89 -83c0 -46 -39 -84 -89 -84z" />
    <glyph glyph-name="oneeighth" unicode="&#x215b;" horiz-adv-x="842" 
d="M20 261l7 36l25 6c26 8 36 12 44 49l40 220l-60 7l5 37c76 11 142 41 186 87l23 -6l-62 -346c-7 -38 -3 -42 24 -49l25 -5l-7 -36h-250zM93 -50l598 764h72l-596 -764h-74zM578 -114c-103 0 -168 43 -168 101s48 92 117 114v4c-38 23 -59 54 -59 93c0 85 88 139 178 139
c79 0 146 -34 146 -95c0 -50 -43 -83 -103 -102v-2c53 -28 83 -57 83 -104c0 -83 -85 -148 -194 -148zM585 -70c47 0 84 23 84 61c0 33 -32 51 -110 91c-24 -22 -51 -42 -51 -88c0 -39 25 -64 77 -64zM653 158c25 20 50 43 50 78c0 36 -25 58 -62 58c-42 0 -74 -23 -74 -57
c0 -29 23 -47 86 -79z" />
    <glyph glyph-name="onethird" unicode="&#x2153;" horiz-adv-x="873" 
d="M20 261l7 36l25 6c26 8 36 12 44 49l40 220l-60 7l5 37c76 11 142 41 186 87l23 -6l-62 -346c-7 -38 -3 -42 24 -49l25 -5l-7 -36h-250zM102 -50l598 764h72l-596 -764h-74zM592 -113c-87 0 -144 27 -144 80c0 33 20 50 50 50c36 0 51 -13 55 -61c3 -23 6 -31 30 -31
c52 0 83 52 83 116c0 46 -28 56 -72 56h-30l9 49h25c62 0 88 39 88 102c0 32 -18 50 -48 50c-21 0 -28 -6 -31 -28c-5 -45 -20 -54 -52 -54s-50 17 -50 42c0 45 62 78 147 78c95 0 151 -36 151 -96c0 -55 -36 -95 -128 -110v-4c70 -7 120 -39 120 -98
c0 -90 -84 -141 -203 -141z" />
    <glyph glyph-name="threeeighths" unicode="&#x215c;" horiz-adv-x="889" 
d="M167 252c-88 0 -144 27 -144 79c0 34 20 51 50 51c36 0 51 -14 55 -61c3 -23 6 -31 30 -31c52 0 83 52 83 116c0 46 -28 56 -72 56h-30l9 48h25c62 0 88 39 88 102c0 33 -18 51 -48 51c-21 0 -28 -7 -31 -28c-5 -45 -20 -54 -52 -54s-50 17 -50 42c0 45 62 78 147 78
c95 0 151 -36 151 -96c0 -55 -37 -96 -128 -111v-3c70 -8 120 -39 120 -98c0 -90 -84 -141 -203 -141zM143 -50l598 764h72l-596 -764h-74zM634 -114c-103 0 -168 43 -168 101s48 92 117 114v4c-38 23 -59 54 -59 93c0 85 88 139 178 139c79 0 146 -34 146 -95
c0 -50 -43 -83 -103 -102v-2c53 -28 83 -57 83 -104c0 -83 -85 -148 -194 -148zM641 -70c47 0 84 23 84 61c0 33 -32 51 -110 91c-24 -22 -51 -42 -51 -88c0 -39 25 -64 77 -64zM709 158c25 20 50 43 50 78c0 36 -25 58 -62 58c-42 0 -74 -23 -74 -57c0 -29 23 -47 86 -79z
" />
    <glyph glyph-name="fiveeighths" unicode="&#x215d;" horiz-adv-x="877" 
d="M160 252c-78 0 -127 27 -127 74c0 25 18 48 48 48c27 0 45 -7 49 -49c2 -28 8 -34 36 -34c49 0 87 29 87 81c0 51 -42 76 -97 76c-37 0 -58 -7 -71 -12l-10 7l63 250h174c21 0 26 4 45 36h34l-29 -124h-198l-19 -73c15 4 31 6 63 6c88 0 155 -39 155 -120
c0 -99 -87 -166 -203 -166zM129 -50l598 764h72l-596 -764h-74zM622 -114c-103 0 -168 43 -168 101s48 92 117 114v4c-38 23 -59 54 -59 93c0 85 88 139 178 139c79 0 146 -34 146 -95c0 -50 -43 -83 -103 -102v-2c53 -28 83 -57 83 -104c0 -83 -85 -148 -194 -148zM629 -70
c47 0 84 23 84 61c0 33 -32 51 -110 91c-24 -22 -51 -42 -51 -88c0 -39 25 -64 77 -64zM697 158c25 20 50 43 50 78c0 36 -25 58 -62 58c-42 0 -74 -23 -74 -57c0 -29 23 -47 86 -79z" />
    <glyph glyph-name="twothirds" unicode="&#x2154;" horiz-adv-x="936" 
d="M16 261l8 59c62 42 115 75 153 114c58 52 95 110 95 177c0 37 -22 50 -50 50c-22 0 -28 -6 -32 -29c-7 -54 -23 -61 -59 -61c-37 0 -51 21 -51 45c0 52 68 85 155 85c86 0 157 -39 157 -116c0 -93 -106 -162 -263 -232v-3h142c30 0 37 9 65 54h33l-30 -143h-323zM164 -50
l598 764h72l-596 -764h-74zM655 -113c-87 0 -144 27 -144 80c0 33 20 50 50 50c36 0 51 -13 55 -61c3 -23 6 -31 30 -31c52 0 83 52 83 116c0 46 -28 56 -72 56h-30l9 49h25c62 0 88 39 88 102c0 32 -18 50 -48 50c-21 0 -28 -6 -31 -28c-5 -45 -20 -54 -52 -54
s-50 17 -50 42c0 45 62 78 147 78c95 0 151 -36 151 -96c0 -55 -36 -95 -128 -110v-4c70 -7 120 -39 120 -98c0 -90 -84 -141 -203 -141z" />
    <glyph glyph-name="seveneighths" unicode="&#x215e;" horiz-adv-x="838" 
d="M64 -50l598 764h72l-596 -764h-74zM574 -114c-103 0 -168 43 -168 101s48 92 117 114v4c-38 23 -59 54 -59 93c0 85 88 139 178 139c79 0 146 -34 146 -95c0 -50 -43 -83 -103 -102v-2c53 -28 83 -57 83 -104c0 -83 -85 -148 -194 -148zM581 -70c47 0 84 23 84 61
c0 33 -32 51 -110 91c-24 -22 -51 -42 -51 -88c0 -39 25 -64 77 -64zM649 158c25 20 50 43 50 78c0 36 -25 58 -62 58c-42 0 -74 -23 -74 -57c0 -29 23 -47 86 -79zM70 261c48 139 147 251 258 344h-160c-31 0 -40 -7 -67 -53h-32l34 141h307l-10 -59
c-122 -118 -161 -232 -185 -373h-145z" />
    <glyph glyph-name="uni24C5" unicode="&#x24c5;" horiz-adv-x="814" 
d="M423 -14c-205 0 -361 161 -361 358s156 356 361 356c204 0 363 -159 363 -356s-159 -358 -363 -358zM423 26c184 0 316 143 316 318s-132 316 -316 316c-185 0 -313 -141 -313 -316s128 -318 313 -318zM404 492v-263c0 -33 4 -36 22 -39l27 -5v-28h-207v28l18 4
c18 4 22 6 22 40v232c0 34 -4 35 -22 39l-18 5v27h207c112 0 165 -41 165 -116c0 -76 -49 -120 -127 -120c-24 0 -52 5 -62 10v23c50 0 68 21 68 83c0 59 -16 85 -60 85c-15 0 -27 -3 -33 -5z" />
    <glyph glyph-name="dollar.old" horiz-adv-x="523" 
d="M473 206c0 -108 -96 -208 -245 -217l-18 -103h-53l18 103c-124 7 -180 53 -180 112c0 41 25 64 64 64c43 0 63 -18 66 -66c3 -43 11 -60 58 -64l43 241c-107 60 -147 110 -147 187c0 117 103 197 229 205l16 87h51l-16 -87c114 -7 170 -51 170 -109
c0 -41 -23 -63 -62 -63c-33 0 -58 18 -63 71c-3 35 -14 50 -53 54l-40 -222c113 -60 162 -107 162 -193zM352 139c0 49 -28 80 -79 111l-37 -215c72 7 116 48 116 104zM193 524c0 -36 16 -66 72 -100l35 198c-61 -5 -107 -40 -107 -98z" />
    <glyph glyph-name="Euro.old" horiz-adv-x="594" 
d="M42 370l10 55h77c59 152 189 245 330 245c97 0 165 -46 165 -107c0 -39 -25 -65 -64 -65c-44 0 -68 23 -74 79c-4 38 -12 46 -40 46c-76 0 -138 -87 -172 -198h208l-19 -55h-204c-6 -28 -10 -56 -12 -84h189l-19 -56h-172c1 -119 51 -164 147 -164c63 0 108 14 148 34
l-7 -45c-37 -34 -99 -67 -197 -67c-152 0 -237 87 -240 242h-78l10 56h70c2 29 7 57 13 84h-69z" />
    <glyph glyph-name="sterling.old" horiz-adv-x="529" 
d="M49 314l8 55h55c-4 26 -8 53 -8 80c0 125 93 221 259 221c113 0 171 -51 171 -103c0 -47 -27 -67 -65 -67c-42 0 -66 28 -72 82c-3 32 -11 43 -35 43c-48 0 -92 -36 -102 -108c-6 -41 -6 -97 -8 -148h161l-9 -55h-156c0 -5 -1 -9 -1 -13c-10 -78 -58 -140 -137 -184v-5
h255c37 0 52 7 89 74h35l-44 -186h-461l15 83c81 46 128 96 129 173c0 18 -2 38 -5 58h-74z" />
    <glyph glyph-name="yen.old" horiz-adv-x="595" 
d="M56 283l10 55h151l-69 194c-21 60 -30 75 -54 82l-20 6l7 38h295l-9 -38l-24 -6c-28 -7 -42 -19 -43 -40c-1 -14 5 -34 15 -64l48 -149h5l101 153c21 31 32 55 32 70c-1 14 -9 23 -34 30l-23 6l7 38h208l-7 -38l-21 -5c-34 -8 -45 -27 -92 -94l-127 -183h151l-10 -55
h-167l-14 -82h165l-10 -55h-164l-6 -33c-9 -54 -6 -60 26 -68l34 -6l-8 -39h-310l7 39l36 6c37 6 42 14 52 68l6 33h-169l9 55h170l15 82h-169z" />
    <glyph glyph-name="zero.old" horiz-adv-x="627" 
d="M282 -12c-134 0 -237 83 -237 231c0 218 143 371 318 371c129 0 244 -74 244 -236c0 -222 -149 -366 -325 -366zM283 38c126 0 173 252 173 367c0 84 -25 134 -88 134c-113 0 -172 -253 -172 -370c0 -91 32 -131 87 -131z" />
    <glyph glyph-name="one.old" horiz-adv-x="379" 
d="M-2 0l7 39l35 7c36 7 46 9 53 51l60 340l-82 8l6 42c94 18 172 54 226 99l32 -7l-86 -482c-7 -40 -5 -46 27 -51l41 -7l-5 -39h-314z" />
    <glyph glyph-name="two.old" horiz-adv-x="517" 
d="M457 103l-33 -103h-434l13 73c76 50 150 98 217 156c89 76 136 150 136 227c0 59 -36 86 -85 86c-27 0 -42 -15 -45 -39c-8 -59 -36 -85 -78 -85c-44 0 -67 24 -67 64c0 51 61 108 189 108c143 0 237 -58 237 -154c0 -142 -156 -226 -382 -330v-3h332z" />
    <glyph glyph-name="three.old" horiz-adv-x="543" 
d="M189 -124c-129 0 -201 41 -201 115c0 33 25 61 66 61c40 0 64 -23 70 -71s21 -60 61 -60c82 0 151 71 151 194c0 77 -38 105 -110 105h-51l9 54h43c103 0 145 63 146 167c0 68 -34 100 -95 100c-37 0 -51 -18 -55 -48c-7 -55 -32 -77 -71 -77c-41 0 -65 25 -65 60
c0 57 64 114 202 114c135 0 226 -63 226 -158c0 -89 -59 -154 -179 -177v-3c90 -14 152 -62 152 -157c0 -129 -127 -219 -299 -219z" />
    <glyph glyph-name="four.old" horiz-adv-x="580" 
d="M412 -112h-149l32 188h-293l10 60l423 442h94l-72 -426h101l-17 -76h-97zM103 152h205l44 259h-3l-246 -255v-4z" />
    <glyph glyph-name="five.old" horiz-adv-x="534" 
d="M524 578l-25 -116h-315l-33 -142c22 7 63 15 104 15c134 0 232 -65 232 -196c0 -155 -132 -263 -300 -263c-118 0 -187 45 -187 108c0 37 25 64 64 64c40 0 65 -24 71 -72c5 -42 17 -54 62 -54c82 0 159 57 159 157c0 91 -67 132 -156 132c-54 0 -103 -11 -125 -21l-8 8
l88 380h369z" />
    <glyph glyph-name="six.old" horiz-adv-x="602" 
d="M281 -12c-141 0 -236 84 -236 260c0 258 175 457 397 457c106 0 170 -45 170 -101c0 -38 -26 -65 -64 -65c-39 0 -66 21 -74 79c-4 29 -18 37 -43 37c-77 0 -180 -88 -220 -284c40 26 93 48 158 48c114 0 195 -70 195 -178c0 -149 -120 -253 -283 -253zM281 38
c77 0 132 86 132 204c0 77 -37 115 -96 115c-45 0 -86 -16 -114 -33c-8 -49 -14 -95 -14 -149c0 -75 20 -137 92 -137z" />
    <glyph glyph-name="seven.old" horiz-adv-x="529" 
d="M87 -112c76 251 226 415 380 566h-278c-45 0 -55 -7 -91 -76h-36l45 200h466l-10 -68c-170 -190 -253 -374 -306 -622h-170z" />
    <glyph glyph-name="eight.old" horiz-adv-x="579" 
d="M266 -12c-145 0 -246 64 -246 167c0 85 79 146 180 186v4c-63 40 -99 90 -99 153c0 121 121 207 246 207c130 0 214 -66 214 -150c0 -81 -59 -133 -158 -172v-5c90 -53 135 -101 135 -178c0 -115 -110 -212 -272 -212zM365 406c42 33 88 77 88 144c0 66 -40 105 -111 105
c-77 0 -122 -47 -122 -103c0 -60 57 -98 145 -146zM272 37c87 0 142 47 142 112c0 68 -70 108 -180 170c-42 -34 -97 -82 -97 -158c0 -68 49 -124 135 -124z" />
    <glyph glyph-name="nine.old" horiz-adv-x="605" 
d="M335 590c135 0 246 -86 246 -263c0 -281 -191 -451 -395 -451c-111 0 -170 42 -170 99c0 36 25 63 63 63c42 0 65 -23 71 -70c4 -31 14 -47 48 -47c99 0 180 92 217 287c-41 -27 -101 -48 -160 -48c-114 0 -192 69 -192 181c0 130 99 249 272 249zM333 541
c-71 0 -123 -86 -123 -203c0 -72 31 -114 92 -114c50 0 90 17 121 34c10 50 14 90 14 143c0 98 -38 140 -104 140z" />
    <glyph glyph-name="percent.old" horiz-adv-x="806" 
d="M206 366c56 0 92 105 92 193c0 47 -15 70 -44 70c-54 0 -91 -109 -91 -193c0 -48 14 -70 43 -70zM204 325c-86 0 -146 56 -146 139c0 114 99 206 197 206c83 0 147 -54 147 -139c0 -115 -99 -206 -198 -206zM75 -48l591 726h70l-588 -726h-73zM580 28c56 0 92 105 92 193
c0 48 -14 70 -43 70c-55 0 -92 -109 -92 -193c0 -48 14 -70 43 -70zM578 -13c-85 0 -146 56 -146 139c0 114 99 205 198 205c83 0 147 -53 147 -138c0 -115 -100 -206 -199 -206z" />
    <glyph glyph-name="perthousand.old" horiz-adv-x="1190" 
d="M204 366c56 0 93 105 93 193c0 47 -15 70 -43 70c-56 0 -93 -109 -93 -193c0 -48 14 -70 43 -70zM202 325c-85 0 -146 56 -146 139c0 114 99 206 199 206c83 0 146 -54 146 -139c0 -115 -99 -206 -199 -206zM75 -48l590 726h70l-587 -726h-73zM580 28c55 0 92 105 92 193
c0 48 -14 70 -43 70c-55 0 -92 -109 -92 -193c0 -48 14 -70 43 -70zM577 -13c-84 0 -145 56 -145 139c0 114 98 205 197 205c84 0 148 -53 148 -138c0 -115 -100 -206 -200 -206zM966 28c56 0 93 105 93 193c0 48 -15 70 -44 70c-55 0 -92 -109 -92 -193
c0 -48 14 -70 43 -70zM964 -13c-85 0 -146 56 -146 139c0 114 99 205 198 205c83 0 147 -53 147 -138c0 -115 -99 -206 -199 -206z" />
    <glyph glyph-name="plus.old" horiz-adv-x="502" 
d="M218 86v174h-164v68h164v174h77v-174h164v-68h-164v-174h-77z" />
    <glyph glyph-name="minus.old" horiz-adv-x="502" 
d="M53 260v68h407v-68h-407z" />
    <glyph glyph-name="multiply.old" horiz-adv-x="470" 
d="M100 101l-50 46l143 146l-139 142l52 48l135 -141l138 141l49 -46l-139 -143l143 -146l-52 -47l-142 144z" />
    <glyph glyph-name="divide.old" horiz-adv-x="502" 
d="M257 32c-42 0 -77 35 -77 77s35 76 77 76c43 0 78 -34 78 -76s-35 -77 -78 -77zM257 403c-42 0 -77 35 -77 76c0 42 35 77 77 77c43 0 78 -35 78 -77c0 -41 -35 -76 -78 -76zM53 260v68h407v-68h-407z" />
    <glyph glyph-name="equal.old" horiz-adv-x="552" 
d="M53 173v68h456v-68h-456zM53 347v68h456v-68h-456z" />
    <glyph glyph-name="less.old" horiz-adv-x="502" 
d="M454 73l-402 176v79l402 176v-76l-332 -139l332 -139v-77z" />
    <glyph glyph-name="greater.old" horiz-adv-x="502" 
d="M460 249l-402 -176v77l332 139l-332 139v76l402 -176v-79z" />
    <glyph glyph-name="plusminus.old" horiz-adv-x="502" 
d="M53 0v68h406v-68h-406zM218 158v162h-165v68h165v162h77v-162h164v-68h-164v-162h-77z" />
    <glyph glyph-name="notequal.old" horiz-adv-x="552" 
d="M53 348v65h259l77 134h67l-77 -134h130v-65h-167l-62 -108h229v-65h-266l-74 -129h-67l74 129h-123v65h160l62 108h-222z" />
    <glyph glyph-name="approxequal.old" horiz-adv-x="552" 
d="M461 458l55 -26c-30 -66 -62 -111 -129 -111c-62 0 -158 46 -210 46c-33 0 -55 -34 -68 -68l-53 30c22 60 60 106 125 106c61 0 155 -46 210 -46c34 0 53 32 70 69zM461 291l55 -26c-30 -66 -62 -111 -129 -111c-62 0 -158 46 -210 46c-33 0 -55 -34 -68 -68l-53 30
c22 60 60 106 125 106c61 0 155 -46 210 -46c34 0 53 32 70 69z" />
    <glyph glyph-name="lessequal.old" horiz-adv-x="502" 
d="M450 132l-401 156v79l401 156v-78l-327 -117l327 -118v-78zM49 0v68h401v-68h-401z" />
    <glyph glyph-name="greaterequal.old" horiz-adv-x="502" 
d="M449 288l-401 -157v79l327 118l-327 117v78l401 -156v-79zM449 68v-68h-401v68h401z" />
    <glyph glyph-name="numbersign.old" horiz-adv-x="509" 
d="M65 0l48 176h-81l24 94h86l33 124h-84l24 94h85l48 170h61l-48 -170h106l49 170h60l-49 -170h82l-23 -94h-85l-33 -124h83l-26 -94h-85l-47 -176h-60l47 176h-106l-49 -176h-60zM201 270h108l32 124h-107z" />
    <glyph glyph-name="dollar.tab" 
d="M525 219c0 -114 -102 -219 -263 -229l-18 -100h-54l18 100c-132 6 -190 53 -190 116c0 45 28 68 68 68c48 0 68 -18 71 -70c3 -45 11 -64 59 -69l46 254c-114 63 -157 115 -157 197c0 124 109 208 246 216l12 65h54l-12 -65c122 -7 179 -55 179 -115
c0 -44 -28 -69 -68 -69c-46 0 -61 20 -67 79c-4 37 -15 54 -53 59l-43 -235c118 -63 172 -112 172 -202zM392 145c0 51 -28 84 -81 117l-41 -227c74 8 122 52 122 110zM231 554c0 -39 15 -70 74 -107l38 210c-60 -6 -112 -40 -112 -103z" />
    <glyph glyph-name="Euro.tab" 
d="M45 390l11 58h69c60 159 191 257 323 257c116 0 174 -49 174 -110c0 -44 -24 -74 -71 -74c-52 0 -70 18 -76 85c-3 39 -11 50 -39 50c-74 0 -129 -92 -158 -208h192l-20 -58h-185c-5 -29 -8 -59 -10 -88h166l-20 -58h-148c0 -126 43 -178 139 -178c53 0 95 15 138 36
l-8 -47c-42 -34 -102 -68 -200 -68c-145 0 -230 90 -232 257h-72l12 58h62c3 30 8 60 15 88h-62z" />
    <glyph glyph-name="sterling.tab" 
d="M76 331l10 57h56c-6 28 -10 57 -10 87c1 130 98 230 266 230c113 0 186 -42 186 -106c0 -51 -25 -73 -73 -73c-56 0 -73 30 -77 85c-4 36 -8 45 -35 45c-48 0 -87 -36 -97 -109c-7 -45 -9 -105 -12 -159h162l-11 -57h-155c-1 -4 -1 -8 -1 -12c-12 -84 -65 -151 -148 -196
v-6h259c39 0 56 8 95 79h37l-45 -196h-478l17 88c84 47 135 101 137 182c0 19 -3 40 -6 61h-77z" />
    <glyph glyph-name="yen.tab" 
d="M54 285l11 58h150l-74 218c-21 62 -33 79 -58 86l-19 7l8 39h310l-9 -39l-29 -7c-31 -7 -41 -22 -41 -45c0 -16 7 -37 15 -66l47 -162h5l109 168c21 33 33 55 33 74c0 16 -9 26 -32 32l-20 6l8 39h209l-8 -39l-22 -6c-32 -8 -51 -31 -96 -98l-141 -207h154l-11 -58h-165
l-11 -63h164l-10 -58h-164l-8 -45c-11 -57 -6 -64 28 -72l36 -7l-8 -40h-328l7 40l39 7c39 8 44 14 55 72l8 45h-164l11 58h163l12 63h-164z" />
    <glyph glyph-name="zero.tab" 
d="M256 -9c-121 0 -223 93 -223 275c0 265 185 439 335 439c111 0 219 -93 219 -277c0 -237 -163 -437 -331 -437zM256 42c122 0 178 399 178 503c0 69 -24 109 -70 109c-118 0 -179 -385 -179 -503c0 -76 28 -109 71 -109z" />
    <glyph glyph-name="one.tab" 
d="M61 0l8 40l66 8c39 6 49 11 60 71l72 406l-110 12l7 42c132 17 205 63 264 124l32 -9l-104 -575c-10 -57 -3 -65 32 -70l65 -9l-8 -40h-384z" />
    <glyph glyph-name="two.tab" 
d="M-3 0l17 84c99 69 176 124 240 180c99 91 153 176 153 296c0 72 -35 96 -85 96c-30 0 -43 -11 -47 -44c-9 -74 -36 -92 -85 -92c-54 0 -70 31 -70 66c0 68 89 119 219 119c132 0 230 -62 230 -178c0 -168 -205 -285 -423 -402v-5h228c51 0 62 9 107 79h38l-48 -199h-474z
" />
    <glyph glyph-name="three.tab" 
d="M222 -13c-133 0 -210 39 -210 117c0 43 25 72 72 72c54 0 73 -21 77 -86c3 -43 13 -53 49 -53c93 0 139 98 139 198c0 73 -30 99 -102 99h-49l10 55h44c90 0 133 57 133 184c0 57 -22 83 -75 83c-32 0 -49 -10 -54 -45c-9 -59 -24 -81 -73 -81c-44 0 -68 24 -68 61
c0 66 85 114 211 114c138 0 217 -62 217 -154c0 -97 -73 -160 -196 -183v-3c106 -14 176 -66 176 -155c0 -133 -137 -223 -301 -223z" />
    <glyph glyph-name="four.tab" 
d="M189 0l7 40l38 7c35 8 45 13 56 72l12 70h-275l12 61l416 443h85l-78 -429h91l-18 -75h-87l-12 -70c-9 -55 -5 -61 29 -70l37 -9l-7 -40h-306zM124 264h191l47 253h-4l-234 -249v-4z" />
    <glyph glyph-name="five.tab" 
d="M218 -13c-118 0 -190 40 -190 108c0 42 24 71 71 71c48 0 65 -14 71 -78c4 -37 10 -51 60 -51c81 0 150 49 150 148c0 93 -59 134 -146 134c-56 0 -104 -13 -125 -23l-9 8l101 389h278c30 0 37 7 68 53h39l-42 -173h-315l-35 -138c22 8 48 14 112 14
c130 0 222 -66 222 -195c0 -160 -138 -267 -310 -267z" />
    <glyph glyph-name="six.tab" 
d="M275 -13c-139 0 -230 89 -230 257c0 284 220 461 407 461c109 0 163 -38 163 -99c0 -41 -22 -70 -69 -70c-51 0 -69 20 -76 80c-5 33 -12 40 -41 40c-71 0 -153 -93 -199 -283c35 20 79 41 150 41c104 0 169 -61 169 -164c0 -145 -107 -263 -274 -263zM277 39
c79 0 109 126 109 221c0 71 -24 94 -69 94c-42 0 -69 -15 -96 -31c-10 -56 -19 -115 -19 -181c0 -58 11 -103 75 -103z" />
    <glyph glyph-name="seven.tab" 
d="M105 0c81 238 236 421 404 571h-267c-46 0 -56 -9 -97 -80h-38l50 202h464l-13 -72c-179 -189 -268 -377 -320 -621h-183z" />
    <glyph glyph-name="eight.tab" 
d="M270 -13c-142 0 -245 66 -245 163c0 88 80 150 183 189v4c-57 40 -91 86 -91 147c0 131 125 215 247 215c114 0 211 -55 211 -152c0 -79 -83 -133 -162 -167v-5c79 -48 125 -95 125 -166c0 -128 -116 -228 -268 -228zM277 39c79 0 132 43 132 109c0 63 -56 101 -169 164
c-40 -34 -91 -82 -91 -157c0 -62 41 -116 128 -116zM377 413c39 33 85 75 85 140s-39 101 -104 101c-68 0 -115 -44 -115 -100c0 -57 43 -92 134 -141z" />
    <glyph glyph-name="nine.tab" 
d="M171 -13c-103 0 -167 37 -167 99c0 40 27 69 72 69c47 0 66 -24 76 -80c5 -30 13 -39 40 -39c101 0 158 96 194 281c-35 -20 -77 -39 -148 -39c-103 0 -169 62 -169 163c0 147 123 264 274 264c137 0 230 -83 230 -262c0 -262 -179 -456 -402 -456zM306 339
c36 0 64 15 90 31c13 59 21 117 21 180c0 53 -13 103 -76 103c-77 0 -109 -129 -109 -221c0 -66 25 -93 74 -93z" />
    <glyph glyph-name="cent.tab" 
d="M244 -146l23 135c-9 -1 -19 -2 -28 -2c-105 0 -179 65 -179 169c0 199 160 348 303 372l14 80h56l-14 -77c98 -4 147 -47 147 -92c0 -43 -22 -66 -61 -66c-42 0 -60 14 -64 69c-2 24 -9 37 -30 42l-74 -418c47 13 90 47 127 85l31 -30c-33 -41 -88 -97 -170 -121
l-26 -146h-55zM207 182c0 -75 27 -113 73 -120l74 418c-73 -29 -147 -167 -147 -298z" />
    <glyph glyph-name="percent.tab" horiz-adv-x="800" 
d="M208 387c57 0 91 127 91 206c0 48 -15 70 -44 70c-57 0 -91 -132 -91 -206c0 -48 16 -70 44 -70zM206 344c-78 0 -149 52 -149 144c0 124 104 217 199 217c76 0 149 -51 149 -141c0 -128 -103 -220 -199 -220zM135 -50h-73l611 764h72zM573 29c56 0 91 127 91 207
c0 47 -15 69 -45 69c-57 0 -91 -131 -91 -206c0 -48 16 -70 45 -70zM570 -13c-77 0 -148 51 -148 143c0 125 103 217 198 217c76 0 151 -50 151 -141c0 -127 -105 -219 -201 -219z" />
    <glyph glyph-name="perthousand.tab" horiz-adv-x="1100" 
d="M186 387c54 0 89 127 89 206c0 48 -14 70 -42 70c-55 0 -90 -132 -90 -206c0 -48 15 -70 43 -70zM183 344c-74 0 -141 52 -141 143c0 126 100 218 192 218c74 0 143 -53 143 -143c0 -128 -102 -218 -194 -218zM18 -50l622 764h74l-622 -764h-74zM523 29
c55 0 89 127 89 207c0 47 -13 69 -42 69c-55 0 -89 -131 -89 -206c0 -48 14 -70 42 -70zM521 -13c-74 0 -142 51 -142 142c0 126 101 218 193 218c73 0 143 -53 143 -142c0 -129 -102 -218 -194 -218zM887 29c54 0 89 127 89 207c0 47 -13 69 -42 69
c-55 0 -90 -131 -90 -206c0 -48 15 -70 43 -70zM885 -13c-74 0 -142 51 -142 142c0 126 101 218 192 218c74 0 144 -53 144 -142c0 -129 -102 -218 -194 -218z" />
    <glyph glyph-name="plus.tab" 
d="M262 118v185h-175v68h175v185h78v-185h175v-68h-175v-185h-78z" />
    <glyph glyph-name="minus.tab" 
d="M87 303v68h428v-68h-428z" />
    <glyph glyph-name="multiply.tab" 
d="M161 140l-50 46l147 150l-143 146l53 48l138 -145l142 145l49 -46l-143 -147l147 -150l-52 -47l-145 148z" />
    <glyph glyph-name="divide.tab" 
d="M303 86c-43 0 -77 35 -77 77s34 76 77 76s78 -34 78 -76s-35 -77 -78 -77zM303 457c-43 0 -77 35 -77 76c0 42 34 77 77 77s78 -35 78 -77c0 -41 -35 -76 -78 -76zM88 314v68h429v-68h-429z" />
    <glyph glyph-name="equal.tab" 
d="M74 216v68h464v-68h-464zM74 390v68h464v-68h-464z" />
    <glyph glyph-name="less.tab" 
d="M498 112l-410 176v79l410 176v-76l-340 -139l340 -139v-77z" />
    <glyph glyph-name="greater.tab" 
d="M118 113v76l340 139l-340 139v76l410 -175v-79z" />
    <glyph glyph-name="florin.tab" 
d="M113 350l15 58h101l14 59c39 165 133 237 263 237c82 0 129 -37 129 -88c0 -38 -23 -57 -61 -57c-42 0 -62 18 -68 69c-3 25 -8 30 -22 30c-30 0 -50 -24 -68 -98l-38 -152h143l-16 -58h-141l-73 -299c-40 -164 -118 -249 -239 -249c-89 0 -118 40 -118 79
c0 35 18 56 58 56c36 0 53 -13 59 -61c2 -24 6 -31 17 -31c20 0 32 19 45 74l102 431h-102z" />
    <glyph glyph-name="plusminus.tab" 
d="M87 0v68h426v-68h-426zM262 152v172h-175v68h175v172h77v-172h174v-68h-174v-172h-77z" />
    <glyph glyph-name="notequal.tab" 
d="M74 391v65h265l79 134h67l-79 -134h132v-65h-171l-63 -108h234v-65h-272l-76 -129h-67l76 129h-125v65h163l64 108h-227z" />
    <glyph glyph-name="approxequal.tab" 
d="M491 507l55 -26c-30 -66 -62 -111 -129 -111c-66 0 -164 46 -220 46c-33 0 -55 -34 -68 -68l-53 30c22 60 60 106 125 106s161 -46 220 -46c34 0 53 32 70 69zM491 340l55 -26c-30 -66 -62 -111 -129 -111c-66 0 -164 46 -220 46c-33 0 -55 -34 -68 -68l-53 30
c22 60 60 106 125 106s161 -46 220 -46c34 0 53 32 70 69z" />
    <glyph glyph-name="lessequal.tab" 
d="M500 132l-410 166v79l410 166v-76l-340 -129l340 -129v-77zM90 0v68h410v-68h-410z" />
    <glyph glyph-name="greaterequal.tab" 
d="M510 298l-410 -166v77l340 129l-340 129v76l410 -166v-79zM510 68v-68h-410v68h410z" />
    <glyph glyph-name="period.tab" horiz-adv-x="300" 
d="M119 -8c-54 0 -99 43 -99 95c0 54 45 97 99 97c55 0 99 -43 99 -97c0 -52 -44 -95 -99 -95z" />
    <glyph glyph-name="comma.tab" horiz-adv-x="300" 
d="M-57 -174l-10 35c141 48 190 101 194 164c-8 -6 -24 -13 -40 -13c-49 0 -78 33 -78 83c0 54 47 89 98 89c63 0 118 -48 118 -134c0 -107 -98 -202 -282 -224z" />
    <glyph glyph-name="colon.tab" horiz-adv-x="300" 
d="M120 -8c-54 0 -99 43 -99 95c0 54 45 97 99 97c55 0 98 -43 98 -97c0 -52 -43 -95 -98 -95zM174 285c-55 0 -99 44 -99 95c0 54 44 97 99 97c54 0 98 -43 98 -97c0 -51 -44 -95 -98 -95z" />
    <glyph glyph-name="semicolon.tab" horiz-adv-x="300" 
d="M-57 -174l-9 35c140 48 190 101 193 164c-8 -6 -24 -13 -40 -13c-49 0 -78 33 -78 83c0 54 47 89 99 89c62 0 118 -48 118 -134c0 -107 -99 -202 -283 -224zM163 285c-54 0 -98 44 -98 95c0 54 44 97 98 97c55 0 99 -43 99 -97c0 -51 -44 -95 -99 -95z" />
    <glyph glyph-name="parenleft.tab" horiz-adv-x="400" 
d="M274 -141c-97 85 -192 220 -192 387c0 233 184 406 345 500l24 -28c-142 -117 -240 -312 -240 -515c1 -142 43 -240 97 -320z" />
    <glyph glyph-name="parenright.tab" horiz-adv-x="400" 
d="M-9 -141l-23 27c141 117 239 313 239 515c-1 142 -43 240 -97 320l35 25c96 -86 191 -220 191 -388c0 -232 -183 -406 -345 -499z" />
    <glyph glyph-name="bracketleft.tab" horiz-adv-x="400" 
d="M40 -130l158 864h247l-8 -39l-70 -8c-51 -6 -62 -12 -73 -74l-112 -622c-12 -61 -5 -68 45 -74l68 -8l-8 -39h-247z" />
    <glyph glyph-name="bracketright.tab" horiz-adv-x="400" 
d="M-26 -130l7 39l71 8c52 6 61 13 72 74l113 622c12 61 5 68 -45 74l-69 8l8 39h246l-157 -864h-246z" />
    <glyph glyph-name="braceleft.tab" horiz-adv-x="400" 
d="M294 -131c-173 29 -224 51 -224 121c0 66 87 198 87 246c0 29 -25 46 -103 59l9 49c107 5 126 30 126 73c0 42 -21 133 -21 183c0 90 57 128 271 134l-7 -42c-98 -12 -131 -16 -134 -94c-2 -49 -1 -114 -4 -166c-2 -56 -33 -95 -164 -116v-4c88 -21 124 -48 124 -96
c0 -53 -58 -187 -58 -241c0 -30 26 -47 106 -64z" />
    <glyph glyph-name="braceright.tab" horiz-adv-x="400" 
d="M-18 -131l7 43c97 11 130 18 132 90c2 49 2 120 4 172c2 57 33 93 165 114v4c-88 21 -125 50 -125 98c0 54 58 184 58 239c0 29 -25 46 -105 64l8 41c172 -29 224 -51 224 -121c0 -66 -88 -194 -88 -243c0 -29 26 -46 102 -59l-8 -49c-108 -4 -124 -30 -124 -72
c0 -43 18 -137 18 -186c0 -91 -55 -128 -268 -135z" />
    <glyph glyph-name="parenleft.uctab" horiz-adv-x="400" 
d="M284 -97c-97 85 -192 220 -192 387c0 233 184 406 345 500l24 -28c-142 -117 -240 -312 -240 -515c1 -142 43 -240 97 -320z" />
    <glyph glyph-name="parenright.uctab" horiz-adv-x="400" 
d="M-1 -97l-23 27c141 117 239 313 239 515c-1 142 -43 240 -97 320l35 25c96 -86 191 -220 191 -388c0 -232 -183 -406 -345 -499z" />
    <glyph glyph-name="bracketleft.uctab" horiz-adv-x="400" 
d="M56 -86l158 864h247l-8 -39l-70 -8c-51 -6 -62 -12 -73 -74l-112 -622c-12 -61 -5 -68 45 -74l68 -8l-8 -39h-247z" />
    <glyph glyph-name="bracketright.uctab" horiz-adv-x="400" 
d="M-18 -86l7 39l71 8c52 6 61 13 72 74l113 622c12 61 5 68 -45 74l-69 8l8 39h246l-157 -864h-246z" />
    <glyph glyph-name="braceleft.uctab" horiz-adv-x="400" 
d="M304 -87c-173 29 -224 51 -224 121c0 66 87 198 87 246c0 29 -25 46 -103 59l9 49c107 5 126 30 126 73c0 42 -21 133 -21 183c0 90 57 128 271 134l-7 -42c-98 -12 -131 -16 -134 -94c-2 -49 -1 -114 -4 -166c-2 -56 -33 -95 -164 -116v-4c88 -21 124 -48 124 -96
c0 -53 -58 -187 -58 -241c0 -30 26 -47 106 -64z" />
    <glyph glyph-name="braceright.uctab" horiz-adv-x="400" 
d="M-10 -87l7 43c97 11 130 18 132 90c2 49 2 120 4 172c2 57 33 93 165 114v4c-88 21 -125 50 -125 98c0 54 58 184 58 239c0 29 -25 46 -105 64l8 41c172 -29 224 -51 224 -121c0 -66 -88 -194 -88 -243c0 -29 26 -46 102 -59l-8 -49c-108 -4 -124 -30 -124 -72
c0 -43 18 -137 18 -186c0 -91 -55 -128 -268 -135z" />
    <glyph glyph-name="space.tab" horiz-adv-x="300" 
 />
    <glyph glyph-name="dollar.oldtab" 
d="M515 206c0 -108 -96 -208 -245 -217l-18 -103h-53l18 103c-124 7 -180 53 -180 112c0 41 25 64 64 64c43 0 63 -18 66 -66c3 -43 11 -60 58 -64l43 241c-107 60 -147 110 -147 187c0 117 103 197 229 205l16 87h51l-16 -87c114 -7 170 -51 170 -109
c0 -41 -23 -63 -62 -63c-33 0 -58 18 -63 71c-3 35 -14 50 -53 54l-40 -222c113 -60 162 -107 162 -193zM394 139c0 49 -28 80 -79 111l-37 -215c72 7 116 48 116 104zM235 524c0 -36 16 -66 72 -100l35 198c-61 -5 -107 -40 -107 -98z" />
    <glyph glyph-name="Euro.oldtab" 
d="M37 370l10 55h66c58 152 186 245 327 245c97 0 165 -46 165 -107c0 -39 -27 -65 -64 -65c-44 0 -68 23 -74 79c-4 38 -12 46 -40 46c-76 0 -137 -87 -170 -198h206l-19 -55h-200c-6 -28 -10 -56 -12 -84h185l-19 -56h-168c1 -119 50 -164 149 -164c63 0 102 14 142 34
l-7 -45c-37 -34 -99 -67 -191 -67c-155 0 -239 87 -242 242h-68l10 56h60c2 29 6 57 13 84h-59z" />
    <glyph glyph-name="sterling.oldtab" horiz-adv-x="599" 
d="M85 314l8 55h55c-4 26 -8 53 -8 80c0 125 93 221 259 221c113 0 171 -51 171 -103c0 -47 -27 -67 -65 -67c-42 0 -66 28 -72 82c-3 32 -11 43 -35 43c-48 0 -92 -36 -102 -108c-6 -41 -6 -97 -8 -148h161l-9 -55h-156c0 -5 -1 -9 -1 -13c-10 -78 -58 -140 -137 -184v-5
h255c37 0 52 7 89 74h35l-44 -186h-461l15 83c81 46 128 96 129 173c0 18 -2 38 -5 58h-74z" />
    <glyph glyph-name="yen.oldtab" 
d="M67 283l10 55h141l-68 194c-21 60 -30 75 -54 82l-20 6l7 38h295l-9 -38l-24 -6c-28 -7 -42 -19 -43 -40c-1 -14 5 -34 15 -64l47 -145h5l99 149c21 31 32 55 32 70c-1 14 -9 23 -34 30l-23 6l7 38h208l-7 -38l-21 -5c-34 -8 -46 -26 -92 -94l-126 -183h142l-10 -55h-157
l-14 -82h155l-10 -55h-154l-6 -33c-9 -54 -6 -60 26 -68l34 -6l-8 -39h-310l7 39l36 6c37 6 42 14 52 68l6 33h-159l9 55h160l15 82h-159z" />
    <glyph glyph-name="zero.oldtab" 
d="M267 -12c-125 0 -222 77 -222 231c0 221 141 371 307 371c120 0 223 -68 223 -236c0 -222 -135 -366 -308 -366zM269 38c110 0 155 252 155 367c0 84 -21 134 -72 134c-109 0 -156 -253 -156 -370c0 -88 22 -131 73 -131z" />
    <glyph glyph-name="one.oldtab" 
d="M76 0l7 39l60 8c36 5 51 12 58 51l60 341l-102 8l6 40c113 23 184 47 246 99l32 -7l-86 -481c-7 -40 0 -47 32 -51l66 -8l-5 -39h-374z" />
    <glyph glyph-name="two.oldtab" 
d="M492 103l-33 -103h-434l13 73c76 50 150 98 217 156c89 76 136 150 136 227c0 59 -36 86 -85 86c-27 0 -42 -15 -45 -39c-8 -59 -36 -85 -78 -85c-44 0 -67 24 -67 64c0 51 61 108 189 108c143 0 237 -58 237 -154c0 -142 -156 -226 -382 -330v-3h332z" />
    <glyph glyph-name="three.oldtab" 
d="M211 -124c-129 0 -201 41 -201 115c0 33 25 61 66 61c40 0 64 -23 70 -71s21 -60 61 -60c82 0 151 71 151 194c0 77 -38 105 -110 105h-51l9 54h43c103 0 145 63 146 167c0 68 -34 100 -95 100c-37 0 -51 -18 -55 -48c-7 -55 -32 -77 -71 -77c-41 0 -65 25 -65 60
c0 57 64 114 202 114c135 0 226 -63 226 -158c0 -89 -59 -154 -179 -177v-3c90 -14 152 -62 152 -157c0 -129 -127 -219 -299 -219z" />
    <glyph glyph-name="four.oldtab" 
d="M384 -112h-145l32 188h-285l10 60l415 442h90l-72 -426h101l-17 -76h-97zM87 152h197l44 259h-3l-238 -255v-4z" />
    <glyph glyph-name="five.oldtab" 
d="M544 578l-25 -116h-315l-33 -142c22 7 63 15 104 15c134 0 232 -65 232 -196c0 -155 -132 -263 -300 -263c-118 0 -187 45 -187 108c0 37 25 64 64 64c40 0 65 -24 71 -72c5 -42 17 -54 62 -54c82 0 159 57 159 157c0 91 -67 132 -156 132c-54 0 -103 -11 -125 -21l-8 8
l88 380h369z" />
    <glyph glyph-name="six.oldtab" 
d="M283 -12c-141 0 -232 84 -232 260c0 258 171 457 393 457c106 0 170 -45 170 -101c0 -38 -26 -65 -64 -65c-39 0 -66 21 -74 79c-4 29 -18 37 -43 37c-77 0 -176 -88 -216 -284c40 26 89 48 154 48c117 0 189 -70 189 -178c0 -155 -123 -253 -277 -253zM283 38
c74 0 126 86 126 204c0 77 -31 115 -90 115c-45 0 -82 -16 -110 -33c-8 -49 -14 -95 -14 -149c0 -75 22 -137 88 -137z" />
    <glyph glyph-name="seven.oldtab" 
d="M109 -112c76 251 236 415 390 566h-278c-45 0 -55 -7 -91 -76h-36l45 200h466l-10 -68c-170 -190 -263 -374 -316 -622h-170z" />
    <glyph glyph-name="eight.oldtab" 
d="M281 -12c-145 0 -244 64 -244 167c0 85 79 146 180 186v4c-63 47 -93 98 -93 159c0 103 93 201 246 201c130 0 208 -69 208 -150s-59 -133 -158 -172v-5c81 -47 126 -101 126 -184c0 -109 -100 -206 -265 -206zM382 406c42 33 88 77 88 144c0 66 -40 105 -111 105
c-77 0 -114 -47 -114 -103c0 -60 49 -98 137 -146zM289 37c81 0 133 44 133 112s-61 108 -171 170c-42 -34 -97 -82 -97 -158c0 -68 49 -124 135 -124z" />
    <glyph glyph-name="nine.oldtab" 
d="M318 590c132 0 242 -86 242 -263c0 -281 -187 -451 -391 -451c-111 0 -170 42 -170 99c0 36 25 63 63 63c42 0 65 -23 71 -70c4 -31 14 -47 48 -47c99 0 176 92 213 287c-41 -27 -93 -48 -152 -48c-117 0 -188 69 -188 181c0 130 97 249 264 249zM316 541
c-65 0 -115 -86 -115 -203c0 -72 30 -114 88 -114c50 0 82 17 113 34c10 50 14 90 14 143c0 98 -37 140 -100 140z" />
    <glyph glyph-name="percent.oldtab" horiz-adv-x="800" 
d="M200 366c56 0 90 105 90 193c0 47 -13 70 -42 70c-54 0 -89 -109 -89 -193c0 -48 12 -70 41 -70zM198 325c-86 0 -144 56 -144 139c0 114 97 206 195 206c83 0 145 -54 145 -139c0 -115 -97 -206 -196 -206zM67 -48l575 726h70l-572 -726h-73zM554 28c56 0 90 105 90 193
c0 48 -12 70 -41 70c-55 0 -90 -109 -90 -193c0 -48 12 -70 41 -70zM552 -13c-85 0 -144 56 -144 139c0 114 97 205 196 205c83 0 145 -53 145 -138c0 -115 -98 -206 -197 -206z" />
    <glyph glyph-name="perthousand.oldtab" horiz-adv-x="1200" 
d="M214 366c56 0 90 105 90 193c0 47 -13 70 -42 70c-54 0 -89 -109 -89 -193c0 -48 12 -70 41 -70zM212 325c-86 0 -144 56 -144 139c0 114 97 206 195 206c83 0 145 -54 145 -139c0 -115 -97 -206 -196 -206zM81 -48l575 726h70l-572 -726h-73zM568 28c56 0 90 105 90 193
c0 48 -12 70 -41 70c-55 0 -90 -109 -90 -193c0 -48 12 -70 41 -70zM566 -13c-85 0 -144 56 -144 139c0 114 97 205 196 205c83 0 145 -53 145 -138c0 -115 -98 -206 -197 -206zM956 28c56 0 90 105 90 193c0 48 -12 70 -41 70c-55 0 -90 -109 -90 -193c0 -48 12 -70 41 -70
zM954 -13c-85 0 -144 56 -144 139c0 114 97 205 196 205c83 0 145 -53 145 -138c0 -115 -98 -206 -197 -206z" />
    <glyph glyph-name="plus.oldtab" 
d="M262 75v185h-175v68h175v185h78v-185h175v-68h-175v-185h-78z" />
    <glyph glyph-name="minus.oldtab" 
d="M93 260v68h415v-68h-415z" />
    <glyph glyph-name="multiply.oldtab" 
d="M160 97l-50 46l147 150l-143 146l53 48l138 -145l142 145l49 -46l-143 -147l147 -150l-52 -47l-145 148z" />
    <glyph glyph-name="divide.oldtab" 
d="M306 32c-43 0 -77 35 -77 77s34 76 77 76s78 -34 78 -76s-35 -77 -78 -77zM306 403c-43 0 -77 35 -77 76c0 42 34 77 77 77s78 -35 78 -77c0 -41 -35 -76 -78 -76zM91 260v68h429v-68h-429z" />
    <glyph glyph-name="equal.oldtab" 
d="M70 173v68h464v-68h-464zM70 347v68h464v-68h-464z" />
    <glyph glyph-name="less.oldtab" 
d="M506 73l-410 176v79l410 176v-76l-340 -139l340 -139v-77z" />
    <glyph glyph-name="greater.oldtab" 
d="M110 74v76l340 139l-340 139v76l410 -175v-79z" />
    <glyph glyph-name="plusminus.oldtab" 
d="M88 0v68h426v-68h-426zM263 148v172h-175v68h175v172h77v-172h174v-68h-174v-172h-77z" />
    <glyph glyph-name="notequal.oldtab" 
d="M70 348v65h265l79 134h67l-79 -134h132v-65h-171l-63 -108h234v-65h-272l-76 -129h-67l76 129h-125v65h163l64 108h-227z" />
    <glyph glyph-name="approxequal.oldtab" 
d="M490 458l55 -26c-30 -66 -62 -111 -129 -111c-66 0 -164 46 -220 46c-33 0 -55 -34 -68 -68l-53 30c22 60 60 106 125 106s161 -46 220 -46c34 0 53 32 70 69zM490 291l55 -26c-30 -66 -62 -111 -129 -111c-66 0 -164 46 -220 46c-33 0 -55 -34 -68 -68l-53 30
c22 60 60 106 125 106s161 -46 220 -46c34 0 53 32 70 69z" />
    <glyph glyph-name="lessequal.oldtab" 
d="M502 122l-410 166v79l410 166v-76l-340 -129l340 -129v-77zM92 0v68h410v-68h-410z" />
    <glyph glyph-name="greaterequal.oldtab" 
d="M514 288l-410 -166v77l340 129l-340 129v76l410 -166v-79zM514 68v-68h-410v68h410z" />
    <glyph glyph-name="zero.num" horiz-adv-x="472" 
d="M238 251c-107 0 -185 66 -185 178c0 174 139 273 250 273c101 0 180 -63 180 -177c0 -169 -132 -274 -245 -274zM238 296c76 0 116 171 116 274c0 60 -20 88 -55 88c-76 0 -115 -176 -115 -275c0 -61 19 -87 54 -87z" />
    <glyph glyph-name="one.num" horiz-adv-x="294" 
d="M20 261l7 36l25 6c26 8 36 12 44 49l40 220l-60 7l5 37c76 11 142 41 186 87l23 -6l-62 -346c-7 -38 -3 -42 24 -49l25 -5l-7 -36h-250z" />
    <glyph glyph-name="two.num" horiz-adv-x="375" 
d="M16 261l8 59c62 42 115 75 153 114c58 52 95 110 95 177c0 37 -22 50 -50 50c-22 0 -28 -6 -32 -29c-7 -54 -23 -61 -59 -61c-37 0 -51 21 -51 45c0 52 68 85 155 85c86 0 157 -39 157 -116c0 -93 -106 -162 -263 -232v-3h142c30 0 37 9 65 54h33l-30 -143h-323z" />
    <glyph glyph-name="three.num" horiz-adv-x="377" 
d="M167 252c-88 0 -144 27 -144 79c0 34 20 51 50 51c36 0 51 -14 55 -61c3 -23 6 -31 30 -31c52 0 83 52 83 116c0 46 -28 56 -72 56h-30l9 48h25c62 0 88 39 88 102c0 33 -18 51 -48 51c-21 0 -28 -7 -31 -28c-5 -45 -20 -54 -52 -54s-50 17 -50 42c0 45 62 78 147 78
c95 0 151 -36 151 -96c0 -55 -37 -96 -128 -111v-3c70 -8 120 -39 120 -98c0 -90 -84 -141 -203 -141z" />
    <glyph glyph-name="four.num" horiz-adv-x="414" 
d="M159 261l6 36l25 6c27 7 31 11 38 48l5 24h-204l9 42l286 276h80l-49 -265h67l-12 -53h-64l-5 -21c-7 -41 -3 -47 23 -52l23 -5l-7 -36h-221zM108 428h135l30 156h-4l-161 -153v-3z" />
    <glyph glyph-name="five.num" horiz-adv-x="369" 
d="M160 252c-78 0 -127 27 -127 74c0 25 18 48 48 48c27 0 45 -7 49 -49c2 -28 8 -34 36 -34c49 0 87 29 87 81c0 51 -42 76 -97 76c-37 0 -58 -7 -71 -12l-10 7l63 250h174c21 0 26 4 45 36h34l-29 -124h-198l-19 -73c15 4 31 6 63 6c88 0 155 -39 155 -120
c0 -99 -87 -166 -203 -166z" />
    <glyph glyph-name="six.num" horiz-adv-x="419" 
d="M220 251c-90 0 -168 57 -168 168c0 178 149 283 272 283c77 0 118 -25 118 -69c0 -27 -17 -49 -52 -49c-32 0 -47 10 -51 51c-2 19 -8 25 -24 25c-45 0 -95 -29 -125 -159c21 13 58 23 108 23c69 0 118 -39 118 -110c0 -88 -78 -163 -196 -163zM221 295
c51 0 73 70 73 124c0 39 -20 57 -51 57c-22 0 -47 -7 -59 -14c-6 -34 -10 -73 -10 -111c0 -31 13 -56 47 -56z" />
    <glyph glyph-name="seven.num" horiz-adv-x="356" 
d="M70 261c48 139 147 251 258 344h-160c-31 0 -40 -7 -67 -53h-32l34 141h307l-10 -59c-122 -118 -161 -232 -185 -373h-145z" />
    <glyph glyph-name="eight.num" horiz-adv-x="395" 
d="M200 251c-103 0 -168 42 -168 101c0 58 48 92 117 114v3c-38 23 -59 55 -59 94c0 84 88 139 178 139c79 0 146 -35 146 -95c0 -50 -43 -83 -103 -102v-3c53 -27 83 -56 83 -103c0 -83 -86 -148 -194 -148zM207 295c47 0 84 23 84 61c0 33 -32 51 -110 91
c-24 -22 -51 -42 -51 -88c0 -40 25 -64 77 -64zM275 523c25 20 50 42 50 78s-25 58 -62 58c-42 0 -74 -23 -74 -57c0 -29 23 -47 86 -79z" />
    <glyph glyph-name="nine.num" horiz-adv-x="420" 
d="M161 251c-76 0 -121 28 -121 69c0 30 18 48 53 48c32 0 48 -10 52 -52c1 -18 7 -23 26 -23c56 0 99 41 121 158c-21 -11 -58 -21 -107 -21c-69 0 -119 38 -119 108c0 88 82 164 196 164c91 0 168 -56 168 -169c0 -170 -124 -282 -269 -282zM239 477c24 0 47 8 60 15
c7 39 10 73 10 105c0 38 -14 62 -48 62c-51 0 -74 -75 -74 -126c0 -39 18 -56 52 -56z" />
    <glyph glyph-name="zero.den" horiz-adv-x="472" 
d="M165 -114c-107 0 -185 67 -185 178c0 174 139 273 250 273c101 0 180 -63 180 -177c0 -169 -132 -274 -245 -274zM165 -69c76 0 116 171 116 274c0 60 -20 88 -55 88c-76 0 -115 -176 -115 -275c0 -61 19 -87 54 -87z" />
    <glyph glyph-name="one.den" horiz-adv-x="294" 
d="M-54 -104l7 36l26 7c26 7 37 11 44 48l41 220l-62 7l6 37c75 11 142 42 186 87l23 -6l-62 -346c-6 -38 -3 -42 24 -49l26 -5l-7 -36h-252z" />
    <glyph glyph-name="two.den" horiz-adv-x="375" 
d="M-57 -104l8 59c62 42 115 75 153 114c58 53 95 111 95 178c0 36 -22 50 -50 50c-21 0 -28 -7 -32 -29c-7 -54 -23 -62 -59 -62c-37 0 -51 22 -51 46c0 51 68 84 155 84c86 0 157 -39 157 -116c0 -93 -106 -162 -263 -231v-3h142c30 0 37 8 66 53h32l-30 -143h-323z" />
    </font>
</defs>
</svg>
