<?xml version="1.0" standalone="no"?>
<!DOCTYPE svg PUBLIC "-//W3C//DTD SVG 1.1//EN" "http://www.w3.org/Graphics/SVG/1.1/DTD/svg11.dtd" >
<svg xmlns="http://www.w3.org/2000/svg" xmlns:xlink="http://www.w3.org/1999/xlink" version="1.1">
<metadata>
Created by FontForge 20170910 at Mon Jan 11 11:57:32 2016
 By Jimmy Wärting
\\\\uFFFD 2010 Paul Barnes and Christian Schwartz, under exclusive license to Schwartzco Inc./Commercial Type. All rights reserved.
</metadata>
<defs>
<font id="ChubbPublicoText-Bold" horiz-adv-x="600" >
  <font-face 
    font-family="Chubb Publico Text"
    font-weight="700"
    font-stretch="normal"
    units-per-em="1000"
    panose-1="2 4 8 2 6 5 4 6 2 3"
    ascent="781"
    descent="-219"
    x-height="519"
    cap-height="693"
    bbox="-123 -284 1279 1128"
    underline-thickness="50"
    underline-position="-108"
    stemh="54"
    stemv="159"
    unicode-range="U+0020-FB04"
  />
<missing-glyph horiz-adv-x="516" 
 />
    <glyph glyph-name="f_b" unicode="fb" horiz-adv-x="972" 
d="M636 -12c-100 0 -170 18 -230 55v587c-25 9 -38 30 -41 67c-2 24 -9 28 -25 28c-57 0 -96 -22 -96 -110v-96h109l-18 -71h-91v-343c0 -47 3 -53 34 -58l41 -8v-39h-299v39l29 7c33 9 37 14 37 57v345h-73v37l73 34v26c0 139 108 226 255 226c77 0 125 -15 149 -38l63 33
l19 -10s-8 -44 -8 -115v-79c0 -54 -6 -96 -6 -96h5c41 33 102 66 176 66c97 0 202 -62 202 -245c0 -207 -130 -299 -305 -299zM648 40c85 0 130 40 130 213c0 136 -47 189 -115 189c-55 0 -81 -13 -99 -23v-346c20 -20 47 -33 84 -33z" />
    <glyph glyph-name="f_f" unicode="ff" horiz-adv-x="694" 
d="M20 0v39l29 7c33 8 37 14 37 57v345h-73v37l73 34v9c0 145 119 227 269 227c62 0 100 -14 128 -38c46 35 108 54 178 54c80 0 127 -28 127 -83c0 -33 -21 -59 -61 -59c-46 0 -73 17 -77 67c-2 26 -6 29 -20 29c-32 0 -66 -21 -66 -98v-108h121l-18 -71h-103v-343
c0 -47 3 -53 34 -58l41 -8v-39h-296v39l29 6c30 6 34 12 34 58v345h-162v-343c0 -47 2 -53 32 -60l27 -6v-39h-283zM406 558c0 21 3 41 8 60c-16 61 -41 89 -82 89c-47 0 -88 -29 -88 -111v-77h162v39z" />
    <glyph glyph-name="f_f_b" unicode="ffb" horiz-adv-x="1292" 
d="M343 0v39l29 6c31 6 34 15 34 58v345h-162v-343c0 -47 2 -52 32 -60l27 -6v-39h-283v39l29 7c33 9 37 14 37 57v345h-73v37l73 34v9c0 145 119 227 269 227c63 0 102 -14 130 -39c45 35 106 55 176 55c77 0 125 -15 149 -38l63 33l19 -10s-8 -44 -8 -115v-79
c0 -54 -6 -96 -6 -96h5c41 33 102 66 176 66c97 0 202 -62 202 -245c0 -207 -130 -299 -305 -299c-100 0 -170 18 -230 55v587c-25 9 -38 30 -41 67c-2 24 -9 28 -25 28c-57 0 -96 -22 -96 -110v-96h109l-18 -71h-91v-343c0 -47 3 -53 34 -58l41 -8v-39h-296zM968 40
c85 0 130 40 130 213c0 136 -47 189 -115 189c-55 0 -81 -13 -99 -23v-346c20 -20 47 -33 84 -33zM244 596v-77h162v26c0 24 3 47 9 68c-16 64 -41 94 -83 94c-47 0 -88 -29 -88 -111z" />
    <glyph glyph-name="f_f_h" unicode="ffh" horiz-adv-x="1292" 
d="M343 0v39l29 6c32 7 34 15 34 58v345h-162v-343c0 -47 2 -52 32 -60l27 -6v-39h-283v39l29 7c33 9 37 14 37 57v345h-73v37l73 34v9c0 145 119 227 269 227c63 0 102 -14 130 -39c45 35 106 55 176 55c77 0 125 -15 149 -38l63 33l19 -10s-8 -48 -8 -115v-79
c0 -54 -6 -98 -6 -98h4c55 37 123 68 197 68c89 0 136 -44 136 -133v-296c0 -44 5 -49 37 -57l27 -7v-39h-282v39l27 6c29 8 32 11 32 58v251c0 62 -22 84 -73 84c-38 0 -77 -12 -99 -19v-316c0 -48 3 -50 32 -58l27 -6v-39h-277v39l26 6c30 7 34 15 34 58v527
c-25 9 -38 30 -41 67c-2 24 -9 28 -25 28c-57 0 -96 -22 -96 -110v-96h109l-18 -71h-91v-343c0 -47 2 -52 32 -60l27 -6v-39h-280zM244 596v-77h162v26c0 24 3 47 9 68c-16 64 -41 94 -83 94c-47 0 -88 -29 -88 -111z" />
    <glyph glyph-name="f_f_i" unicode="ffi" horiz-adv-x="966" 
d="M20 0v39l29 7c33 8 37 14 37 57v345h-73v37l73 34v9c0 145 119 227 269 227c63 0 103 -14 131 -39c47 35 113 55 195 55c101 0 158 -34 158 -92c0 -39 -24 -62 -68 -62c-56 0 -81 15 -89 80c-2 21 -11 27 -32 27c-47 0 -86 -27 -86 -110v-95h187l123 13l17 -9
c-2 -29 -6 -63 -6 -111v-309c0 -45 4 -50 35 -57l29 -7v-39h-282v39l26 6c28 7 34 12 34 58v285c0 51 -11 60 -47 60h-116v-343c0 -47 2 -53 32 -60l27 -6v-39h-280v39l29 6c30 6 34 12 34 58v345h-162v-343c0 -47 2 -53 32 -60l27 -6v-39h-283zM406 545c0 25 3 48 9 69
c-16 64 -42 93 -83 93c-47 0 -88 -29 -88 -111v-77h162v26z" />
    <glyph glyph-name="f_f_j" unicode="ffj" horiz-adv-x="951" 
d="M664 -243c-89 0 -135 44 -135 94c0 40 25 62 68 62c46 0 66 -19 72 -81c2 -24 9 -28 18 -28c26 0 39 24 39 53v531c0 51 -10 60 -47 60h-115v-343c0 -47 3 -52 34 -58l35 -8v-39h-290v39l29 6c32 7 34 15 34 58v345h-162v-343c0 -47 2 -52 32 -60l27 -6v-39h-283v39l29 7
c33 9 37 14 37 57v345h-73v37l73 34v9c0 145 119 227 269 227c62 0 101 -14 129 -38c46 35 112 54 197 54c101 0 157 -34 157 -92c0 -42 -24 -66 -68 -66c-55 0 -81 15 -88 80c-2 21 -11 31 -32 31c-47 0 -86 -27 -86 -110v-95h187l123 13l15 -9c-1 -29 -5 -63 -5 -111v-437
c0 -143 -94 -218 -220 -218zM244 596v-77h162v26c0 25 3 49 9 70c-17 63 -42 92 -83 92c-47 0 -88 -29 -88 -111z" />
    <glyph glyph-name="f_f_k" unicode="ffk" horiz-adv-x="1261" 
d="M343 0v39l29 6c33 7 34 15 34 58v345h-162v-343c0 -47 2 -52 32 -60l27 -6v-39h-283v39l29 7c33 9 37 14 37 57v345h-73v37l73 34v9c0 145 119 227 269 227c63 0 102 -14 130 -39c45 35 106 55 176 55c77 0 125 -15 149 -38l63 33l19 -10s-8 -48 -8 -115v-538
c0 -46 4 -50 31 -58l26 -6v-39h-275v39l26 6c30 7 34 15 34 58v527c-25 9 -38 30 -41 67c-2 24 -9 28 -25 28c-57 0 -96 -22 -96 -110v-96h109l-18 -71h-91v-343c0 -47 2 -52 32 -60l27 -6v-39h-280zM1061 0c-66 83 -118 169 -162 246v24l101 102c37 40 50 58 50 74
c0 15 -12 26 -33 31l-16 4v38h228v-39l-23 -6c-27 -7 -50 -17 -96 -62l-88 -87c55 -94 109 -185 164 -250c11 -15 22 -23 37 -28l25 -8v-39h-187zM244 596v-77h162v26c0 24 3 47 9 68c-16 64 -41 94 -83 94c-47 0 -88 -29 -88 -111z" />
    <glyph glyph-name="f_f_l" unicode="ffl" horiz-adv-x="969" 
d="M343 0v39l29 6c30 6 34 12 34 58v345h-162v-343c0 -47 2 -52 32 -60l27 -6v-39h-283v39l29 7c33 9 37 14 37 57v345h-73v37l73 34v9c0 145 119 227 269 227c63 0 102 -14 130 -39c45 35 106 55 175 55c77 0 126 -15 149 -38l63 33l19 -10s-7 -48 -7 -115v-538
c0 -45 4 -48 38 -57l29 -7v-39h-285v39l26 6c29 8 34 12 34 58v527c-25 9 -37 30 -41 67c-2 24 -8 28 -24 28c-58 0 -97 -22 -97 -110v-96h109l-18 -71h-91v-343c0 -47 3 -53 32 -60l27 -6v-39h-280zM244 596v-77h162v26c0 24 3 47 9 68c-16 64 -41 94 -83 94
c-47 0 -88 -29 -88 -111z" />
    <glyph glyph-name="f_h" unicode="fh" horiz-adv-x="972" 
d="M346 0v39l26 6c30 7 34 15 34 58v527c-25 9 -38 30 -41 67c-2 24 -9 28 -25 28c-57 0 -96 -22 -96 -110v-96h109l-18 -71h-91v-343c0 -47 2 -52 32 -60l27 -6v-39h-283v39l29 7c33 9 37 14 37 57v345h-73v37l73 34v26c0 139 108 226 255 226c77 0 125 -15 149 -38l63 33
l19 -10s-8 -48 -8 -115v-79c0 -54 -6 -98 -6 -98h4c55 37 123 68 197 68c89 0 136 -44 136 -133v-296c0 -44 5 -49 37 -57l27 -7v-39h-282v39l27 6c29 8 32 11 32 58v251c0 62 -22 84 -73 84c-38 0 -77 -12 -99 -19v-316c0 -48 3 -50 32 -58l27 -6v-39h-277z" />
    <glyph glyph-name="f_i" unicode="fi" horiz-adv-x="647" 
d="M244 614v-95h187l123 13l15 -9c-1 -29 -5 -63 -5 -111v-309c0 -45 4 -49 36 -57l29 -7v-39h-283v39l26 6c29 8 34 12 34 58v285c0 51 -10 60 -47 60h-115v-343c0 -47 2 -52 32 -60l27 -6v-39h-283v39l29 7c33 9 37 14 37 57v345h-73v37l73 34v26c0 139 94 226 275 226
c101 0 157 -34 157 -92c0 -44 -24 -66 -68 -66c-55 0 -81 15 -88 80c-2 21 -11 31 -32 31c-47 0 -86 -27 -86 -110z" />
    <glyph glyph-name="f_j" unicode="fj" horiz-adv-x="631" 
d="M344 -243c-89 0 -135 44 -135 94c0 40 25 62 68 62c46 0 66 -19 72 -81c2 -24 9 -28 18 -28c26 0 39 24 39 53v531c0 51 -10 60 -47 60h-115v-343c0 -47 3 -52 34 -58l35 -8v-39h-293v39l29 7c33 8 37 14 37 57v345h-73v37l73 34v26c0 139 94 226 275 226
c101 0 157 -34 157 -92c0 -42 -24 -66 -68 -66c-55 0 -81 15 -88 80c-2 21 -11 31 -32 31c-47 0 -86 -27 -86 -110v-95h187l123 13l15 -9c-1 -29 -5 -63 -5 -111v-437c0 -143 -94 -218 -220 -218z" />
    <glyph glyph-name="f_k" unicode="fk" horiz-adv-x="941" 
d="M346 0v39l26 6c30 7 34 15 34 58v527c-25 9 -38 30 -41 67c-2 24 -9 28 -25 28c-57 0 -96 -22 -96 -110v-96h109l-18 -71h-91v-343c0 -47 2 -52 32 -60l27 -6v-39h-283v39l29 7c33 9 37 14 37 57v345h-73v37l73 34v26c0 139 108 226 255 226c77 0 125 -15 149 -38l63 33
l19 -10s-8 -48 -8 -115v-538c0 -46 4 -50 31 -58l26 -6v-39h-275zM741 0c-66 83 -118 169 -162 246v24l101 102c37 40 50 58 50 74c0 15 -12 26 -33 31l-16 4v38h228v-39l-23 -6c-27 -7 -50 -17 -96 -62l-88 -87c55 -94 109 -185 164 -250c11 -15 22 -23 37 -28l25 -8v-39
h-187z" />
    <glyph glyph-name="f_l" unicode="fl" horiz-adv-x="649" 
d="M346 0v39l26 6c29 8 34 12 34 58v527c-25 9 -38 30 -41 67c-2 24 -9 28 -25 28c-57 0 -96 -22 -96 -110v-96h109l-18 -71h-91v-343c0 -47 2 -52 32 -60l27 -6v-39h-283v39l29 7c33 9 37 14 37 57v345h-73v37l73 34v26c0 139 108 226 255 226c77 0 125 -15 149 -38l62 33
l19 -10s-7 -48 -7 -115v-538c0 -45 4 -48 38 -57l29 -7v-39h-285z" />
    <glyph glyph-name=".notdef" horiz-adv-x="516" 
 />
    <glyph glyph-name="Eth" unicode="&#xd0;" horiz-adv-x="763" 
d="M36 321v54h66v199c0 61 -9 65 -40 72l-35 8v39h344c213 0 357 -98 357 -335c0 -228 -141 -358 -362 -358h-339v40l35 7c31 7 40 12 40 72v202h-66zM356 53c133 0 185 89 185 282c0 235 -60 305 -187 305c-34 0 -61 -4 -73 -9v-256h142v-54h-142v-174c0 -79 12 -94 75 -94
z" />
    <glyph glyph-name="eth" unicode="&#xf0;" horiz-adv-x="614" 
d="M178 574l-21 45l100 45c-36 29 -79 55 -127 77l18 40c78 -20 144 -45 199 -76l112 50l22 -44l-84 -38c132 -93 187 -222 187 -372c0 -239 -140 -313 -278 -313c-149 0 -277 85 -277 267c0 191 146 270 263 270c43 0 81 -17 110 -46c-22 54 -57 104 -103 149zM308 39
c65 0 112 30 112 210c0 195 -44 225 -118 225c-67 0 -106 -43 -106 -203c0 -194 38 -232 112 -232z" />
    <glyph glyph-name="Lslash" unicode="&#x141;" horiz-adv-x="627" 
d="M15 230v56l87 29v259c0 61 -9 65 -40 72l-35 8v39h337v-39l-42 -9c-34 -6 -41 -10 -41 -71v-197l202 69v-56l-202 -69v-176c0 -86 4 -92 93 -92c83 0 103 13 133 59c20 32 43 63 70 135h45l-17 -247h-578v40l35 7c31 7 40 12 40 72v140z" />
    <glyph glyph-name="lslash" unicode="&#x142;" horiz-adv-x="330" 
d="M13 264v58l75 38v269c0 48 -4 52 -35 67l-38 18v35l224 20l14 -11s-7 -48 -7 -115v-204l74 38v-58l-74 -38v-278c0 -45 3 -48 37 -57l29 -7v-39h-292v39l29 7c35 9 39 14 39 57v199z" />
    <glyph glyph-name="Scaron" unicode="&#x160;" horiz-adv-x="558" 
d="M256 -12c-95 0 -165 16 -210 30l-12 194h43c28 -53 47 -86 74 -120c26 -32 55 -51 111 -51c73 0 124 47 124 100c0 55 -33 91 -155 138c-146 55 -191 118 -191 219c0 121 101 207 252 207c85 0 139 -7 179 -20l12 -174h-43c-27 52 -39 75 -68 107c-20 22 -45 34 -91 34
c-68 0 -115 -41 -115 -95c0 -47 22 -73 140 -118c159 -60 218 -120 218 -219c0 -128 -95 -232 -268 -232zM253 756l-133 127l19 31l148 -54l148 54l19 -31l-132 -127h-69z" />
    <glyph glyph-name="scaron" unicode="&#x161;" horiz-adv-x="459" 
d="M202 -12c-60 0 -121 9 -162 19l-9 153h40c20 -38 31 -57 58 -87c19 -20 47 -34 92 -34c54 0 87 22 87 66c0 47 -37 65 -125 98c-92 34 -149 80 -149 162c0 96 78 168 216 168c59 0 110 -7 141 -18l5 -136h-37c-21 34 -38 55 -58 78c-14 14 -27 25 -68 25
c-51 0 -83 -22 -83 -66c0 -34 27 -54 112 -84c119 -42 170 -88 170 -166c0 -104 -83 -178 -230 -178zM203 591l-131 151l22 32l143 -80l143 80l22 -32l-130 -151h-69z" />
    <glyph glyph-name="Yacute" unicode="&#xdd;" horiz-adv-x="685" 
d="M178 0v40l39 7c35 8 41 12 41 72v165l-151 277c-36 64 -50 78 -78 86l-21 7v39h342v-39l-28 -7c-29 -6 -40 -19 -40 -40c0 -14 10 -32 22 -57l93 -192h5l95 185c13 29 19 50 19 65c0 21 -14 32 -38 39l-29 7v39h229v-39l-20 -7c-32 -10 -54 -33 -86 -97l-135 -260v-171
c0 -60 5 -64 42 -72l40 -7v-40h-341zM304 745l-12 28l140 112c18 14 34 23 53 23c31 0 53 -29 53 -59c0 -22 -12 -47 -45 -55z" />
    <glyph glyph-name="yacute" unicode="&#xfd;" horiz-adv-x="589" 
d="M132 -222c-67 0 -104 35 -104 80c0 37 22 65 60 65c42 0 57 -16 69 -49c6 -16 10 -23 17 -23c24 0 48 23 81 96l16 38l-190 411c-30 63 -35 71 -58 78l-19 6v39h296v-39l-27 -7c-22 -5 -33 -15 -33 -38c0 -14 5 -33 16 -55l93 -215h4l83 215c9 24 11 44 11 59
c0 20 -10 29 -31 34l-29 7v39h205v-39l-23 -7c-27 -8 -33 -23 -60 -87l-194 -449c-47 -108 -98 -159 -183 -159zM251 590l-12 28l140 112c18 14 34 23 53 23c31 0 53 -29 53 -59c0 -22 -12 -47 -45 -55z" />
    <glyph glyph-name="Thorn" unicode="&#xde;" horiz-adv-x="675" 
d="M27 0v40l36 7c30 7 39 12 39 72v455c0 61 -9 65 -39 72l-36 8v39h327v-39l-37 -8c-32 -7 -39 -11 -39 -72v-19h74c180 0 278 -67 278 -199c0 -118 -82 -202 -217 -202c-39 0 -65 8 -75 12v39c76 0 114 24 114 144c0 121 -37 155 -109 155c-31 0 -55 -4 -65 -7v-378
c0 -59 9 -64 41 -70l50 -9v-40h-342z" />
    <glyph glyph-name="thorn" unicode="&#xfe;" horiz-adv-x="636" 
d="M75 -134v767c0 49 -4 53 -30 66l-39 19v35l221 19l14 -10s-7 -44 -7 -115v-87c0 -54 -6 -94 -6 -94h4c43 34 103 66 175 66c97 0 203 -62 203 -245c0 -207 -126 -299 -299 -299c-22 0 -59 4 -82 10c0 0 5 -26 5 -61v-71c0 -45 3 -50 33 -57l39 -8v-38h-297v38l29 8
c34 8 37 13 37 57zM317 40c85 0 129 40 129 213c0 136 -45 189 -126 189c-43 0 -70 -16 -86 -23v-343c18 -21 46 -36 83 -36z" />
    <glyph glyph-name="Zcaron" unicode="&#x17d;" horiz-adv-x="611" 
d="M21 0v56l359 584v4h-41c-139 0 -160 -4 -190 -45c-26 -36 -42 -61 -74 -129h-40l12 223h520v-55l-357 -583v-4h34c148 0 172 6 206 51c29 38 48 72 77 141h41l-16 -243h-531zM269 756l-133 127l19 31l148 -54l148 54l19 -31l-132 -127h-69z" />
    <glyph glyph-name="zcaron" unicode="&#x17e;" horiz-adv-x="517" 
d="M21 0v51l299 413v4h-44c-77 0 -98 -5 -121 -31c-24 -29 -39 -57 -68 -107h-38l10 189h435v-49l-299 -415v-4h45c97 0 119 10 144 41c25 30 45 63 66 103h41l-17 -195h-453zM238 591l-131 151l22 32l143 -80l143 80l22 -32l-130 -151h-69z" />
    <glyph glyph-name="onehalf" unicode="&#xbd;" horiz-adv-x="864" 
d="M488 -104v59c63 46 99 76 141 121c44 43 72 91 72 148c0 61 -26 73 -62 73c-25 0 -29 -10 -33 -33c-6 -44 -19 -63 -61 -63c-32 0 -53 22 -53 49c0 46 61 86 160 86c105 0 172 -42 172 -125c0 -74 -78 -148 -231 -223v-3h139c32 0 38 9 56 55h34l-9 -144h-325zM25 261v35
l27 5c28 7 32 8 32 49v225l-59 6v37c69 12 127 45 164 87l27 -8v-347c0 -41 8 -46 33 -49l25 -5v-35h-249zM144 -50l503 764h76l-504 -764h-75z" />
    <glyph glyph-name="onequarter" unicode="&#xbc;" horiz-adv-x="856" 
d="M601 -104v35l23 5c26 7 32 9 32 49v8h-210v46l256 289h64v-278h69l-7 -57h-62v-8c0 -40 6 -44 30 -49l23 -5v-35h-218zM516 50h140v161h-5l-135 -157v-4zM25 261v35l27 5c28 7 32 8 32 49v225l-59 6v37c69 12 127 45 164 87l27 -8v-347c0 -41 8 -46 33 -49l25 -5v-35
h-249zM168 -50l503 764h76l-504 -764h-75z" />
    <glyph glyph-name="onesuperior" unicode="&#xb9;" horiz-adv-x="299" 
d="M25 261v35l27 5c28 7 32 8 32 49v225l-59 6v37c69 12 127 45 164 87l27 -8v-347c0 -41 8 -46 33 -49l25 -5v-35h-249z" />
    <glyph glyph-name="threequarters" unicode="&#xbe;" horiz-adv-x="874" 
d="M173 253c-102 0 -152 31 -152 80c0 30 21 51 49 51c35 0 55 -17 62 -61c6 -27 10 -31 40 -31c47 0 69 27 69 87c0 74 -35 83 -88 83h-31v48h27c55 0 81 16 81 79c0 57 -22 73 -54 73c-24 0 -30 -6 -33 -28c-5 -35 -16 -54 -56 -54c-29 0 -49 17 -49 45c0 47 61 76 151 76
c99 0 159 -35 159 -103c0 -47 -36 -90 -119 -104v-2c78 -6 137 -38 137 -112s-54 -127 -193 -127zM619 -104v35l23 5c26 7 32 9 32 49v8h-210v46l256 289h64v-278h69l-7 -57h-62v-8c0 -40 6 -44 30 -49l23 -5v-35h-218zM534 50h140v161h-5l-135 -157v-4zM200 -50l503 764h76
l-504 -764h-75z" />
    <glyph glyph-name="threesuperior" unicode="&#xb3;" horiz-adv-x="399" 
d="M173 253c-102 0 -152 31 -152 80c0 30 21 51 49 51c35 0 55 -17 62 -61c6 -27 10 -31 40 -31c47 0 69 27 69 87c0 74 -35 83 -88 83h-31v48h27c55 0 81 16 81 79c0 57 -22 73 -54 73c-24 0 -30 -6 -33 -28c-5 -35 -16 -54 -56 -54c-29 0 -49 17 -49 45c0 47 61 76 151 76
c99 0 159 -35 159 -103c0 -47 -36 -90 -119 -104v-2c78 -6 137 -38 137 -112s-54 -127 -193 -127z" />
    <glyph glyph-name="twosuperior" unicode="&#xb2;" horiz-adv-x="391" 
d="M23 261v59c63 45 99 76 141 121c44 43 72 91 72 148c0 60 -26 72 -62 72c-25 0 -29 -9 -33 -32c-6 -44 -19 -63 -61 -63c-32 0 -53 21 -53 49c0 46 61 86 160 86c105 0 172 -42 172 -126c0 -74 -78 -147 -231 -222v-3h139c32 0 38 9 56 54h34l-9 -143h-325z" />
    <glyph glyph-name="brokenbar" unicode="&#xa6;" horiz-adv-x="259" 
d="M96 325v409h67v-409h-67zM96 -130v386h67v-386h-67z" />
    <glyph glyph-name="minus" unicode="&#x2212;" horiz-adv-x="503" 
d="M46 303v68h411v-68h-411z" />
    <glyph glyph-name="multiply" unicode="&#xd7;" horiz-adv-x="470" 
d="M94 144l-50 46l143 146l-138 142l52 48l134 -141l138 141l49 -46l-139 -143l143 -146l-51 -47l-142 144z" />
    <glyph glyph-name="space" unicode=" " horiz-adv-x="273" 
 />
    <glyph glyph-name="exclam" unicode="!" horiz-adv-x="317" 
d="M137 241l-69 332c-24 89 25 130 91 130c64 0 114 -41 90 -130l-69 -332h-43zM158 -8c-53 0 -94 41 -94 92s41 94 94 94c54 0 96 -43 96 -94s-42 -92 -96 -92z" />
    <glyph glyph-name="quotedbl" unicode="&#x22;" horiz-adv-x="432" 
d="M298 387l-51 218c-18 74 24 103 70 103c44 0 88 -29 70 -103l-52 -218h-37zM99 387l-53 218c-19 74 24 103 70 103c44 0 87 -31 70 -103l-51 -218h-36z" />
    <glyph glyph-name="numbersign" unicode="#" horiz-adv-x="555" 
d="M92 0l36 181h-88l19 104h89l24 126h-85l18 104h90l35 178h65l-35 -178h108l35 178h66l-35 -178h87l-18 -104h-90l-26 -126h89l-19 -104h-90l-36 -181h-66l36 181h-109l-34 -181h-66zM214 285h107l26 126h-109z" />
    <glyph glyph-name="dollar" unicode="$" horiz-adv-x="553" 
d="M237 -158v147c-152 5 -220 59 -220 132c0 45 32 63 69 63c46 0 71 -6 79 -93c5 -38 17 -51 72 -54v245c-153 58 -201 126 -201 218c0 108 86 187 211 201v98h56v-96c149 -5 208 -66 208 -124c0 -39 -32 -67 -71 -67c-60 0 -72 26 -79 97c-4 33 -19 44 -58 46v-226
c164 -65 217 -126 217 -231c0 -106 -89 -198 -226 -209v-147h-57zM384 141c0 50 -22 88 -90 119v-222c60 8 90 45 90 103zM160 564c0 -51 20 -81 87 -112v202c-56 -8 -87 -40 -87 -90z" />
    <glyph glyph-name="percent" unicode="%" horiz-adv-x="870" 
d="M214 344c-93 0 -182 56 -182 176c0 132 110 184 185 184c87 0 183 -58 183 -177c0 -127 -103 -183 -186 -183zM124 -50l528 764h75l-530 -764h-73zM652 -13c-93 0 -181 56 -181 175c0 132 109 185 184 185c87 0 183 -58 183 -178c0 -127 -103 -182 -186 -182zM216 387
c48 0 67 37 67 132c0 109 -22 142 -67 142c-42 0 -67 -31 -67 -133c0 -105 20 -141 67 -141zM654 30c49 0 66 36 66 132c0 109 -20 142 -66 142c-41 0 -66 -32 -66 -134c0 -104 20 -140 66 -140z" />
    <glyph glyph-name="ampersand" unicode="&#x26;" horiz-adv-x="762" 
d="M283 -12c-185 0 -260 88 -260 189c0 99 81 161 176 198c-30 44 -46 87 -46 139c0 109 94 191 209 191c109 0 185 -54 185 -135s-81 -138 -172 -174c53 -72 104 -138 161 -204c27 43 40 80 40 107c0 26 -10 35 -33 42l-30 7v39h228v-39l-26 -7c-36 -10 -57 -37 -93 -95
c-14 -26 -28 -58 -51 -92c25 -29 40 -43 63 -67c17 -17 36 -32 61 -37l39 -10v-40h-229c-14 12 -27 27 -40 41c-44 -32 -101 -53 -182 -53zM350 430c51 32 86 69 86 137c0 67 -30 88 -73 88c-46 0 -74 -26 -74 -82s26 -96 61 -143zM327 48c44 0 78 13 101 31
c-73 81 -143 166 -204 258c-28 -30 -45 -69 -45 -127c0 -106 60 -162 148 -162z" />
    <glyph glyph-name="quotesingle" unicode="'" horiz-adv-x="227" 
d="M96 387l-54 218c-19 74 26 103 72 103c44 0 90 -29 72 -103l-54 -218h-36z" />
    <glyph glyph-name="parenleft" unicode="(" horiz-adv-x="345" 
d="M306 -141c-114 76 -267 222 -267 446c0 205 153 364 267 440l27 -29c-94 -87 -153 -227 -153 -394c0 -218 59 -335 153 -434z" />
    <glyph glyph-name="parenright" unicode=")" horiz-adv-x="345" 
d="M39 745c114 -76 267 -233 267 -445c0 -217 -153 -365 -267 -441l-27 29c94 99 154 220 154 418c0 187 -60 323 -154 410z" />
    <glyph glyph-name="asterisk" unicode="*" horiz-adv-x="450" 
d="M104 346c-27 19 -39 59 11 93l89 62l-110 5c-58 0 -73 36 -61 68c9 29 43 48 91 12l85 -56l-29 99c-19 56 12 79 46 79c33 0 62 -23 43 -79l-29 -99l87 56c48 36 80 16 91 -15s-5 -66 -62 -65l-111 -5l90 -63c50 -32 37 -74 9 -92c-27 -18 -65 -16 -82 39l-35 98l-39 -97
c-18 -55 -58 -60 -84 -40z" />
    <glyph glyph-name="plus" unicode="+" horiz-adv-x="502" 
d="M213 129v174h-167v68h167v174h77v-174h166v-68h-166v-174h-77z" />
    <glyph glyph-name="comma" unicode="," horiz-adv-x="322" 
d="M32 -171l-11 34c124 52 151 105 151 162c-8 -8 -23 -14 -43 -14c-46 0 -75 32 -75 83s43 90 100 90c65 0 116 -46 116 -130c0 -91 -66 -190 -238 -225z" />
    <glyph glyph-name="hyphen" unicode="-" horiz-adv-x="299" 
d="M31 240l12 98h226l-12 -98h-226z" />
    <glyph glyph-name="period" unicode="." horiz-adv-x="307" 
d="M153 -8c-54 0 -98 43 -98 95c0 54 44 97 98 97c55 0 99 -43 99 -97c0 -52 -44 -95 -99 -95z" />
    <glyph glyph-name="slash" unicode="/" horiz-adv-x="411" 
d="M6 -130l312 864h70l-313 -864h-69z" />
    <glyph glyph-name="zero" unicode="0" horiz-adv-x="706" 
d="M348 -12c-159 0 -311 107 -311 349c0 267 186 368 318 368c152 0 314 -111 314 -354c0 -256 -172 -363 -321 -363zM352 39c94 0 131 81 131 297c0 245 -42 318 -131 318c-83 0 -130 -68 -130 -301s39 -314 130 -314z" />
    <glyph glyph-name="one" unicode="1" horiz-adv-x="418" 
d="M32 0v40l45 7c35 7 43 12 43 72v406l-87 6v42c99 20 177 67 231 128l37 -6v-576c0 -60 8 -65 43 -72l42 -7v-40h-354z" />
    <glyph glyph-name="two" unicode="2" horiz-adv-x="561" 
d="M22 0v79c93 71 158 130 218 196c71 77 109 138 109 249c0 96 -40 135 -97 135c-42 0 -53 -13 -56 -49c-3 -77 -30 -100 -87 -100c-46 0 -74 22 -74 70c0 64 72 125 233 125c151 0 259 -66 259 -201c0 -142 -163 -262 -369 -374v-5h237c52 0 59 9 92 79h38l-15 -204h-488z
" />
    <glyph glyph-name="three" unicode="3" horiz-adv-x="575" 
d="M240 -12c-145 0 -220 44 -220 117c0 40 25 69 71 69c47 0 73 -14 83 -83c8 -47 12 -57 64 -57c84 0 112 64 112 162c0 107 -41 137 -131 137h-51v55h42c90 0 126 37 126 139c0 91 -36 132 -94 132c-31 0 -43 -7 -46 -39c-7 -71 -24 -91 -80 -91c-48 0 -70 27 -70 64
c0 71 93 112 216 112c150 0 244 -63 244 -166c0 -75 -56 -143 -188 -168v-4c125 -9 215 -64 215 -176s-94 -203 -293 -203z" />
    <glyph glyph-name="four" unicode="4" horiz-adv-x="618" 
d="M236 0v40l37 7c33 7 42 12 42 72v70h-294v59l358 445h108v-428h106l-11 -76h-95v-70c0 -60 7 -65 43 -72l40 -7v-40h-334zM105 265h210v258h-3l-207 -254v-4z" />
    <glyph glyph-name="five" unicode="5" horiz-adv-x="560" 
d="M233 -12c-130 0 -203 49 -203 116c0 36 25 66 72 66c50 0 76 -16 82 -90c4 -37 13 -46 58 -46c86 0 133 49 133 139c0 104 -71 144 -172 144c-55 0 -93 -7 -115 -16l-11 8l42 384h284c31 0 37 7 62 53h39l-19 -176h-318l-16 -132c22 6 46 13 108 13
c153 0 265 -74 265 -223c0 -136 -114 -240 -291 -240z" />
    <glyph glyph-name="six" unicode="6" horiz-adv-x="630" 
d="M322 -12c-153 0 -287 98 -287 323c0 284 188 394 363 394c109 0 179 -35 179 -97c0 -39 -26 -64 -75 -64c-52 0 -73 20 -80 80c-2 23 -10 35 -50 35c-74 0 -148 -75 -154 -288c34 24 84 49 155 49c133 0 223 -70 223 -205c0 -134 -104 -227 -274 -227zM325 39
c77 0 93 41 93 166c0 116 -35 150 -108 150c-38 0 -67 -13 -93 -29v-18c0 -197 16 -269 108 -269z" />
    <glyph glyph-name="seven" unicode="7" horiz-adv-x="540" 
d="M115 0c53 243 173 417 319 569h-291c-44 0 -49 -9 -77 -80h-40l19 204h475v-79c-142 -190 -194 -373 -216 -614h-189z" />
    <glyph glyph-name="eight" unicode="8" horiz-adv-x="599" 
d="M294 -12c-150 0 -263 60 -263 172c0 74 66 134 154 170v3c-83 43 -125 97 -125 171c0 122 119 201 247 201c117 0 231 -50 231 -160c0 -63 -62 -118 -134 -150v-4c107 -52 163 -103 163 -193c0 -114 -117 -210 -273 -210zM359 417c27 29 58 74 58 125
c0 77 -42 110 -118 110c-68 0 -114 -37 -114 -89c0 -62 59 -97 174 -146zM303 41c77 0 133 36 133 99c0 73 -65 102 -213 169c-29 -31 -64 -71 -64 -137c0 -88 47 -131 144 -131z" />
    <glyph glyph-name="nine" unicode="9" horiz-adv-x="630" 
d="M307 703c159 0 288 -98 288 -323c0 -274 -160 -394 -355 -394c-112 0 -184 36 -184 99c0 40 24 65 77 65c48 0 70 -21 80 -82c3 -22 11 -36 51 -36c91 0 139 79 148 286c-35 -23 -86 -50 -162 -50c-132 0 -216 74 -216 215c0 129 106 220 273 220zM304 652
c-73 0 -92 -39 -92 -159c0 -121 35 -158 105 -158c38 0 69 14 96 29v20c0 197 -17 268 -109 268z" />
    <glyph glyph-name="colon" unicode=":" horiz-adv-x="319" 
d="M160 305c-55 0 -99 43 -99 95c0 54 44 96 99 96c54 0 98 -42 98 -96c0 -52 -44 -95 -98 -95zM160 -8c-55 0 -99 43 -99 95c0 54 44 97 99 97c54 0 98 -43 98 -97c0 -52 -44 -95 -98 -95z" />
    <glyph glyph-name="semicolon" unicode=";" horiz-adv-x="325" 
d="M160 305c-55 0 -99 43 -99 95c0 54 44 96 99 96c54 0 98 -42 98 -96c0 -52 -44 -95 -98 -95zM37 -171l-11 34c124 52 151 105 151 162c-8 -8 -23 -14 -43 -14c-46 0 -75 32 -75 83s43 90 100 90c65 0 116 -46 116 -130c0 -91 -66 -190 -238 -225z" />
    <glyph glyph-name="less" unicode="&#x3c;" horiz-adv-x="503" 
d="M452 112l-402 176v79l402 176v-76l-332 -139l332 -139v-77z" />
    <glyph glyph-name="equal" unicode="=" horiz-adv-x="552" 
d="M46 390v68h460v-68h-460zM46 216v68h460v-68h-460z" />
    <glyph glyph-name="greater" unicode="&#x3e;" horiz-adv-x="503" 
d="M452 288l-402 -176v77l332 139l-332 139v76l402 -176v-79z" />
    <glyph glyph-name="question" unicode="?" horiz-adv-x="502" 
d="M156 238v162c74 19 155 56 155 155c0 62 -44 102 -90 102c-29 0 -35 -8 -40 -42c-8 -57 -31 -82 -82 -82c-46 0 -68 30 -68 63c0 69 79 109 196 109c148 0 232 -66 232 -181c0 -123 -112 -199 -240 -220v-66h-63zM192 -8c-53 0 -95 41 -95 92s42 94 95 94
c54 0 95 -43 95 -94s-41 -92 -95 -92z" />
    <glyph glyph-name="at" unicode="@" horiz-adv-x="996" 
d="M477 -190c-260 0 -437 153 -437 397c0 277 243 494 515 494c250 0 402 -126 402 -330c0 -243 -174 -337 -299 -337c-100 0 -119 42 -121 92h-4c-38 -63 -91 -91 -152 -91c-67 0 -112 47 -112 139c0 185 146 322 277 322c55 0 96 -17 123 -37h4l49 33l21 -11
s-15 -26 -32 -109l-37 -193c-13 -65 -6 -86 37 -86c82 0 159 95 159 247c0 193 -97 312 -316 312c-225 0 -412 -180 -412 -421c0 -227 105 -369 356 -369c106 0 198 25 269 57v-45c-58 -30 -146 -64 -290 -64zM451 117c34 0 58 33 84 73l44 229c-6 6 -13 29 -41 29
c-64 0 -131 -131 -131 -264c0 -53 16 -67 44 -67z" />
    <glyph glyph-name="A" unicode="A" horiz-adv-x="726" 
d="M5 0v40l27 7c30 8 42 17 70 88l206 558h102l214 -562c27 -69 40 -77 68 -86l24 -5v-40h-327v40l28 7c27 7 37 15 37 34c0 17 -8 36 -18 65l-23 63h-217l-22 -63c-9 -28 -16 -44 -16 -61c0 -24 13 -30 44 -38l29 -7v-40h-226zM301 511l-86 -247h179l-88 247h-5z" />
    <glyph glyph-name="B" unicode="B" horiz-adv-x="689" 
d="M27 0v40l35 7c31 7 40 12 40 72v455c0 61 -9 65 -40 72l-35 8v39h324c184 0 274 -50 274 -164c0 -90 -67 -138 -188 -156v-5c143 -16 221 -64 221 -173c0 -127 -98 -195 -278 -195h-353zM279 389h58c84 0 114 33 114 123c0 110 -35 128 -110 128c-26 0 -50 -4 -62 -7
v-244zM360 53c72 0 112 25 112 140c0 112 -36 143 -127 143h-66v-217c0 -57 11 -66 81 -66z" />
    <glyph glyph-name="C" unicode="C" horiz-adv-x="657" 
d="M396 -12c-213 0 -360 115 -360 353c0 259 175 364 374 364c78 0 150 -11 194 -23l11 -207h-42c-31 62 -54 108 -80 141c-28 35 -44 38 -96 38c-124 0 -172 -75 -172 -293c0 -259 55 -322 171 -322c64 0 86 20 116 59c27 39 44 69 69 130h41l-11 -199
c-49 -20 -126 -41 -215 -41z" />
    <glyph glyph-name="D" unicode="D" horiz-adv-x="763" 
d="M27 0v40l35 7c31 7 40 12 40 72v455c0 61 -9 65 -40 72l-35 8v39h344c213 0 357 -98 357 -335c0 -228 -141 -358 -362 -358h-339zM356 53c133 0 185 89 185 282c0 235 -60 305 -187 305c-34 0 -61 -4 -73 -9v-484c0 -79 12 -94 75 -94z" />
    <glyph glyph-name="E" unicode="E" horiz-adv-x="663" 
d="M27 0v40l35 7c31 7 40 12 40 72v455c0 61 -9 65 -40 72l-35 8v39h572l11 -200h-44c-24 56 -41 84 -57 106c-32 41 -56 40 -128 40c-57 0 -82 -5 -100 -9v-243h19c74 0 91 6 105 29c14 24 22 36 30 68h44v-253h-44c-8 32 -16 44 -30 72c-14 26 -27 29 -105 29h-19v-188
c0 -91 3 -90 109 -90c85 0 100 4 134 49c19 26 40 69 67 133h44l-15 -236h-593z" />
    <glyph glyph-name="F" unicode="F" horiz-adv-x="634" 
d="M27 0v40l35 7c31 7 40 12 40 72v455c0 61 -9 65 -40 72l-35 8v39h566l10 -206h-43c-24 57 -38 83 -59 111c-31 39 -48 42 -126 42c-48 0 -77 -5 -94 -9v-255h9c81 0 95 7 108 29c16 23 24 40 34 76h41v-270h-41c-10 35 -18 54 -34 80c-15 27 -26 30 -108 30h-9v-202
c0 -60 5 -64 42 -71l47 -8v-40h-343z" />
    <glyph glyph-name="G" unicode="G" horiz-adv-x="725" 
d="M403 -12c-239 0 -367 123 -367 355c0 261 179 362 389 362c85 0 150 -10 195 -23l13 -209h-45c-28 63 -54 100 -77 133c-24 36 -38 45 -104 45c-128 0 -184 -78 -184 -290c0 -242 43 -319 175 -319c37 0 64 8 84 19v139c0 61 -8 64 -40 71l-37 9v39h308v-39l-27 -7
c-28 -8 -33 -12 -33 -73v-171c-59 -21 -164 -41 -250 -41z" />
    <glyph glyph-name="H" unicode="H" horiz-adv-x="804" 
d="M27 0v40l35 7c31 7 40 12 40 72v455c0 61 -9 65 -40 72l-35 8v39h330v-39l-35 -8c-33 -9 -41 -11 -41 -72v-191h240v191c0 61 -7 63 -39 72l-35 8v39h330v-39l-36 -8c-32 -7 -41 -11 -41 -72v-455c0 -60 9 -64 41 -72l36 -7v-40h-330v40l35 7c32 8 39 12 39 72v207h-240
v-207c0 -60 7 -64 41 -72l35 -7v-40h-330z" />
    <glyph glyph-name="I" unicode="I" horiz-adv-x="390" 
d="M27 0v40l38 7c32 7 40 12 40 72v455c0 61 -8 65 -40 72l-38 8v39h338v-39l-40 -8c-33 -7 -40 -11 -40 -72v-455c0 -60 7 -65 40 -72l40 -7v-40h-338z" />
    <glyph glyph-name="J" unicode="J" horiz-adv-x="378" 
d="M31 -195c-103 0 -154 46 -154 102c0 42 27 69 73 69c54 0 74 -23 87 -97c4 -21 9 -27 22 -27c30 0 43 16 43 76v646c0 61 -8 65 -40 72l-38 8v39h334v-39l-36 -8c-33 -8 -41 -11 -41 -72v-522c0 -145 -89 -247 -250 -247z" />
    <glyph glyph-name="K" unicode="K" horiz-adv-x="749" 
d="M513 0c-77 100 -149 215 -205 330v17l156 176c40 43 52 73 52 89s-18 29 -36 34l-31 8v39h258v-39l-12 -4c-40 -10 -58 -28 -113 -87l-137 -147c58 -112 145 -249 217 -343c14 -16 20 -20 34 -24l43 -9v-40h-226zM27 0v40l35 7c31 7 40 12 40 72v455c0 61 -9 65 -40 72
l-35 8v39h330v-39l-35 -8c-34 -9 -41 -11 -41 -72v-455c0 -60 7 -64 41 -72l35 -7v-40h-330z" />
    <glyph glyph-name="L" unicode="L" horiz-adv-x="640" 
d="M27 0v40l35 7c31 7 40 12 40 72v455c0 61 -9 65 -40 72l-35 8v39h337v-39l-42 -9c-34 -6 -41 -10 -41 -71v-429c0 -86 4 -92 93 -92c83 0 103 13 133 59c20 32 43 63 70 135h45l-17 -247h-578z" />
    <glyph glyph-name="M" unicode="M" horiz-adv-x="915" 
d="M27 0v40l31 7c33 7 44 12 44 82v445c0 61 -9 65 -40 72l-35 8v39h292l143 -437h3l144 437h279v-39l-36 -8c-30 -8 -39 -11 -39 -72v-455c0 -60 8 -64 39 -72l36 -7v-40h-322v40l35 7c32 8 39 12 39 72v494h-4l-188 -598h-74l-203 598h-4v-479c0 -74 7 -79 47 -87l31 -7
v-40h-218z" />
    <glyph glyph-name="N" unicode="N" horiz-adv-x="740" 
d="M558 -2l-387 577h-4v-441c0 -74 7 -79 49 -87l36 -7v-40h-225v40l31 7c33 7 44 12 44 82v445c0 61 -9 65 -40 72l-35 8v39h274l270 -407h4v274c0 73 -6 77 -48 86l-41 8v39h229v-39l-30 -7c-34 -8 -45 -12 -45 -83v-566h-82z" />
    <glyph glyph-name="O" unicode="O" horiz-adv-x="763" 
d="M378 -12c-179 0 -342 111 -342 350c0 263 184 367 349 367c178 0 342 -105 342 -352c0 -264 -184 -365 -349 -365zM383 42c108 0 157 56 157 290c0 229 -42 319 -161 319c-104 0 -156 -58 -156 -292c0 -227 40 -317 160 -317z" />
    <glyph glyph-name="P" unicode="P" horiz-adv-x="673" 
d="M27 0v40l35 7c31 7 40 12 40 72v455c0 61 -8 65 -35 71l-40 9v39h333c186 0 285 -70 285 -210c0 -115 -86 -221 -217 -221c-46 0 -74 12 -85 17v38c84 0 119 29 119 159c0 123 -30 164 -113 164c-28 0 -58 -4 -68 -8v-513c0 -59 5 -63 42 -70l46 -9v-40h-342z" />
    <glyph glyph-name="Q" unicode="Q" horiz-adv-x="763" 
d="M618 -173c-80 0 -132 20 -198 63c-42 28 -91 68 -144 115c-138 35 -240 144 -240 333c0 263 184 367 349 367c178 0 342 -105 342 -352c0 -203 -107 -301 -238 -337v-3c28 -24 62 -50 95 -71c50 -30 89 -40 126 -40c32 0 65 13 85 21v-33c-29 -28 -85 -63 -177 -63z
M383 40c108 0 157 58 157 292c0 229 -42 320 -161 320c-104 0 -156 -59 -156 -293c0 -227 40 -319 160 -319z" />
    <glyph glyph-name="R" unicode="R" horiz-adv-x="735" 
d="M27 0v40l35 7c31 7 40 12 40 72v455c0 61 -9 65 -40 72l-35 8v39h333c200 0 284 -62 284 -183c0 -84 -46 -143 -140 -170v-4c44 -88 104 -191 158 -266c11 -15 18 -15 50 -25l19 -5v-40h-218c-60 78 -125 201 -165 295c-8 0 -65 1 -70 1v-177c0 -60 10 -65 41 -72l37 -7
v-40h-329zM330 348c92 0 132 38 132 149c0 116 -28 143 -110 143c-34 0 -61 -4 -74 -7v-281c5 -1 27 -4 52 -4z" />
    <glyph glyph-name="S" unicode="S" horiz-adv-x="558" 
d="M256 -12c-95 0 -165 16 -210 30l-12 194h43c28 -53 47 -86 74 -120c26 -32 55 -51 111 -51c73 0 124 47 124 100c0 55 -33 91 -155 138c-146 55 -191 118 -191 219c0 121 101 207 252 207c85 0 139 -7 179 -20l12 -174h-43c-27 52 -39 75 -68 107c-20 22 -45 34 -91 34
c-68 0 -115 -41 -115 -95c0 -47 22 -73 140 -118c159 -60 218 -120 218 -219c0 -128 -95 -232 -268 -232z" />
    <glyph glyph-name="T" unicode="T" horiz-adv-x="668" 
d="M163 0v40l39 7c37 8 43 12 43 72v521c-65 0 -85 -5 -112 -44c-25 -34 -38 -74 -67 -141h-45l10 238h606l10 -238h-45c-27 67 -41 107 -66 141c-30 41 -45 44 -112 44v-521c0 -60 4 -64 42 -72l39 -7v-40h-342z" />
    <glyph glyph-name="U" unicode="U" horiz-adv-x="739" 
d="M390 -12c-173 0 -295 62 -295 235v351c0 61 -9 65 -40 72l-37 8v39h331v-39l-34 -8c-34 -8 -41 -11 -41 -72v-371c0 -101 40 -141 158 -141c104 0 149 55 149 155v343c0 73 -7 77 -49 86l-42 8v39h229v-39l-30 -7c-32 -8 -44 -12 -44 -83v-355c0 -123 -78 -221 -255 -221
z" />
    <glyph glyph-name="V" unicode="V" horiz-adv-x="713" 
d="M315 0l-211 549c-26 66 -36 90 -70 99l-23 6v39h329v-39l-30 -7c-25 -7 -34 -19 -34 -39c0 -17 8 -43 18 -74l124 -351h5l115 351c10 30 15 52 15 70c0 25 -11 36 -38 43l-33 7v39h223v-39l-27 -8c-30 -9 -38 -30 -64 -101l-194 -545h-105z" />
    <glyph glyph-name="W" unicode="W" horiz-adv-x="1059" 
d="M284 0l-181 558c-25 65 -33 83 -63 90l-26 6v39h324v-39l-28 -7c-21 -5 -33 -16 -33 -38c0 -20 8 -47 17 -75l103 -344h5l107 298l-26 83c-18 51 -30 68 -61 76l-22 7v39h318v-39l-36 -8c-20 -3 -34 -18 -34 -40c0 -18 6 -44 15 -72l112 -344h5l99 345c7 26 13 51 13 71
c0 24 -12 36 -36 41l-33 7v39h222v-39l-25 -6c-34 -8 -47 -38 -71 -113l-169 -535h-111l-123 397h-6l-139 -397h-117z" />
    <glyph glyph-name="X" unicode="X" horiz-adv-x="750" 
d="M25 0v40l20 4c33 9 52 23 97 88l139 204l-154 239c-29 45 -41 60 -74 72l-23 7v39h355v-39l-37 -8c-19 -4 -31 -15 -31 -31c0 -15 10 -33 30 -66l83 -131h3l79 135c17 28 24 48 24 63c0 18 -14 27 -35 31l-32 7v39h234v-39l-26 -7c-28 -7 -42 -23 -87 -89l-120 -189
l161 -248c38 -58 49 -69 75 -76l19 -5v-40h-349v40l36 6c22 3 33 15 33 31c0 15 -14 36 -31 66l-93 147h-3l-92 -143c-18 -31 -29 -54 -29 -69c0 -18 11 -28 30 -32l32 -6v-40h-234z" />
    <glyph glyph-name="Y" unicode="Y" horiz-adv-x="685" 
d="M178 0v40l39 7c35 8 41 12 41 72v165l-151 277c-36 64 -50 78 -78 86l-21 7v39h342v-39l-28 -7c-29 -6 -40 -19 -40 -40c0 -14 10 -32 22 -57l93 -192h5l95 185c13 29 19 50 19 65c0 21 -14 32 -38 39l-29 7v39h229v-39l-20 -7c-32 -10 -54 -33 -86 -97l-135 -260v-171
c0 -60 5 -64 42 -72l40 -7v-40h-341z" />
    <glyph glyph-name="Z" unicode="Z" horiz-adv-x="611" 
d="M21 0v56l359 584v4h-41c-139 0 -160 -4 -190 -45c-26 -36 -42 -61 -74 -129h-40l12 223h520v-55l-357 -583v-4h34c148 0 172 6 206 51c29 38 48 72 77 141h41l-16 -243h-531z" />
    <glyph glyph-name="bracketleft" unicode="[" horiz-adv-x="384" 
d="M99 -130v864h253v-39l-72 -8c-49 -6 -58 -12 -58 -74v-622c0 -61 9 -68 58 -74l72 -8v-39h-253z" />
    <glyph glyph-name="backslash" unicode="\" horiz-adv-x="411" 
d="M335 -130l-312 864h69l313 -864h-70z" />
    <glyph glyph-name="bracketright" unicode="]" horiz-adv-x="384" 
d="M285 734v-864h-253v39l70 8c51 6 60 13 60 74v622c0 62 -9 68 -60 74l-70 8v39h253z" />
    <glyph glyph-name="asciicircum" unicode="^" horiz-adv-x="442" 
d="M67 441l-23 23l151 233h51l152 -233l-23 -23l-155 127z" />
    <glyph glyph-name="underscore" unicode="_" horiz-adv-x="362" 
d="M-3 -176v68h368v-68h-368z" />
    <glyph glyph-name="grave" unicode="`" horiz-adv-x="511" 
d="M364 590l-188 49c-33 8 -46 33 -46 55c0 30 23 59 53 59c20 0 36 -9 54 -23l140 -112z" />
    <glyph glyph-name="a" unicode="a" horiz-adv-x="561" 
d="M180 -12c-95 0 -155 50 -155 134c0 87 51 134 211 172l81 18v75c0 81 -16 98 -77 98c-32 0 -37 -8 -40 -37c-5 -63 -29 -89 -83 -89c-47 0 -68 23 -68 63c0 67 87 111 225 111c128 0 201 -40 201 -137v-267c0 -36 4 -51 25 -61c12 -7 32 -9 48 -10v-36
c-20 -14 -60 -34 -118 -34s-94 23 -105 61h-5c-25 -32 -72 -61 -140 -61zM251 65c33 0 56 13 66 30v157l-50 -5c-61 -4 -88 -30 -88 -102c0 -64 31 -80 72 -80z" />
    <glyph glyph-name="b" unicode="b" horiz-adv-x="635" 
d="M299 -12c-100 0 -170 18 -230 55v584c0 47 -4 52 -31 66l-39 19v35l222 19l14 -10s-8 -44 -8 -115v-79c0 -54 -6 -96 -6 -96h5c41 33 102 66 176 66c97 0 202 -62 202 -245c0 -207 -130 -299 -305 -299zM311 40c85 0 130 40 130 213c0 136 -47 189 -115 189
c-55 0 -81 -13 -99 -23v-346c20 -20 47 -33 84 -33z" />
    <glyph glyph-name="c" unicode="c" horiz-adv-x="524" 
d="M285 -12c-165 0 -256 104 -256 267c0 209 169 278 310 278c102 0 162 -33 162 -93c0 -40 -28 -80 -71 -80c-52 0 -68 35 -72 76c-5 39 -13 45 -46 45c-61 0 -124 -35 -124 -181c0 -143 54 -223 169 -223c64 0 105 20 143 39v-45c-30 -35 -105 -83 -215 -83z" />
    <glyph glyph-name="d" unicode="d" horiz-adv-x="649" 
d="M235 -12c-101 0 -202 71 -202 254c0 207 138 290 297 290c30 0 63 -4 84 -10c0 0 -5 36 -5 72v33c0 46 -6 49 -32 63l-42 22v35l225 19l14 -10s-7 -44 -7 -115v-510c0 -49 3 -54 33 -66l30 -13v-35l-208 -29l-10 8l4 56h-4c-44 -36 -105 -64 -177 -64zM319 78
c44 0 73 15 89 23v338c-17 20 -43 41 -82 41c-78 0 -130 -49 -130 -207c0 -148 42 -195 123 -195z" />
    <glyph glyph-name="e" unicode="e" horiz-adv-x="556" 
d="M295 -12c-178 0 -266 104 -266 274c0 172 131 271 266 271c142 0 229 -72 232 -261h-341c7 -147 70 -195 173 -195c66 0 113 19 153 38v-45c-35 -37 -113 -82 -217 -82zM288 483c-55 0 -97 -43 -102 -161l182 9c0 119 -16 152 -80 152z" />
    <glyph glyph-name="f" unicode="f" horiz-adv-x="374" 
d="M20 0v39l29 7c33 9 37 14 37 57v345h-73v37l73 34v39c0 133 99 213 255 213c80 0 127 -28 127 -83c0 -33 -22 -59 -61 -59c-46 0 -73 17 -77 67c-2 26 -6 29 -20 29c-33 0 -66 -21 -66 -98v-108h121l-18 -71h-103v-343c0 -47 3 -53 34 -58l41 -8v-39h-299z" />
    <glyph glyph-name="g" unicode="g" horiz-adv-x="563" 
d="M229 -229c-149 0 -235 41 -235 115c0 51 47 89 122 114v4c-44 9 -82 40 -82 92c0 61 50 99 83 121v4c-47 22 -86 72 -86 133c0 114 104 178 223 178c51 0 84 -5 126 -19c40 38 86 69 139 69c36 0 61 -18 61 -55c0 -32 -14 -62 -50 -62c-32 0 -43 14 -54 34
c-8 13 -38 4 -65 -14v-4c40 -20 69 -61 69 -114c0 -115 -104 -177 -226 -177c-37 0 -65 4 -94 17c-13 -9 -26 -29 -26 -48c0 -21 15 -39 54 -39h174c98 0 169 -34 169 -136c0 -106 -90 -213 -302 -213zM254 239c53 0 78 29 78 118c0 96 -26 127 -78 127
c-50 0 -75 -31 -75 -120c0 -96 26 -125 75 -125zM251 -177c121 0 175 49 175 102c0 44 -21 67 -87 67h-166c-20 -10 -58 -43 -58 -89c0 -50 38 -80 136 -80z" />
    <glyph glyph-name="h" unicode="h" horiz-adv-x="652" 
d="M20 0v39l29 7c33 9 37 14 37 57v524c0 47 -4 52 -33 66l-38 19v35l223 19l14 -10s-8 -48 -8 -115v-79c0 -54 -6 -98 -6 -98h4c55 37 123 68 197 68c89 0 136 -44 136 -133v-296c0 -44 5 -49 37 -57l27 -7v-39h-282v39l27 6c29 8 32 11 32 58v251c0 62 -22 84 -73 84
c-38 0 -77 -12 -99 -19v-316c0 -48 3 -50 32 -58l27 -6v-39h-283z" />
    <glyph glyph-name="i" unicode="i" horiz-adv-x="326" 
d="M161 594c-54 0 -96 38 -96 87c0 51 42 87 96 87c51 0 93 -36 93 -87c0 -49 -42 -87 -93 -87zM20 0v39l29 7c33 9 37 14 37 57v288c0 42 -5 45 -34 64l-35 22v32l221 23l14 -9c-1 -29 -8 -63 -8 -143v-277c0 -45 4 -49 36 -57l29 -7v-39h-289z" />
    <glyph glyph-name="j" unicode="j" horiz-adv-x="314" 
d="M160 594c-54 0 -95 38 -95 87c0 51 41 87 95 87c52 0 93 -36 93 -87c0 -49 -41 -87 -93 -87zM24 -226c-89 0 -136 44 -136 94c0 40 26 62 69 62c46 0 65 -19 71 -81c3 -24 9 -28 19 -28c26 0 39 24 39 53v517c0 42 -5 45 -34 64l-35 22v32l221 23l14 -9
c-1 -29 -8 -64 -8 -151v-380c0 -143 -94 -218 -220 -218z" />
    <glyph glyph-name="k" unicode="k" horiz-adv-x="621" 
d="M20 0v39l29 7c33 9 37 14 37 57v524c0 47 -4 52 -33 66l-38 19v35l223 19l14 -10s-8 -48 -8 -115v-538c0 -46 4 -50 31 -58l26 -6v-39h-281zM421 0c-66 83 -118 169 -162 246v24l101 102c37 40 50 58 50 74c0 15 -12 26 -33 31l-16 4v38h228v-39l-23 -6
c-27 -7 -50 -17 -96 -62l-88 -87c55 -94 109 -185 164 -250c11 -15 22 -23 37 -28l25 -8v-39h-187z" />
    <glyph glyph-name="l" unicode="l" horiz-adv-x="330" 
d="M20 0v39l29 7c35 9 39 14 39 57v524c0 47 -4 52 -35 66l-38 19v35l224 19l15 -10s-8 -48 -8 -115v-538c0 -45 3 -48 37 -57l29 -7v-39h-292z" />
    <glyph glyph-name="m" unicode="m" horiz-adv-x="963" 
d="M20 0v39l29 7c33 9 37 14 37 57v288c0 42 -5 45 -34 64l-35 22v32l211 23l14 -10l-7 -60h5c54 37 120 70 191 70c66 0 102 -24 123 -71h4c56 37 118 71 194 71c82 0 128 -44 128 -134v-295c0 -44 5 -49 36 -57l29 -7v-39h-281v39l26 6c29 8 32 11 32 58v251
c0 60 -17 84 -66 84c-37 0 -70 -12 -93 -20c0 -8 -1 -11 -1 -26v-289c0 -46 5 -50 30 -58l26 -6v-39h-272v39l26 6c28 8 32 11 32 58v251c0 60 -18 84 -66 84c-37 0 -72 -11 -94 -19v-316c0 -48 4 -50 30 -58l26 -6v-39h-280z" />
    <glyph glyph-name="n" unicode="n" horiz-adv-x="658" 
d="M20 0v39l29 7c33 9 37 14 37 57v288c0 42 -5 45 -34 64l-35 22v32l211 23l14 -9l-7 -61h5c54 37 125 70 199 70c89 0 136 -44 136 -133v-296c0 -44 5 -49 37 -57l27 -7v-39h-282v39l27 6c29 8 32 11 32 58v251c0 62 -22 84 -73 84c-38 0 -77 -12 -99 -19v-316
c0 -48 3 -50 32 -58l27 -6v-39h-283z" />
    <glyph glyph-name="o" unicode="o" horiz-adv-x="612" 
d="M307 -12c-150 0 -278 88 -278 271c0 190 138 274 278 274c147 0 276 -87 276 -270c0 -190 -136 -275 -276 -275zM310 39c64 0 106 38 106 220c0 186 -40 222 -114 222c-67 0 -106 -42 -106 -212c0 -188 36 -230 114 -230z" />
    <glyph glyph-name="p" unicode="p" horiz-adv-x="652" 
d="M20 -219v38l29 8c33 8 37 13 37 57v507c0 42 -5 45 -34 64l-35 22v32l211 23l14 -9l-6 -59h4c45 36 105 68 177 68c98 0 202 -62 202 -245c0 -207 -125 -299 -298 -299c-22 0 -59 4 -82 10c0 0 5 -26 5 -61v-53c0 -45 3 -50 34 -57l38 -8v-38h-296zM327 40
c85 0 130 40 130 213c0 136 -46 189 -127 189c-42 0 -71 -16 -86 -23v-343c19 -21 47 -36 83 -36z" />
    <glyph glyph-name="q" unicode="q" horiz-adv-x="640" 
d="M335 -219v33l38 8c32 7 35 12 35 57v95c0 44 8 78 8 78h-4c-44 -36 -105 -64 -177 -64c-101 0 -202 71 -202 254c0 207 138 290 297 290c76 0 119 -17 160 -41h6l44 42l27 -7v-647c0 -44 4 -49 35 -57l29 -8v-33h-296zM319 73c44 0 73 18 89 25v346c-17 17 -44 36 -82 36
c-78 0 -130 -49 -130 -207c0 -148 42 -200 123 -200z" />
    <glyph glyph-name="r" unicode="r" horiz-adv-x="487" 
d="M20 0v39l29 7c33 9 37 14 37 57v288c0 42 -5 45 -34 64l-35 22v32l211 23l14 -10l-7 -66h5c31 34 95 76 154 76c47 0 77 -26 77 -74c0 -47 -26 -76 -69 -76c-47 0 -59 10 -79 41c-7 11 -16 14 -27 14c-18 0 -38 -17 -52 -30v-304c0 -47 4 -52 33 -57l36 -7v-39h-293z" />
    <glyph glyph-name="s" unicode="s" horiz-adv-x="459" 
d="M202 -12c-60 0 -121 9 -162 19l-9 153h40c20 -38 31 -57 58 -87c19 -20 47 -34 92 -34c54 0 87 22 87 66c0 47 -37 65 -125 98c-92 34 -149 80 -149 162c0 96 78 168 216 168c59 0 110 -7 141 -18l5 -136h-37c-21 34 -38 55 -58 78c-14 14 -27 25 -68 25
c-51 0 -83 -22 -83 -66c0 -34 27 -54 112 -84c119 -42 170 -88 170 -166c0 -104 -83 -178 -230 -178z" />
    <glyph glyph-name="t" unicode="t" horiz-adv-x="388" 
d="M215 -12c-89 0 -142 39 -142 136v324h-65v36c80 27 126 86 155 171h69v-136h140l-17 -71h-123v-310c0 -49 17 -69 68 -69c24 0 56 7 74 11v-40c-23 -25 -75 -52 -159 -52z" />
    <glyph glyph-name="u" unicode="u" horiz-adv-x="656" 
d="M219 -12c-82 0 -135 45 -135 133v275c0 42 -2 45 -32 62l-37 20v32l210 22l17 -11v-360c0 -59 23 -81 71 -81c39 0 76 15 102 25v291c0 42 -3 46 -33 62l-35 20v32l210 22l16 -11v-390c0 -49 3 -54 34 -66l29 -13v-35l-205 -29l-14 10l6 65h-4c-55 -39 -121 -75 -200 -75
z" />
    <glyph glyph-name="v" unicode="v" horiz-adv-x="580" 
d="M252 0l-167 396c-24 56 -33 70 -62 78l-19 6v39h298v-39l-27 -7c-23 -6 -33 -16 -33 -40c0 -13 7 -30 15 -53l84 -228h5l79 228c8 24 12 41 12 55c0 21 -9 33 -31 38l-28 7v39h201v-39l-20 -6c-28 -8 -37 -24 -63 -88l-152 -386h-92z" />
    <glyph glyph-name="w" unicode="w" horiz-adv-x="877" 
d="M233 0l-147 396c-22 58 -33 70 -61 78l-20 6v39h280v-39l-22 -6c-17 -4 -27 -14 -27 -31c0 -14 8 -35 17 -63l73 -223h7l79 220l-6 19c-18 54 -31 72 -54 78l-20 6v39h278v-39l-29 -7c-19 -5 -28 -17 -28 -38c0 -13 4 -32 12 -55l76 -223h6l71 223c8 25 12 43 12 56
c0 20 -9 32 -30 37l-29 7v39h201v-39l-20 -6c-28 -8 -39 -24 -63 -88l-143 -386h-97l-105 302h-3l-111 -302h-97z" />
    <glyph glyph-name="x" unicode="x" horiz-adv-x="617" 
d="M22 0v39l24 5c33 8 55 24 90 75l94 138l-112 147c-42 58 -57 65 -82 72l-16 4v39h305v-39l-23 -4c-18 -4 -30 -13 -30 -28c0 -12 11 -28 26 -48l60 -80h3l41 66c16 29 26 46 26 60c0 15 -10 24 -30 29l-25 5v39h215v-39l-22 -5c-30 -8 -55 -30 -91 -80l-85 -116l124 -164
c40 -53 49 -64 82 -73l14 -3v-39h-304v39l23 4c20 4 28 13 28 27c0 13 -14 29 -31 55l-63 91h-3l-45 -81c-19 -31 -30 -49 -30 -63c0 -16 8 -24 36 -29l19 -4v-39h-218z" />
    <glyph glyph-name="y" unicode="y" horiz-adv-x="589" 
d="M132 -222c-67 0 -104 35 -104 80c0 37 22 65 60 65c42 0 57 -16 69 -49c6 -16 10 -23 17 -23c24 0 48 23 81 96l16 38l-190 411c-30 63 -35 71 -58 78l-19 6v39h296v-39l-27 -7c-22 -5 -33 -15 -33 -38c0 -14 5 -33 16 -55l93 -215h4l83 215c9 24 11 44 11 59
c0 20 -10 29 -31 34l-29 7v39h205v-39l-23 -7c-27 -8 -33 -23 -60 -87l-194 -449c-47 -108 -98 -159 -183 -159z" />
    <glyph glyph-name="z" unicode="z" horiz-adv-x="517" 
d="M21 0v51l299 413v4h-44c-77 0 -98 -5 -121 -31c-24 -29 -39 -57 -68 -107h-38l10 189h435v-49l-299 -415v-4h45c97 0 119 10 144 41c25 30 45 63 66 103h41l-17 -195h-453z" />
    <glyph glyph-name="braceleft" unicode="{" horiz-adv-x="395" 
d="M356 -129c-205 11 -247 55 -247 125c0 53 53 190 53 229c0 29 -22 50 -117 54v50c93 4 117 26 117 55c0 39 -53 174 -53 227c0 69 42 113 247 125v-42c-96 -13 -112 -27 -112 -77c0 -66 21 -148 21 -201c0 -58 -39 -94 -145 -110v-4c104 -14 145 -51 145 -109
c0 -53 -21 -137 -21 -204c0 -50 16 -63 112 -77v-41z" />
    <glyph glyph-name="bar" unicode="|" horiz-adv-x="259" 
d="M96 -130v864h67v-864h-67z" />
    <glyph glyph-name="braceright" unicode="}" horiz-adv-x="395" 
d="M46 736c205 -12 247 -56 247 -125c0 -53 -53 -186 -53 -226c0 -29 27 -52 117 -56v-50c-97 -4 -117 -23 -117 -52c0 -40 53 -178 53 -231c0 -70 -42 -114 -247 -125v41c96 14 112 27 112 77c0 67 -20 153 -20 206c0 58 28 95 144 107v4c-93 18 -144 54 -144 112
c0 53 20 133 20 199c0 50 -16 64 -112 77v42z" />
    <glyph glyph-name="asciitilde" unicode="~" horiz-adv-x="413" 
d="M72 227l-34 16c29 72 53 118 99 118c47 0 113 -35 150 -35c21 0 38 15 57 46l35 -16c-30 -72 -50 -118 -100 -118c-48 0 -112 35 -151 35c-20 0 -37 -15 -56 -46z" />
    <glyph glyph-name="Adieresis" unicode="&#xc4;" horiz-adv-x="726" 
d="M5 0v40l27 7c30 8 42 17 70 88l206 558h102l214 -562c27 -69 40 -77 68 -86l24 -5v-40h-327v40l28 7c27 7 37 15 37 34c0 17 -8 36 -18 65l-23 63h-217l-22 -63c-9 -28 -16 -44 -16 -61c0 -24 13 -30 44 -38l29 -7v-40h-226zM301 511l-86 -247h179l-88 247h-5zM241 748
c-47 0 -86 35 -86 81s39 81 86 81s86 -35 86 -81s-39 -81 -86 -81zM478 748c-48 0 -86 35 -86 81s38 81 86 81c46 0 85 -35 85 -81s-39 -81 -85 -81z" />
    <glyph glyph-name="Aring" unicode="&#xc5;" horiz-adv-x="726" 
d="M5 0v40l27 7c30 8 42 17 70 88l206 558h102l214 -562c27 -69 40 -77 68 -86l24 -5v-40h-327v40l28 7c27 7 37 15 37 34c0 17 -8 36 -18 65l-23 63h-217l-22 -63c-9 -28 -16 -44 -16 -61c0 -24 13 -30 44 -38l29 -7v-40h-226zM301 511l-86 -247h179l-88 247h-5zM359 736
c-68 0 -115 46 -115 107c0 62 51 109 115 109c65 0 115 -45 115 -109c0 -61 -50 -107 -115 -107zM359 781c35 0 57 26 57 62s-22 63 -57 63s-57 -27 -57 -63s22 -62 57 -62z" />
    <glyph glyph-name="Ccedilla" unicode="&#xc7;" horiz-adv-x="657" 
d="M223 -260v33c80 18 118 45 118 73c0 20 -22 35 -74 38l-9 10l50 102c-164 28 -272 141 -272 345c0 259 175 364 374 364c78 0 150 -11 194 -23l11 -207h-42c-31 62 -54 108 -80 141c-28 35 -44 38 -96 38c-124 0 -172 -75 -172 -293c0 -259 55 -322 171 -322
c64 0 86 20 116 59c27 39 44 69 69 130h41l-11 -199c-49 -20 -126 -41 -215 -41c-13 0 -26 1 -38 2l-33 -45c79 -5 112 -39 112 -79c0 -58 -72 -111 -214 -126z" />
    <glyph glyph-name="Eacute" unicode="&#xc9;" horiz-adv-x="663" 
d="M27 0v40l35 7c31 7 40 12 40 72v455c0 61 -9 65 -40 72l-35 8v39h572l11 -200h-44c-24 56 -41 84 -57 106c-32 41 -56 40 -128 40c-57 0 -82 -5 -100 -9v-243h19c74 0 91 6 105 29c14 24 22 36 30 68h44v-253h-44c-8 32 -16 44 -30 72c-14 26 -27 29 -105 29h-19v-188
c0 -91 3 -90 109 -90c85 0 100 4 134 49c19 26 40 69 67 133h44l-15 -236h-593zM256 745l-12 28l140 112c18 14 34 23 53 23c31 0 53 -29 53 -59c0 -22 -12 -47 -45 -55z" />
    <glyph glyph-name="Ntilde" unicode="&#xd1;" horiz-adv-x="740" 
d="M558 -2l-387 577h-4v-441c0 -74 7 -79 49 -87l36 -7v-40h-225v40l31 7c33 7 44 12 44 82v445c0 61 -9 65 -40 72l-35 8v39h274l270 -407h4v274c0 73 -6 77 -48 86l-41 8v39h229v-39l-30 -7c-34 -8 -45 -12 -45 -83v-566h-82zM262 759l-39 18c29 88 60 141 108 141
c54 0 126 -49 163 -49c27 0 40 26 61 63l38 -17c-29 -88 -55 -141 -105 -141c-54 0 -128 49 -165 49c-27 0 -40 -27 -61 -64z" />
    <glyph glyph-name="Odieresis" unicode="&#xd6;" horiz-adv-x="763" 
d="M378 -12c-179 0 -342 111 -342 350c0 263 184 367 349 367c178 0 342 -105 342 -352c0 -264 -184 -365 -349 -365zM383 42c108 0 157 56 157 290c0 229 -42 319 -161 319c-104 0 -156 -58 -156 -292c0 -227 40 -317 160 -317zM263 748c-47 0 -86 35 -86 81s39 81 86 81
s86 -35 86 -81s-39 -81 -86 -81zM500 748c-48 0 -86 35 -86 81s38 81 86 81c46 0 85 -35 85 -81s-39 -81 -85 -81z" />
    <glyph glyph-name="Udieresis" unicode="&#xdc;" horiz-adv-x="739" 
d="M390 -12c-173 0 -295 62 -295 235v351c0 61 -9 65 -40 72l-37 8v39h331v-39l-34 -8c-34 -8 -41 -11 -41 -72v-371c0 -101 40 -141 158 -141c104 0 149 55 149 155v343c0 73 -7 77 -49 86l-42 8v39h229v-39l-30 -7c-32 -8 -44 -12 -44 -83v-355c0 -123 -78 -221 -255 -221
zM297 748c-47 0 -86 35 -86 81s39 81 86 81s86 -35 86 -81s-39 -81 -86 -81zM534 748c-48 0 -86 35 -86 81s38 81 86 81c46 0 85 -35 85 -81s-39 -81 -85 -81z" />
    <glyph glyph-name="aacute" unicode="&#xe1;" horiz-adv-x="561" 
d="M180 -12c-95 0 -155 50 -155 134c0 87 51 134 211 172l81 18v75c0 81 -16 98 -77 98c-32 0 -37 -8 -40 -37c-5 -63 -29 -89 -83 -89c-47 0 -68 23 -68 63c0 67 87 111 225 111c128 0 201 -40 201 -137v-267c0 -36 4 -51 25 -61c12 -7 32 -9 48 -10v-36
c-20 -14 -60 -34 -118 -34s-94 23 -105 61h-5c-25 -32 -72 -61 -140 -61zM251 65c33 0 56 13 66 30v157l-50 -5c-61 -4 -88 -30 -88 -102c0 -64 31 -80 72 -80zM187 590l-12 28l140 112c18 14 34 23 53 23c31 0 53 -29 53 -59c0 -22 -12 -47 -45 -55z" />
    <glyph glyph-name="agrave" unicode="&#xe0;" horiz-adv-x="561" 
d="M180 -12c-95 0 -155 50 -155 134c0 87 51 134 211 172l81 18v75c0 81 -16 98 -77 98c-32 0 -37 -8 -40 -37c-5 -63 -29 -89 -83 -89c-47 0 -68 23 -68 63c0 67 87 111 225 111c128 0 201 -40 201 -137v-267c0 -36 4 -51 25 -61c12 -7 32 -9 48 -10v-36
c-20 -14 -60 -34 -118 -34s-94 23 -105 61h-5c-25 -32 -72 -61 -140 -61zM251 65c33 0 56 13 66 30v157l-50 -5c-61 -4 -88 -30 -88 -102c0 -64 31 -80 72 -80zM363 590l-188 49c-33 8 -46 33 -46 55c0 30 23 59 53 59c20 0 36 -9 54 -23l140 -112z" />
    <glyph glyph-name="acircumflex" unicode="&#xe2;" horiz-adv-x="561" 
d="M180 -12c-95 0 -155 50 -155 134c0 87 51 134 211 172l81 18v75c0 81 -16 98 -77 98c-32 0 -37 -8 -40 -37c-5 -63 -29 -89 -83 -89c-47 0 -68 23 -68 63c0 67 87 111 225 111c128 0 201 -40 201 -137v-267c0 -36 4 -51 25 -61c12 -7 32 -9 48 -10v-36
c-20 -14 -60 -34 -118 -34s-94 23 -105 61h-5c-25 -32 -72 -61 -140 -61zM251 65c33 0 56 13 66 30v157l-50 -5c-61 -4 -88 -30 -88 -102c0 -64 31 -80 72 -80zM305 766l131 -152l-22 -31l-143 79l-143 -79l-22 31l130 152h69z" />
    <glyph glyph-name="adieresis" unicode="&#xe4;" horiz-adv-x="561" 
d="M180 -12c-95 0 -155 50 -155 134c0 87 51 134 211 172l81 18v75c0 81 -16 98 -77 98c-32 0 -37 -8 -40 -37c-5 -63 -29 -89 -83 -89c-47 0 -68 23 -68 63c0 67 87 111 225 111c128 0 201 -40 201 -137v-267c0 -36 4 -51 25 -61c12 -7 32 -9 48 -10v-36
c-20 -14 -60 -34 -118 -34s-94 23 -105 61h-5c-25 -32 -72 -61 -140 -61zM251 65c33 0 56 13 66 30v157l-50 -5c-61 -4 -88 -30 -88 -102c0 -64 31 -80 72 -80zM157 598c-47 0 -86 35 -86 81s39 81 86 81s86 -35 86 -81s-39 -81 -86 -81zM386 598c-48 0 -86 35 -86 81
s38 81 86 81c46 0 85 -35 85 -81s-39 -81 -85 -81z" />
    <glyph glyph-name="atilde" unicode="&#xe3;" horiz-adv-x="561" 
d="M180 -12c-95 0 -155 50 -155 134c0 87 51 134 211 172l81 18v75c0 81 -16 98 -77 98c-32 0 -37 -8 -40 -37c-5 -63 -29 -89 -83 -89c-47 0 -68 23 -68 63c0 67 87 111 225 111c128 0 201 -40 201 -137v-267c0 -36 4 -51 25 -61c12 -7 32 -9 48 -10v-36
c-20 -14 -60 -34 -118 -34s-94 23 -105 61h-5c-25 -32 -72 -61 -140 -61zM251 65c33 0 56 13 66 30v157l-50 -5c-61 -4 -88 -30 -88 -102c0 -64 31 -80 72 -80zM133 584l-39 18c29 88 60 141 108 141c54 0 111 -39 148 -39c27 0 40 26 61 63l38 -17
c-29 -88 -55 -141 -105 -141c-54 0 -113 39 -150 39c-27 0 -40 -27 -61 -64z" />
    <glyph glyph-name="aring" unicode="&#xe5;" horiz-adv-x="561" 
d="M180 -12c-95 0 -155 50 -155 134c0 87 51 134 211 172l81 18v75c0 81 -16 98 -77 98c-32 0 -37 -8 -40 -37c-5 -63 -29 -89 -83 -89c-47 0 -68 23 -68 63c0 67 87 111 225 111c128 0 201 -40 201 -137v-267c0 -36 4 -51 25 -61c12 -7 32 -9 48 -10v-36
c-20 -14 -60 -34 -118 -34s-94 23 -105 61h-5c-25 -32 -72 -61 -140 -61zM251 65c33 0 56 13 66 30v157l-50 -5c-61 -4 -88 -30 -88 -102c0 -64 31 -80 72 -80zM271 585c-68 0 -115 46 -115 107c0 62 51 109 115 109c65 0 115 -45 115 -109c0 -61 -50 -107 -115 -107z
M271 630c35 0 57 26 57 62s-22 63 -57 63s-57 -27 -57 -63s22 -62 57 -62z" />
    <glyph glyph-name="ccedilla" unicode="&#xe7;" horiz-adv-x="524" 
d="M137 -260v33c80 18 118 45 118 73c0 20 -22 35 -74 38l-9 10l50 100c-125 23 -193 120 -193 261c0 209 169 278 310 278c102 0 162 -33 162 -93c0 -40 -28 -80 -71 -80c-52 0 -68 35 -72 76c-5 39 -13 45 -46 45c-61 0 -124 -35 -124 -181c0 -143 54 -223 169 -223
c64 0 105 20 143 39v-45c-30 -35 -105 -83 -215 -83h-14l-32 -43c79 -5 112 -39 112 -79c0 -58 -72 -111 -214 -126z" />
    <glyph glyph-name="eacute" unicode="&#xe9;" horiz-adv-x="556" 
d="M295 -12c-178 0 -266 104 -266 274c0 172 131 271 266 271c142 0 229 -72 232 -261h-341c7 -147 70 -195 173 -195c66 0 113 19 153 38v-45c-35 -37 -113 -82 -217 -82zM288 483c-55 0 -97 -43 -102 -161l182 9c0 119 -16 152 -80 152zM205 590l-12 28l140 112
c18 14 34 23 53 23c31 0 53 -29 53 -59c0 -22 -12 -47 -45 -55z" />
    <glyph glyph-name="egrave" unicode="&#xe8;" horiz-adv-x="556" 
d="M295 -12c-178 0 -266 104 -266 274c0 172 131 271 266 271c142 0 229 -72 232 -261h-341c7 -147 70 -195 173 -195c66 0 113 19 153 38v-45c-35 -37 -113 -82 -217 -82zM288 483c-55 0 -97 -43 -102 -161l182 9c0 119 -16 152 -80 152zM381 590l-188 49
c-33 8 -46 33 -46 55c0 30 23 59 53 59c20 0 36 -9 54 -23l140 -112z" />
    <glyph glyph-name="ecircumflex" unicode="&#xea;" horiz-adv-x="556" 
d="M295 -12c-178 0 -266 104 -266 274c0 172 131 271 266 271c142 0 229 -72 232 -261h-341c7 -147 70 -195 173 -195c66 0 113 19 153 38v-45c-35 -37 -113 -82 -217 -82zM288 483c-55 0 -97 -43 -102 -161l182 9c0 119 -16 152 -80 152zM323 766l131 -152l-22 -31l-143 79
l-143 -79l-22 31l130 152h69z" />
    <glyph glyph-name="edieresis" unicode="&#xeb;" horiz-adv-x="556" 
d="M295 -12c-178 0 -266 104 -266 274c0 172 131 271 266 271c142 0 229 -72 232 -261h-341c7 -147 70 -195 173 -195c66 0 113 19 153 38v-45c-35 -37 -113 -82 -217 -82zM288 483c-55 0 -97 -43 -102 -161l182 9c0 119 -16 152 -80 152zM175 598c-47 0 -86 35 -86 81
s39 81 86 81s86 -35 86 -81s-39 -81 -86 -81zM404 598c-48 0 -86 35 -86 81s38 81 86 81c46 0 85 -35 85 -81s-39 -81 -85 -81z" />
    <glyph glyph-name="iacute" unicode="&#xed;" horiz-adv-x="326" 
d="M20 0v33l29 10c38 10 37 17 37 81v250c0 59 -4 59 -34 79l-35 24v32l220 23l15 -8c0 3 -8 -39 -8 -137v-263c0 -66 2 -73 36 -81l29 -10v-33h-289zM79 590l-12 28l140 112c18 14 34 23 53 23c31 0 53 -29 53 -59c0 -22 -12 -47 -45 -55z" />
    <glyph glyph-name="igrave" unicode="&#xec;" horiz-adv-x="326" 
d="M20 0v33l29 10c38 10 37 17 37 81v250c0 59 -4 59 -34 79l-35 24v32l220 23l15 -8c0 3 -8 -39 -8 -137v-263c0 -66 2 -73 36 -81l29 -10v-33h-289zM255 590l-188 49c-33 8 -46 33 -46 55c0 30 23 59 53 59c20 0 36 -9 54 -23l140 -112z" />
    <glyph glyph-name="icircumflex" unicode="&#xee;" horiz-adv-x="326" 
d="M20 0v33l29 10c38 10 37 17 37 81v250c0 59 -4 59 -34 79l-35 24v32l220 23l15 -8c0 3 -8 -39 -8 -137v-263c0 -66 2 -73 36 -81l29 -10v-33h-289zM197 766l131 -152l-22 -31l-143 79l-143 -79l-22 31l130 152h69z" />
    <glyph glyph-name="idieresis" unicode="&#xef;" horiz-adv-x="326" 
d="M20 0v33l29 10c38 10 37 17 37 81v250c0 59 -4 59 -34 79l-35 24v32l220 23l15 -8c0 3 -8 -39 -8 -137v-263c0 -66 2 -73 36 -81l29 -10v-33h-289zM49 598c-47 0 -86 35 -86 81s39 81 86 81s86 -35 86 -81s-39 -81 -86 -81zM278 598c-48 0 -86 35 -86 81s38 81 86 81
c46 0 85 -35 85 -81s-39 -81 -85 -81z" />
    <glyph glyph-name="ntilde" unicode="&#xf1;" horiz-adv-x="658" 
d="M20 0v39l29 7c33 9 37 14 37 57v288c0 42 -5 45 -34 64l-35 22v32l211 23l14 -9l-7 -61h5c54 37 125 70 199 70c89 0 136 -44 136 -133v-296c0 -44 5 -49 37 -57l27 -7v-39h-282v39l27 6c29 8 32 11 32 58v251c0 62 -22 84 -73 84c-38 0 -77 -12 -99 -19v-316
c0 -48 3 -50 32 -58l27 -6v-39h-283zM196 584l-39 18c29 88 60 141 108 141c54 0 111 -39 148 -39c27 0 40 26 61 63l38 -17c-29 -88 -55 -141 -105 -141c-54 0 -113 39 -150 39c-27 0 -40 -27 -61 -64z" />
    <glyph glyph-name="oacute" unicode="&#xf3;" horiz-adv-x="612" 
d="M307 -12c-150 0 -278 88 -278 271c0 190 138 274 278 274c147 0 276 -87 276 -270c0 -190 -136 -275 -276 -275zM310 39c64 0 106 38 106 220c0 186 -40 222 -114 222c-67 0 -106 -42 -106 -212c0 -188 36 -230 114 -230zM222 590l-12 28l140 112c18 14 34 23 53 23
c31 0 53 -29 53 -59c0 -22 -12 -47 -45 -55z" />
    <glyph glyph-name="ograve" unicode="&#xf2;" horiz-adv-x="612" 
d="M307 -12c-150 0 -278 88 -278 271c0 190 138 274 278 274c147 0 276 -87 276 -270c0 -190 -136 -275 -276 -275zM310 39c64 0 106 38 106 220c0 186 -40 222 -114 222c-67 0 -106 -42 -106 -212c0 -188 36 -230 114 -230zM398 590l-188 49c-33 8 -46 33 -46 55
c0 30 23 59 53 59c20 0 36 -9 54 -23l140 -112z" />
    <glyph glyph-name="ocircumflex" unicode="&#xf4;" horiz-adv-x="612" 
d="M307 -12c-150 0 -278 88 -278 271c0 190 138 274 278 274c147 0 276 -87 276 -270c0 -190 -136 -275 -276 -275zM310 39c64 0 106 38 106 220c0 186 -40 222 -114 222c-67 0 -106 -42 -106 -212c0 -188 36 -230 114 -230zM340 766l131 -152l-22 -31l-143 79l-143 -79
l-22 31l130 152h69z" />
    <glyph glyph-name="odieresis" unicode="&#xf6;" horiz-adv-x="612" 
d="M307 -12c-150 0 -278 88 -278 271c0 190 138 274 278 274c147 0 276 -87 276 -270c0 -190 -136 -275 -276 -275zM310 39c64 0 106 38 106 220c0 186 -40 222 -114 222c-67 0 -106 -42 -106 -212c0 -188 36 -230 114 -230zM192 598c-47 0 -86 35 -86 81s39 81 86 81
s86 -35 86 -81s-39 -81 -86 -81zM421 598c-48 0 -86 35 -86 81s38 81 86 81c46 0 85 -35 85 -81s-39 -81 -85 -81z" />
    <glyph glyph-name="otilde" unicode="&#xf5;" horiz-adv-x="612" 
d="M307 -12c-150 0 -278 88 -278 271c0 190 138 274 278 274c147 0 276 -87 276 -270c0 -190 -136 -275 -276 -275zM310 39c64 0 106 38 106 220c0 186 -40 222 -114 222c-67 0 -106 -42 -106 -212c0 -188 36 -230 114 -230zM168 584l-39 18c29 88 60 141 108 141
c54 0 111 -39 148 -39c27 0 40 26 61 63l38 -17c-29 -88 -55 -141 -105 -141c-54 0 -113 39 -150 39c-27 0 -40 -27 -61 -64z" />
    <glyph glyph-name="uacute" unicode="&#xfa;" horiz-adv-x="656" 
d="M219 -12c-82 0 -135 45 -135 133v275c0 42 -2 45 -32 62l-37 20v32l210 22l17 -11v-360c0 -59 23 -81 71 -81c39 0 76 15 102 25v291c0 42 -3 46 -33 62l-35 20v32l210 22l16 -11v-390c0 -49 3 -54 34 -66l29 -13v-35l-205 -29l-14 10l6 65h-4c-55 -39 -121 -75 -200 -75
zM247 590l-12 28l140 112c18 14 34 23 53 23c31 0 53 -29 53 -59c0 -22 -12 -47 -45 -55z" />
    <glyph glyph-name="ugrave" unicode="&#xf9;" horiz-adv-x="656" 
d="M219 -12c-82 0 -135 45 -135 133v275c0 42 -2 45 -32 62l-37 20v32l210 22l17 -11v-360c0 -59 23 -81 71 -81c39 0 76 15 102 25v291c0 42 -3 46 -33 62l-35 20v32l210 22l16 -11v-390c0 -49 3 -54 34 -66l29 -13v-35l-205 -29l-14 10l6 65h-4c-55 -39 -121 -75 -200 -75
zM423 590l-188 49c-33 8 -46 33 -46 55c0 30 23 59 53 59c20 0 36 -9 54 -23l140 -112z" />
    <glyph glyph-name="ucircumflex" unicode="&#xfb;" horiz-adv-x="656" 
d="M219 -12c-82 0 -135 45 -135 133v275c0 42 -2 45 -32 62l-37 20v32l210 22l17 -11v-360c0 -59 23 -81 71 -81c39 0 76 15 102 25v291c0 42 -3 46 -33 62l-35 20v32l210 22l16 -11v-390c0 -49 3 -54 34 -66l29 -13v-35l-205 -29l-14 10l6 65h-4c-55 -39 -121 -75 -200 -75
zM365 766l131 -152l-22 -31l-143 79l-143 -79l-22 31l130 152h69z" />
    <glyph glyph-name="udieresis" unicode="&#xfc;" horiz-adv-x="656" 
d="M219 -12c-82 0 -135 45 -135 133v275c0 42 -2 45 -32 62l-37 20v32l210 22l17 -11v-360c0 -59 23 -81 71 -81c39 0 76 15 102 25v291c0 42 -3 46 -33 62l-35 20v32l210 22l16 -11v-390c0 -49 3 -54 34 -66l29 -13v-35l-205 -29l-14 10l6 65h-4c-55 -39 -121 -75 -200 -75
zM217 598c-47 0 -86 35 -86 81s39 81 86 81s86 -35 86 -81s-39 -81 -86 -81zM446 598c-48 0 -86 35 -86 81s38 81 86 81c46 0 85 -35 85 -81s-39 -81 -85 -81z" />
    <glyph glyph-name="dagger" unicode="&#x2020;" horiz-adv-x="444" 
d="M200 474c-49 -7 -79 -39 -117 -39c-36 0 -59 28 -59 59c0 32 23 60 59 60c38 0 68 -33 117 -40c-6 52 -49 93 -49 127s32 61 69 61c39 0 69 -27 69 -61s-41 -75 -47 -127c51 7 79 40 117 40s60 -28 60 -60c0 -31 -22 -59 -60 -59s-66 32 -117 39c3 -39 26 -83 48 -112
l-49 -429h-40l-49 429c24 29 46 73 48 112z" />
    <glyph glyph-name="degree" unicode="&#xb0;" horiz-adv-x="386" 
d="M193 412c-84 0 -148 69 -148 148c0 76 64 145 148 145s148 -69 148 -145c0 -79 -64 -148 -148 -148zM193 464c53 0 88 44 88 96c0 51 -35 94 -88 94s-88 -43 -88 -94c0 -52 35 -96 88 -96z" />
    <glyph glyph-name="cent" unicode="&#xa2;" horiz-adv-x="525" 
d="M286 -12c-159 0 -257 97 -257 258c0 179 125 262 258 282v80h56v-75h9c108 0 172 -34 172 -94c0 -40 -23 -82 -68 -82c-49 0 -58 26 -63 71c-4 33 -15 49 -50 52v-405h4c72 0 120 22 159 41v-45c-26 -28 -83 -66 -163 -78v-151h-56v146h-1zM186 290
c0 -124 35 -186 101 -207v393c-56 -14 -101 -62 -101 -186z" />
    <glyph glyph-name="sterling" unicode="&#xa3;" horiz-adv-x="571" 
d="M43 331v57h60c-10 38 -19 76 -19 111c0 120 96 206 264 206c129 0 194 -44 194 -109c0 -47 -31 -72 -71 -72c-55 0 -72 32 -84 90c-9 41 -14 45 -43 45c-52 0 -83 -25 -83 -118c0 -41 6 -99 9 -153h158v-57h-155v-11c0 -87 -49 -146 -136 -195v-5h282c40 0 56 8 82 78h39
l-21 -198h-493v91c71 43 111 78 111 151c0 25 -8 56 -17 89h-77z" />
    <glyph glyph-name="section" unicode="&#xa7;" horiz-adv-x="607" 
d="M275 -204c-112 0 -168 44 -168 100c0 41 22 62 62 62c44 0 64 -23 69 -75c4 -33 13 -43 54 -43c38 0 74 19 74 65c0 51 -27 71 -161 166c-118 83 -176 132 -176 215c0 81 52 130 123 169c-18 26 -24 46 -24 78c0 96 77 169 202 169c111 0 168 -39 168 -95
c0 -32 -24 -60 -64 -60c-48 0 -64 23 -69 77c-2 24 -12 34 -50 34c-40 0 -75 -22 -75 -67c0 -50 25 -69 159 -164c137 -96 178 -139 178 -220c0 -74 -52 -133 -115 -169c11 -22 16 -40 16 -68c0 -106 -86 -174 -203 -174zM435 72c25 16 38 38 38 68c0 48 -26 73 -152 162
c-64 46 -114 82 -145 121c-28 -15 -40 -38 -40 -69c0 -49 34 -75 149 -158c67 -49 117 -86 150 -124z" />
    <glyph glyph-name="bullet" unicode="&#x2022;" horiz-adv-x="442" 
d="M221 171c-93 0 -167 76 -167 164c0 93 74 164 167 164c89 0 168 -71 168 -164c0 -88 -79 -164 -168 -164z" />
    <glyph glyph-name="paragraph" unicode="&#xb6;" horiz-adv-x="603" 
d="M264 -100v433c-8 -1 -26 -2 -43 -2c-131 0 -193 79 -193 185c0 102 68 177 202 177h348v-39l-36 -8c-30 -7 -41 -11 -41 -72v-674h-65v740h-105v-740h-67z" />
    <glyph glyph-name="germandbls" unicode="&#xdf;" horiz-adv-x="691" 
d="M491 37c41 0 75 24 75 58c0 43 -31 63 -115 116c-88 55 -116 90 -116 135c0 84 113 167 113 278c0 64 -26 101 -93 101c-59 0 -111 -33 -111 -131v-497c0 -44 0 -50 22 -55l15 -3v-39h-261v39l29 7c33 9 37 14 37 57v345h-73v37l73 34v24c0 156 141 228 283 228
c156 0 232 -55 232 -131c0 -121 -167 -168 -167 -214c0 -22 24 -38 118 -93c93 -53 131 -100 131 -171c0 -104 -90 -171 -201 -171c-107 0 -170 42 -170 100c0 35 23 60 62 60c46 0 59 -19 64 -66c5 -37 11 -48 53 -48z" />
    <glyph glyph-name="registered" unicode="&#xae;" horiz-adv-x="586" 
d="M291 187c-145 0 -255 115 -255 256c0 144 110 258 255 258c146 0 259 -114 259 -258c0 -141 -113 -256 -259 -256zM291 231c121 0 205 96 205 212c0 119 -84 214 -205 214s-201 -95 -201 -214c0 -116 80 -212 201 -212zM170 323v28l15 3c9 3 10 5 10 25v138
c0 18 -1 19 -10 24l-14 4v28h123c78 0 108 -24 108 -67c0 -33 -17 -53 -45 -63v-4c16 -32 24 -48 38 -68c9 -10 12 -13 23 -17l10 -3v-28h-82c-21 30 -40 66 -54 98h-26v-42c0 -21 2 -22 13 -25l14 -3v-28h-123zM266 454c3 -1 18 -1 21 -1c24 0 41 12 41 48
c0 31 -11 39 -39 39c-5 0 -20 -1 -23 -2v-84z" />
    <glyph glyph-name="copyright" unicode="&#xa9;" horiz-adv-x="830" 
d="M414 -16c-209 0 -368 162 -368 360s159 358 368 358c207 0 369 -160 369 -358s-162 -360 -369 -360zM414 32c182 0 313 141 313 312s-131 310 -313 310c-184 0 -311 -139 -311 -310s127 -312 311 -312zM417 151c-119 0 -199 66 -199 194c0 142 94 203 209 203
c49 0 93 -8 119 -15l8 -117h-32c-18 33 -33 56 -48 73c-14 17 -28 21 -53 21c-58 0 -83 -55 -83 -151c0 -125 33 -170 89 -170c27 0 40 5 58 25c13 15 28 46 43 81h32l-9 -122c-29 -11 -77 -22 -134 -22z" />
    <glyph glyph-name="trademark" unicode="&#x2122;" horiz-adv-x="950" 
d="M416 339v35l26 5c19 4 24 14 24 49v191c0 26 -4 29 -23 34l-21 6v34h176l69 -193h2l64 193h180v-33l-24 -5c-18 -5 -22 -8 -22 -35v-203c0 -30 4 -35 22 -38l25 -5v-35h-196v35l27 7c16 3 18 6 18 36v231h-3l-98 -301h-40l-106 301h-3v-219c0 -38 4 -47 27 -50l25 -5v-35
h-149zM110 341v34l30 6c18 4 20 7 20 36v239h-5c-30 0 -36 -6 -47 -23c-14 -23 -20 -40 -35 -79h-33l7 139h331l7 -139h-32c-15 38 -22 56 -35 79c-11 17 -18 23 -48 23h-5v-239c0 -29 3 -33 21 -36l30 -6v-34h-206z" />
    <glyph glyph-name="acute" unicode="&#xb4;" horiz-adv-x="516" 
d="M149 590l-12 28l140 112c18 14 34 23 53 23c31 0 53 -29 53 -59c0 -22 -12 -47 -45 -55z" />
    <glyph glyph-name="dieresis" unicode="&#xa8;" horiz-adv-x="516" 
d="M144 598c-47 0 -86 35 -86 81s39 81 86 81s86 -35 86 -81s-39 -81 -86 -81zM373 598c-48 0 -86 35 -86 81s38 81 86 81c46 0 85 -35 85 -81s-39 -81 -85 -81z" />
    <glyph glyph-name="notequal" unicode="&#x2260;" horiz-adv-x="552" 
d="M46 391v65h261l77 134h67l-77 -134h132v-65h-169l-62 -108h231v-65h-268l-74 -129h-67l74 129h-125v65h162l62 108h-224z" />
    <glyph glyph-name="AE" unicode="&#xc6;" horiz-adv-x="988" 
d="M367 0v40l35 7c30 7 43 12 43 72v79h-225l-22 -39c-17 -30 -34 -58 -34 -79c0 -16 9 -26 33 -33l32 -7v-40h-225v40l19 7c32 8 48 18 97 101l292 494l-16 3l-47 9v39h576l11 -200h-43c-24 56 -41 84 -56 106c-32 41 -57 40 -124 40c-51 0 -79 -4 -96 -8v-244h7
c74 0 91 6 105 29c14 24 21 36 30 68h43v-253h-43c-9 32 -16 44 -30 72c-14 26 -28 29 -105 29h-7v-188c0 -91 11 -90 103 -90c83 0 98 4 131 49c19 26 39 69 66 133h43l-15 -236h-578zM442 583l-191 -331h194v313c0 6 0 12 -1 18h-2z" />
    <glyph glyph-name="Oslash" unicode="&#xd8;" horiz-adv-x="763" 
d="M73 -64l84 124c-73 58 -121 150 -121 278c0 263 184 367 349 367c62 0 123 -13 177 -42l45 67h66l-66 -98c71 -56 120 -148 120 -279c0 -264 -184 -365 -349 -365c-63 0 -124 14 -176 42l-64 -94h-65zM222 359c0 -77 3 -137 12 -183l272 404c-25 50 -65 71 -127 71
c-104 0 -157 -58 -157 -292zM383 42c108 0 158 56 158 290c0 76 -4 136 -13 182l-272 -404c24 -49 64 -68 127 -68z" />
    <glyph glyph-name="plusminus" unicode="&#xb1;" horiz-adv-x="502" 
d="M46 0v68h410v-68h-410zM213 160v164h-167v68h167v164h77v-164h166v-68h-166v-164h-77z" />
    <glyph glyph-name="lessequal" unicode="&#x2264;" horiz-adv-x="503" 
d="M452 132l-402 166v79l402 166v-76l-332 -129l332 -129v-77zM50 0v68h402v-68h-402z" />
    <glyph glyph-name="greaterequal" unicode="&#x2265;" horiz-adv-x="503" 
d="M453 68v-68h-402v68h402zM453 298l-402 -166v77l332 129l-332 129v76l402 -166v-79z" />
    <glyph glyph-name="yen" unicode="&#xa5;" horiz-adv-x="665" 
d="M69 298v57h161l-118 206c-34 58 -49 78 -77 86l-21 7v39h342v-39l-29 -6c-30 -7 -37 -20 -37 -41c0 -14 7 -33 19 -57l83 -167h5l73 160c15 34 21 49 21 65c0 22 -12 31 -42 39l-21 7v39h218v-39l-20 -7c-34 -10 -47 -31 -80 -97l-99 -195h161v-57h-184v-89h184v-57h-184
v-33c0 -60 4 -64 40 -72l40 -7v-40h-327v40l39 7c37 8 43 12 43 72v33h-190v57h190v89h-190z" />
    <glyph glyph-name="ordfeminine" unicode="&#xaa;" horiz-adv-x="497" 
d="M164 234c-84 0 -131 42 -131 115c0 74 53 112 154 139l98 24v53c0 65 -18 94 -70 94c-23 0 -34 -15 -38 -34c-8 -51 -21 -73 -68 -73c-40 0 -62 16 -62 55c0 55 77 94 194 94c112 0 177 -41 177 -129v-215c0 -32 3 -44 20 -52c12 -5 32 -8 45 -8v-33
c-19 -12 -55 -28 -105 -28c-55 0 -76 22 -84 54h-5c-22 -26 -68 -56 -125 -56zM226 305c27 0 49 11 59 25v125l-50 -5c-48 -4 -73 -25 -73 -83c0 -47 27 -62 64 -62z" />
    <glyph glyph-name="ordmasculine" unicode="&#xba;" horiz-adv-x="547" 
d="M271 237c-125 0 -236 75 -236 230c0 163 121 234 238 234c125 0 239 -68 239 -228c0 -158 -121 -236 -241 -236zM272 286c62 0 99 40 99 178c0 149 -33 189 -98 189c-64 0 -97 -45 -97 -173c0 -153 26 -194 96 -194z" />
    <glyph glyph-name="ae" unicode="&#xe6;" horiz-adv-x="825" 
d="M569 -12c-96 0 -165 30 -207 88c-44 -65 -99 -88 -177 -88c-100 0 -160 47 -160 137s70 132 182 159l108 24v79c0 76 -15 98 -73 98c-33 0 -40 -8 -43 -37c-5 -63 -29 -89 -83 -89c-46 0 -67 23 -67 64c0 66 91 110 217 110c78 0 129 -21 155 -62c40 39 92 62 153 62
c135 0 223 -83 223 -268h-332c8 -142 72 -188 165 -188c65 0 114 19 152 38v-45c-34 -37 -112 -82 -213 -82zM564 483c-50 0 -96 -45 -100 -168l179 10c0 114 -16 158 -79 158zM254 65c40 0 66 27 83 59c-13 34 -21 75 -22 123l-48 -5c-56 -4 -86 -17 -86 -94
c0 -70 30 -83 73 -83z" />
    <glyph glyph-name="oslash" unicode="&#xf8;" horiz-adv-x="612" 
d="M52 -64l74 107c-59 44 -97 116 -97 216c0 190 138 274 278 274c50 0 98 -10 139 -31l55 79h60l-73 -105c58 -44 95 -115 95 -213c0 -190 -136 -275 -276 -275c-50 0 -98 10 -139 29l-56 -81h-60zM191 249c0 -43 2 -78 5 -105l204 292c-18 38 -48 45 -98 45
c-67 0 -112 -52 -111 -232zM310 39c66 0 112 49 111 238c0 39 -2 70 -5 96l-203 -291c18 -35 48 -43 97 -43z" />
    <glyph glyph-name="questiondown" unicode="&#xbf;" horiz-adv-x="502" 
d="M338 377v-162c-74 -18 -155 -56 -155 -155c0 -62 44 -102 90 -102c29 0 35 8 40 43c8 56 31 82 82 82c46 0 68 -31 68 -64c0 -69 -79 -109 -196 -109c-148 0 -232 66 -232 181c0 123 112 199 240 220v66h63zM302 624c53 0 95 -42 95 -93s-42 -94 -95 -94
c-54 0 -95 43 -95 94s41 93 95 93z" />
    <glyph glyph-name="exclamdown" unicode="&#xa1;" horiz-adv-x="317" 
d="M180 369l69 -332c24 -89 -25 -130 -91 -130c-64 0 -114 41 -90 130l69 332h43zM159 618c53 0 94 -41 94 -92s-41 -94 -94 -94c-54 0 -96 43 -96 94s42 92 96 92z" />
    <glyph glyph-name="florin" unicode="&#x192;" horiz-adv-x="522" 
d="M56 349v58h94l10 65c23 160 111 232 253 232c85 0 136 -39 136 -91c0 -40 -27 -59 -63 -59c-43 0 -62 20 -70 77c-2 21 -7 28 -27 28c-28 0 -49 -21 -60 -95l-24 -157h118v-58h-127l-46 -298c-26 -182 -103 -249 -228 -249c-92 0 -126 41 -126 81c0 34 18 58 61 58
c36 0 53 -14 62 -69c1 -19 5 -25 18 -25c20 0 32 11 40 72l64 430h-85z" />
    <glyph glyph-name="approxequal" unicode="&#x2248;" horiz-adv-x="560" 
d="M455 507l55 -26c-30 -66 -62 -111 -129 -111c-62 0 -158 46 -210 46c-33 0 -55 -34 -68 -68l-53 30c22 60 60 106 125 106c61 0 155 -46 210 -46c34 0 53 32 70 69zM455 340l55 -26c-30 -66 -62 -111 -129 -111c-62 0 -158 46 -210 46c-33 0 -55 -34 -68 -68l-53 30
c22 60 60 106 125 106c61 0 155 -46 210 -46c34 0 53 32 70 69z" />
    <glyph glyph-name="guillemotleft" unicode="&#xab;" horiz-adv-x="498" 
d="M407 45l-162 193v29l162 193h47l-83 -206l83 -209h-47zM195 45l-161 193v29l161 193h48l-83 -206l83 -209h-48z" />
    <glyph glyph-name="guillemotright" unicode="&#xbb;" horiz-adv-x="506" 
d="M91 461l162 -193v-29l-162 -193h-47l83 208l-83 207h47zM311 461l160 -193v-29l-160 -193h-48l82 208l-82 207h48z" />
    <glyph glyph-name="ellipsis" unicode="&#x2026;" horiz-adv-x="913" 
d="M759 -8c-54 0 -98 43 -98 95c0 54 44 97 98 97c55 0 99 -43 99 -97c0 -52 -44 -95 -99 -95zM456 -8c-54 0 -98 43 -98 95c0 54 44 97 98 97c55 0 99 -43 99 -97c0 -52 -44 -95 -99 -95zM153 -8c-54 0 -98 43 -98 95c0 54 44 97 98 97c55 0 99 -43 99 -97
c0 -52 -44 -95 -99 -95z" />
    <glyph glyph-name="uni00A0" unicode="&#xa0;" horiz-adv-x="273" 
 />
    <glyph glyph-name="Agrave" unicode="&#xc0;" horiz-adv-x="726" 
d="M5 0v40l27 7c30 8 42 17 70 88l206 558h102l214 -562c27 -69 40 -77 68 -86l24 -5v-40h-327v40l28 7c27 7 37 15 37 34c0 17 -8 36 -18 65l-23 63h-217l-22 -63c-9 -28 -16 -44 -16 -61c0 -24 13 -30 44 -38l29 -7v-40h-226zM301 511l-86 -247h179l-88 247h-5zM453 745
l-188 49c-33 8 -46 33 -46 55c0 30 23 59 53 59c20 0 36 -9 54 -23l140 -112z" />
    <glyph glyph-name="Atilde" unicode="&#xc3;" horiz-adv-x="726" 
d="M5 0v40l27 7c30 8 42 17 70 88l206 558h102l214 -562c27 -69 40 -77 68 -86l24 -5v-40h-327v40l28 7c27 7 37 15 37 34c0 17 -8 36 -18 65l-23 63h-217l-22 -63c-9 -28 -16 -44 -16 -61c0 -24 13 -30 44 -38l29 -7v-40h-226zM301 511l-86 -247h179l-88 247h-5zM213 759
l-39 18c29 88 60 141 108 141c54 0 126 -49 163 -49c27 0 40 26 61 63l38 -17c-29 -88 -55 -141 -105 -141c-54 0 -128 49 -165 49c-27 0 -40 -27 -61 -64z" />
    <glyph glyph-name="Otilde" unicode="&#xd5;" horiz-adv-x="763" 
d="M378 -12c-179 0 -342 111 -342 350c0 263 184 367 349 367c178 0 342 -105 342 -352c0 -264 -184 -365 -349 -365zM383 42c108 0 157 56 157 290c0 229 -42 319 -161 319c-104 0 -156 -58 -156 -292c0 -227 40 -317 160 -317zM235 759l-39 18c29 88 60 141 108 141
c54 0 126 -49 163 -49c27 0 40 26 61 63l38 -17c-29 -88 -55 -141 -105 -141c-54 0 -128 49 -165 49c-27 0 -40 -27 -61 -64z" />
    <glyph glyph-name="OE" unicode="&#x152;" horiz-adv-x="1025" 
d="M385 644c-117 0 -162 -70 -162 -283c0 -243 45 -312 169 -312c52 0 88 9 88 88v415c0 67 -16 92 -95 92zM385 0c-180 0 -349 87 -349 339c0 246 172 354 356 354h568l12 -200h-44c-25 56 -42 84 -57 106c-33 41 -56 40 -129 40c-53 0 -66 -5 -83 -9v-243h3
c73 0 91 6 104 29c14 24 22 36 31 68h43v-253h-43c-9 32 -17 44 -31 72c-13 26 -26 29 -105 29h-2v-188c0 -91 6 -90 92 -90c85 0 101 4 134 49c20 26 40 69 67 133h44l-14 -236h-597z" />
    <glyph glyph-name="oe" unicode="&#x153;" horiz-adv-x="932" 
d="M672 -12c-93 0 -151 32 -187 86c-44 -56 -110 -86 -186 -86c-145 0 -270 88 -270 271c0 190 135 274 275 274c82 0 148 -34 189 -92c42 56 106 92 185 92c136 0 222 -71 225 -261h-341c7 -147 70 -195 173 -195c66 0 114 19 153 38v-45c-35 -37 -113 -82 -216 -82z
M306 39c64 0 103 34 103 214c0 192 -37 228 -110 228c-68 0 -103 -44 -103 -206c0 -194 32 -236 110 -236zM664 483c-55 0 -97 -43 -102 -161l182 9c0 120 -17 152 -80 152z" />
    <glyph glyph-name="endash" unicode="&#x2013;" horiz-adv-x="449" 
d="M49 259v62h351v-62h-351z" />
    <glyph glyph-name="emdash" unicode="&#x2014;" horiz-adv-x="720" 
d="M49 259v62h622v-62h-622z" />
    <glyph glyph-name="quotedblleft" unicode="&#x201c;" horiz-adv-x="574" 
d="M260 709l12 -35c-78 -35 -121 -91 -119 -141c6 5 18 9 34 9c42 0 71 -31 71 -77c0 -48 -39 -78 -89 -78c-55 0 -106 41 -106 112c0 97 74 183 197 210zM511 709l12 -35c-77 -35 -120 -91 -119 -141c6 5 19 9 35 9c42 0 70 -31 70 -77c0 -48 -38 -78 -88 -78
c-55 0 -107 41 -107 112c0 97 75 183 197 210z" />
    <glyph glyph-name="quotedblright" unicode="&#x201d;" horiz-adv-x="574" 
d="M315 383l-13 36c78 35 121 90 120 140c-6 -5 -19 -9 -35 -9c-42 0 -71 31 -71 77c0 48 39 78 89 78c55 0 106 -41 106 -112c0 -97 -74 -183 -196 -210zM64 383l-13 36c78 35 121 90 119 140c-6 -5 -19 -9 -34 -9c-42 0 -71 31 -71 77c0 48 39 78 89 78
c55 0 106 -41 106 -112c0 -97 -75 -183 -196 -210z" />
    <glyph glyph-name="quoteleft" unicode="&#x2018;" horiz-adv-x="323" 
d="M260 709l12 -35c-78 -35 -121 -91 -119 -141c6 5 18 9 34 9c42 0 71 -31 71 -77c0 -48 -39 -78 -89 -78c-55 0 -106 41 -106 112c0 97 74 183 197 210z" />
    <glyph glyph-name="quoteright" unicode="&#x2019;" horiz-adv-x="322" 
d="M64 383l-13 36c78 35 121 90 119 140c-6 -5 -19 -9 -34 -9c-42 0 -71 31 -71 77c0 48 39 78 89 78c55 0 106 -41 106 -112c0 -97 -75 -183 -196 -210z" />
    <glyph glyph-name="divide" unicode="&#xf7;" horiz-adv-x="503" 
d="M252 446c-42 0 -77 35 -77 76c0 42 35 76 77 76c43 0 78 -34 78 -76c0 -41 -35 -76 -78 -76zM46 303v68h411v-68h-411zM252 75c-42 0 -77 36 -77 77c0 42 35 76 77 76c43 0 78 -34 78 -76c0 -41 -35 -77 -78 -77z" />
    <glyph glyph-name="ydieresis" unicode="&#xff;" horiz-adv-x="589" 
d="M132 -222c-67 0 -104 35 -104 80c0 37 22 65 60 65c42 0 57 -16 69 -49c6 -16 10 -23 17 -23c24 0 48 23 81 96l16 38l-190 411c-30 63 -35 71 -58 78l-19 6v39h296v-39l-27 -7c-22 -5 -33 -15 -33 -38c0 -14 5 -33 16 -55l93 -215h4l83 215c9 24 11 44 11 59
c0 20 -10 29 -31 34l-29 7v39h205v-39l-23 -7c-27 -8 -33 -23 -60 -87l-194 -449c-47 -108 -98 -159 -183 -159zM221 598c-47 0 -86 35 -86 81s39 81 86 81s86 -35 86 -81s-39 -81 -86 -81zM450 598c-48 0 -86 35 -86 81s38 81 86 81c46 0 85 -35 85 -81s-39 -81 -85 -81z
" />
    <glyph glyph-name="Ydieresis" unicode="&#x178;" horiz-adv-x="685" 
d="M178 0v40l39 7c35 8 41 12 41 72v165l-151 277c-36 64 -50 78 -78 86l-21 7v39h342v-39l-28 -7c-29 -6 -40 -19 -40 -40c0 -14 10 -32 22 -57l93 -192h5l95 185c13 29 19 50 19 65c0 21 -14 32 -38 39l-29 7v39h229v-39l-20 -7c-32 -10 -54 -33 -86 -97l-135 -260v-171
c0 -60 5 -64 42 -72l40 -7v-40h-341zM271 748c-47 0 -86 35 -86 81s39 81 86 81s86 -35 86 -81s-39 -81 -86 -81zM508 748c-48 0 -86 35 -86 81s38 81 86 81c46 0 85 -35 85 -81s-39 -81 -85 -81z" />
    <glyph glyph-name="fraction" unicode="&#x2044;" horiz-adv-x="354" 
d="M-112 -50l503 764h76l-504 -764h-75z" />
    <glyph glyph-name="Euro" unicode="&#x20ac;" horiz-adv-x="655" 
d="M8 390v58h110c38 180 174 257 315 257c108 0 197 -38 197 -118c0 -38 -19 -70 -71 -70c-57 0 -78 31 -87 96c-5 39 -20 45 -55 45c-75 0 -123 -59 -135 -210h218l-11 -58h-210v-25c0 -23 0 -44 1 -63h194l-10 -58h-178c19 -130 76 -174 186 -174c66 0 110 21 150 43v-46
c-34 -37 -108 -79 -221 -79c-153 0 -259 81 -286 256h-107v58h101c-1 12 -1 25 -1 39c0 17 0 33 2 49h-102z" />
    <glyph glyph-name="guilsinglleft" unicode="&#x2039;" horiz-adv-x="292" 
d="M202 45l-166 193v29l166 193h48l-88 -206l88 -209h-48z" />
    <glyph glyph-name="guilsinglright" unicode="&#x203a;" horiz-adv-x="292" 
d="M38 46l88 208l-88 207h47l166 -193v-29l-166 -193h-47z" />
    <glyph glyph-name="daggerdbl" unicode="&#x2021;" horiz-adv-x="444" 
d="M203 313l-49 91c29 19 42 50 46 81c-49 -6 -79 -39 -117 -39c-36 0 -59 28 -59 59c0 32 23 60 59 60c38 0 68 -33 117 -40c-6 44 -48 86 -48 121c0 33 31 56 68 56c39 0 69 -23 69 -56c0 -35 -41 -75 -47 -121c51 7 79 40 117 40s60 -28 60 -60c0 -31 -22 -59 -60 -59
s-66 33 -117 39c4 -31 18 -62 46 -81l-49 -91h-36zM203 280h36l49 -92c-28 -19 -42 -50 -46 -81c51 6 79 39 117 39s60 -28 60 -59c0 -32 -22 -60 -60 -60s-66 33 -117 40c6 -46 47 -83 47 -119c0 -32 -30 -58 -69 -58c-37 0 -68 26 -68 58c0 36 42 75 48 119
c-49 -7 -79 -40 -117 -40c-36 0 -59 28 -59 60c0 31 23 59 59 59c38 0 68 -33 117 -39c-4 31 -17 62 -46 81z" />
    <glyph glyph-name="periodcentered" unicode="&#xb7;" horiz-adv-x="367" 
d="M181 246c-54 0 -98 43 -98 96c0 52 44 96 98 96c56 0 98 -44 98 -96c0 -53 -42 -96 -98 -96z" />
    <glyph glyph-name="quotesinglbase" unicode="&#x201a;" horiz-adv-x="322" 
d="M64 -145l-13 35c78 35 121 91 119 141c-6 -5 -19 -9 -34 -9c-42 0 -71 31 -71 77c0 48 39 78 89 78c55 0 106 -41 106 -112c0 -97 -75 -183 -196 -210z" />
    <glyph glyph-name="quotedblbase" unicode="&#x201e;" horiz-adv-x="574" 
d="M315 -145l-13 35c78 35 121 91 120 141c-6 -5 -19 -9 -35 -9c-42 0 -71 31 -71 77c0 48 39 78 89 78c55 0 106 -41 106 -112c0 -97 -74 -183 -196 -210zM64 -145l-13 35c78 35 121 91 119 141c-6 -5 -19 -9 -34 -9c-42 0 -71 31 -71 77c0 48 39 78 89 78
c55 0 106 -41 106 -112c0 -97 -75 -183 -196 -210z" />
    <glyph glyph-name="perthousand" unicode="&#x2030;" horiz-adv-x="1287" 
d="M214 344c-93 0 -182 56 -182 176c0 132 110 184 185 184c87 0 183 -58 183 -177c0 -127 -103 -183 -186 -183zM124 -50l528 764h75l-530 -764h-73zM652 -13c-93 0 -181 56 -181 175c0 132 109 185 184 185c87 0 183 -58 183 -178c0 -127 -103 -182 -186 -182zM216 387
c48 0 67 37 67 132c0 109 -22 142 -67 142c-42 0 -67 -31 -67 -133c0 -105 20 -141 67 -141zM654 30c49 0 66 36 66 132c0 109 -20 142 -66 142c-41 0 -66 -32 -66 -134c0 -104 20 -140 66 -140zM1069 -13c-93 0 -182 56 -182 175c0 132 110 185 185 185
c87 0 182 -58 182 -178c0 -127 -103 -182 -185 -182zM1070 30c50 0 67 36 67 132c0 109 -20 142 -67 142c-41 0 -65 -32 -65 -134c0 -104 19 -140 65 -140z" />
    <glyph glyph-name="Acircumflex" unicode="&#xc2;" horiz-adv-x="726" 
d="M5 0v40l27 7c30 8 42 17 70 88l206 558h102l214 -562c27 -69 40 -77 68 -86l24 -5v-40h-327v40l28 7c27 7 37 15 37 34c0 17 -8 36 -18 65l-23 63h-217l-22 -63c-9 -28 -16 -44 -16 -61c0 -24 13 -30 44 -38l29 -7v-40h-226zM301 511l-86 -247h179l-88 247h-5zM393 901
l133 -127l-19 -31l-148 54l-148 -54l-19 31l132 127h69z" />
    <glyph glyph-name="Ecircumflex" unicode="&#xca;" horiz-adv-x="663" 
d="M27 0v40l35 7c31 7 40 12 40 72v455c0 61 -9 65 -40 72l-35 8v39h572l11 -200h-44c-24 56 -41 84 -57 106c-32 41 -56 40 -128 40c-57 0 -82 -5 -100 -9v-243h19c74 0 91 6 105 29c14 24 22 36 30 68h44v-253h-44c-8 32 -16 44 -30 72c-14 26 -27 29 -105 29h-19v-188
c0 -91 3 -90 109 -90c85 0 100 4 134 49c19 26 40 69 67 133h44l-15 -236h-593zM375 901l133 -127l-19 -31l-148 54l-148 -54l-19 31l132 127h69z" />
    <glyph glyph-name="Aacute" unicode="&#xc1;" horiz-adv-x="726" 
d="M5 0v40l27 7c30 8 42 17 70 88l206 558h102l214 -562c27 -69 40 -77 68 -86l24 -5v-40h-327v40l28 7c27 7 37 15 37 34c0 17 -8 36 -18 65l-23 63h-217l-22 -63c-9 -28 -16 -44 -16 -61c0 -24 13 -30 44 -38l29 -7v-40h-226zM301 511l-86 -247h179l-88 247h-5zM274 745
l-12 28l140 112c18 14 34 23 53 23c31 0 53 -29 53 -59c0 -22 -12 -47 -45 -55z" />
    <glyph glyph-name="Edieresis" unicode="&#xcb;" horiz-adv-x="663" 
d="M27 0v40l35 7c31 7 40 12 40 72v455c0 61 -9 65 -40 72l-35 8v39h572l11 -200h-44c-24 56 -41 84 -57 106c-32 41 -56 40 -128 40c-57 0 -82 -5 -100 -9v-243h19c74 0 91 6 105 29c14 24 22 36 30 68h44v-253h-44c-8 32 -16 44 -30 72c-14 26 -27 29 -105 29h-19v-188
c0 -91 3 -90 109 -90c85 0 100 4 134 49c19 26 40 69 67 133h44l-15 -236h-593zM223 748c-47 0 -86 35 -86 81s39 81 86 81s86 -35 86 -81s-39 -81 -86 -81zM460 748c-48 0 -86 35 -86 81s38 81 86 81c46 0 85 -35 85 -81s-39 -81 -85 -81z" />
    <glyph glyph-name="Egrave" unicode="&#xc8;" horiz-adv-x="663" 
d="M27 0v40l35 7c31 7 40 12 40 72v455c0 61 -9 65 -40 72l-35 8v39h572l11 -200h-44c-24 56 -41 84 -57 106c-32 41 -56 40 -128 40c-57 0 -82 -5 -100 -9v-243h19c74 0 91 6 105 29c14 24 22 36 30 68h44v-253h-44c-8 32 -16 44 -30 72c-14 26 -27 29 -105 29h-19v-188
c0 -91 3 -90 109 -90c85 0 100 4 134 49c19 26 40 69 67 133h44l-15 -236h-593zM435 745l-188 49c-33 8 -46 33 -46 55c0 30 23 59 53 59c20 0 36 -9 54 -23l140 -112z" />
    <glyph glyph-name="Iacute" unicode="&#xcd;" horiz-adv-x="390" 
d="M27 0v40l38 7c32 7 40 12 40 72v455c0 61 -8 65 -40 72l-38 8v39h338v-39l-40 -8c-33 -7 -40 -11 -40 -72v-455c0 -60 7 -65 40 -72l40 -7v-40h-338zM111 745l-12 28l140 112c18 14 34 23 53 23c31 0 53 -29 53 -59c0 -22 -12 -47 -45 -55z" />
    <glyph glyph-name="Icircumflex" unicode="&#xce;" horiz-adv-x="390" 
d="M27 0v40l38 7c32 7 40 12 40 72v455c0 61 -8 65 -40 72l-38 8v39h338v-39l-40 -8c-33 -7 -40 -11 -40 -72v-455c0 -60 7 -65 40 -72l40 -7v-40h-338zM230 901l133 -127l-19 -31l-148 54l-148 -54l-19 31l132 127h69z" />
    <glyph glyph-name="Idieresis" unicode="&#xcf;" horiz-adv-x="390" 
d="M27 0v40l38 7c32 7 40 12 40 72v455c0 61 -8 65 -40 72l-38 8v39h338v-39l-40 -8c-33 -7 -40 -11 -40 -72v-455c0 -60 7 -65 40 -72l40 -7v-40h-338zM78 748c-47 0 -86 35 -86 81s39 81 86 81s86 -35 86 -81s-39 -81 -86 -81zM315 748c-48 0 -86 35 -86 81s38 81 86 81
c46 0 85 -35 85 -81s-39 -81 -85 -81z" />
    <glyph glyph-name="Igrave" unicode="&#xcc;" horiz-adv-x="390" 
d="M27 0v40l38 7c32 7 40 12 40 72v455c0 61 -8 65 -40 72l-38 8v39h338v-39l-40 -8c-33 -7 -40 -11 -40 -72v-455c0 -60 7 -65 40 -72l40 -7v-40h-338zM290 745l-188 49c-33 8 -46 33 -46 55c0 30 23 59 53 59c20 0 36 -9 54 -23l140 -112z" />
    <glyph glyph-name="Oacute" unicode="&#xd3;" horiz-adv-x="763" 
d="M378 -12c-179 0 -342 111 -342 350c0 263 184 367 349 367c178 0 342 -105 342 -352c0 -264 -184 -365 -349 -365zM383 42c108 0 157 56 157 290c0 229 -42 319 -161 319c-104 0 -156 -58 -156 -292c0 -227 40 -317 160 -317zM296 745l-12 28l140 112c18 14 34 23 53 23
c31 0 53 -29 53 -59c0 -22 -12 -47 -45 -55z" />
    <glyph glyph-name="Ocircumflex" unicode="&#xd4;" horiz-adv-x="763" 
d="M378 -12c-179 0 -342 111 -342 350c0 263 184 367 349 367c178 0 342 -105 342 -352c0 -264 -184 -365 -349 -365zM383 42c108 0 157 56 157 290c0 229 -42 319 -161 319c-104 0 -156 -58 -156 -292c0 -227 40 -317 160 -317zM415 901l133 -127l-19 -31l-148 54l-148 -54
l-19 31l132 127h69z" />
    <glyph glyph-name="Ograve" unicode="&#xd2;" horiz-adv-x="763" 
d="M378 -12c-179 0 -342 111 -342 350c0 263 184 367 349 367c178 0 342 -105 342 -352c0 -264 -184 -365 -349 -365zM383 42c108 0 157 56 157 290c0 229 -42 319 -161 319c-104 0 -156 -58 -156 -292c0 -227 40 -317 160 -317zM492 745l-188 49c-33 8 -46 33 -46 55
c0 30 23 59 53 59c20 0 36 -9 54 -23l140 -112z" />
    <glyph glyph-name="Uacute" unicode="&#xda;" horiz-adv-x="739" 
d="M390 -12c-173 0 -295 62 -295 235v351c0 61 -9 65 -40 72l-37 8v39h331v-39l-34 -8c-34 -8 -41 -11 -41 -72v-371c0 -101 40 -141 158 -141c104 0 149 55 149 155v343c0 73 -7 77 -49 86l-42 8v39h229v-39l-30 -7c-32 -8 -44 -12 -44 -83v-355c0 -123 -78 -221 -255 -221
zM258 745l-12 28l140 112c18 14 34 23 53 23c31 0 53 -29 53 -59c0 -22 -12 -47 -45 -55z" />
    <glyph glyph-name="Ucircumflex" unicode="&#xdb;" horiz-adv-x="739" 
d="M390 -12c-173 0 -295 62 -295 235v351c0 61 -9 65 -40 72l-37 8v39h331v-39l-34 -8c-34 -8 -41 -11 -41 -72v-371c0 -101 40 -141 158 -141c104 0 149 55 149 155v343c0 73 -7 77 -49 86l-42 8v39h229v-39l-30 -7c-32 -8 -44 -12 -44 -83v-355c0 -123 -78 -221 -255 -221
zM402 901l133 -127l-19 -31l-148 54l-148 -54l-19 31l132 127h69z" />
    <glyph glyph-name="Ugrave" unicode="&#xd9;" horiz-adv-x="739" 
d="M390 -12c-173 0 -295 62 -295 235v351c0 61 -9 65 -40 72l-37 8v39h331v-39l-34 -8c-34 -8 -41 -11 -41 -72v-371c0 -101 40 -141 158 -141c104 0 149 55 149 155v343c0 73 -7 77 -49 86l-42 8v39h229v-39l-30 -7c-32 -8 -44 -12 -44 -83v-355c0 -123 -78 -221 -255 -221
zM480 745l-188 49c-33 8 -46 33 -46 55c0 30 23 59 53 59c20 0 36 -9 54 -23l140 -112z" />
    <glyph glyph-name="dotlessi" unicode="&#x131;" horiz-adv-x="326" 
d="M20 0v33l29 10c38 10 37 17 37 81v250c0 59 -4 59 -34 79l-35 24v32l220 23l15 -8c0 3 -8 -39 -8 -137v-263c0 -66 2 -73 36 -81l29 -10v-33h-289z" />
    <glyph glyph-name="circumflex" unicode="&#x2c6;" horiz-adv-x="516" 
d="M292 766l131 -152l-22 -31l-143 79l-143 -79l-22 31l130 152h69z" />
    <glyph glyph-name="tilde" unicode="&#x2dc;" horiz-adv-x="516" 
d="M117 584l-39 18c29 88 60 141 108 141c54 0 111 -39 148 -39c27 0 40 26 61 63l38 -17c-29 -88 -55 -141 -105 -141c-54 0 -113 39 -150 39c-27 0 -40 -27 -61 -64z" />
    <glyph glyph-name="macron" unicode="&#xaf;" horiz-adv-x="516" 
d="M110 622v79h296v-79h-296z" />
    <glyph glyph-name="breve" unicode="&#x2d8;" horiz-adv-x="516" 
d="M259 593c-83 0 -138 67 -152 164l43 12c19 -47 46 -80 109 -80c59 0 88 32 108 80l42 -12c-13 -97 -67 -164 -150 -164z" />
    <glyph glyph-name="dotaccent" unicode="&#x2d9;" horiz-adv-x="412" 
d="M206 594c-53 0 -95 38 -95 87c0 51 42 87 95 87c52 0 94 -36 94 -87c0 -49 -42 -87 -94 -87z" />
    <glyph glyph-name="ring" unicode="&#x2da;" horiz-adv-x="516" 
d="M258 585c-68 0 -115 46 -115 107c0 62 51 109 115 109c65 0 115 -45 115 -109c0 -61 -50 -107 -115 -107zM258 630c35 0 57 26 57 62s-22 63 -57 63s-57 -27 -57 -63s22 -62 57 -62z" />
    <glyph glyph-name="cedilla" unicode="&#xb8;" horiz-adv-x="516" 
d="M145 -260v33c80 18 118 45 118 73c0 20 -22 35 -74 38l-9 10l53 106h55l-41 -55c79 -5 112 -39 112 -79c0 -58 -72 -111 -214 -126z" />
    <glyph glyph-name="hungarumlaut" unicode="&#x2dd;" horiz-adv-x="516" 
d="M315 587l-20 22l78 123c15 27 30 38 49 38c26 0 58 -25 58 -53c0 -18 -8 -37 -37 -53zM129 587l-20 22l77 123c14 28 32 38 50 38c23 0 56 -23 56 -52c0 -20 -10 -41 -41 -59z" />
    <glyph glyph-name="ogonek" unicode="&#x2db;" horiz-adv-x="429" 
d="M204 -226c-75 0 -122 36 -122 90c0 64 65 108 132 136h58c-41 -36 -69 -68 -69 -110c0 -22 10 -37 29 -43c17 -5 40 -5 69 -4v-39c-17 -12 -45 -30 -97 -30z" />
    <glyph glyph-name="caron" unicode="&#x2c7;" horiz-adv-x="516" 
d="M224 591l-131 151l22 32l143 -80l143 80l22 -32l-130 -151h-69z" />
    <glyph glyph-name="space_uni0326" horiz-adv-x="510" 
d="M171 -284l-7 28c78 17 98 47 96 83c-6 -3 -15 -7 -28 -7c-37 0 -62 24 -62 58c0 36 34 65 79 65c49 0 90 -32 90 -89c0 -64 -46 -129 -168 -138z" />
    <glyph glyph-name="caron.alt" horiz-adv-x="510" 
d="M263 569l-25 6l7 137c2 31 14 53 50 53c32 0 57 -21 57 -49c0 -10 -3 -22 -15 -40z" />
    <glyph glyph-name="space_uni0326.alt" horiz-adv-x="510" 
d="M331 822l7 -28c-78 -17 -98 -47 -96 -83c6 3 15 7 28 7c37 0 62 -24 62 -58c0 -36 -34 -65 -79 -65c-49 0 -90 32 -90 89c0 64 46 129 168 138z" />
    <glyph glyph-name="acute.pl" horiz-adv-x="510" 
d="M216 575l-21 20l65 139c13 28 29 47 54 47c33 0 67 -30 67 -61c0 -18 -11 -35 -30 -49z" />
    <glyph glyph-name="grave.uc" horiz-adv-x="511" 
d="M364 745l-188 49c-33 8 -46 33 -46 55c0 30 23 59 53 59c20 0 36 -9 54 -23l140 -112z" />
    <glyph glyph-name="dieresis.uc" horiz-adv-x="516" 
d="M140 748c-47 0 -86 35 -86 81s39 81 86 81s86 -35 86 -81s-39 -81 -86 -81zM377 748c-48 0 -86 35 -86 81s38 81 86 81c46 0 85 -35 85 -81s-39 -81 -85 -81z" />
    <glyph glyph-name="macron.uc" horiz-adv-x="516" 
d="M105 777v79h306v-79h-306z" />
    <glyph glyph-name="acute.uc" horiz-adv-x="516" 
d="M149 745l-12 28l140 112c18 14 34 23 53 23c31 0 53 -29 53 -59c0 -22 -12 -47 -45 -55z" />
    <glyph glyph-name="circumflex.uc" horiz-adv-x="516" 
d="M291 901l133 -127l-19 -31l-148 54l-148 -54l-19 31l132 127h69z" />
    <glyph glyph-name="caron.uc" horiz-adv-x="516" 
d="M223 756l-133 127l19 31l148 -54l148 54l19 -31l-132 -127h-69z" />
    <glyph glyph-name="breve.uc" horiz-adv-x="516" 
d="M259 754c-87 0 -148 61 -162 148l43 12c19 -42 51 -63 119 -63c64 0 98 20 118 63l42 -12c-13 -87 -72 -148 -160 -148z" />
    <glyph glyph-name="dotaccent.uc" horiz-adv-x="412" 
d="M206 744c-53 0 -95 38 -95 87c0 51 42 87 95 87c52 0 94 -36 94 -87c0 -49 -42 -87 -94 -87z" />
    <glyph glyph-name="ring.uc" horiz-adv-x="516" 
d="M258 736c-68 0 -115 46 -115 107c0 62 51 109 115 109c65 0 115 -45 115 -109c0 -61 -50 -107 -115 -107zM258 781c35 0 57 26 57 62s-22 63 -57 63s-57 -27 -57 -63s22 -62 57 -62z" />
    <glyph glyph-name="tilde.uc" horiz-adv-x="516" 
d="M107 759l-39 18c29 88 60 141 108 141c54 0 126 -49 163 -49c27 0 40 26 61 63l38 -17c-29 -88 -55 -141 -105 -141c-54 0 -128 49 -165 49c-27 0 -40 -27 -61 -64z" />
    <glyph glyph-name="hungarumlaut.uc" horiz-adv-x="516" 
d="M315 759l-20 22l69 114c16 27 30 37 49 37c26 0 58 -27 58 -55c0 -18 -10 -36 -39 -52zM129 759l-20 22l68 114c16 27 32 37 50 37c23 0 56 -25 56 -54c0 -20 -12 -41 -43 -58z" />
    <glyph glyph-name="acute.ucpl" horiz-adv-x="510" 
d="M216 747l-21 20l54 125c12 28 29 47 54 47c33 0 67 -30 67 -61c0 -18 -10 -36 -30 -49z" />
    <glyph glyph-name="Dcroat" unicode="&#x110;" horiz-adv-x="763" 
d="M36 321v54h66v199c0 61 -9 65 -40 72l-35 8v39h344c213 0 357 -98 357 -335c0 -228 -141 -358 -362 -358h-339v40l35 7c31 7 40 12 40 72v202h-66zM356 53c133 0 185 89 185 282c0 235 -60 305 -187 305c-34 0 -61 -4 -73 -9v-256h142v-54h-142v-174c0 -79 12 -94 75 -94
z" />
    <glyph glyph-name="Eng" unicode="&#x14a;" horiz-adv-x="740" 
d="M493 -182c43 0 82 35 82 141v14l-404 602h-4v-441c0 -74 7 -79 49 -87l36 -7v-40h-225v40l31 7c33 7 44 12 44 82v445c0 61 -9 65 -40 72l-35 8v39h274l270 -407h4v274c0 73 -6 77 -48 86l-41 8v39h229v-39l-30 -7c-34 -8 -45 -12 -45 -83v-595
c0 -106 -50 -198 -174 -198c-105 0 -157 46 -157 102c0 43 27 69 73 69c54 0 74 -23 87 -98c4 -20 9 -26 24 -26z" />
    <glyph glyph-name="IJ" unicode="&#x132;" horiz-adv-x="768" 
d="M27 0v40l38 7c32 7 40 12 40 72v455c0 61 -8 65 -40 72l-38 8v39h338v-39l-40 -8c-33 -7 -40 -11 -40 -72v-455c0 -60 7 -65 40 -72l40 -7v-40h-338zM421 -195c-103 0 -154 46 -154 102c0 42 27 69 73 69c54 0 74 -23 87 -97c4 -21 9 -27 22 -27c30 0 43 16 43 76v646
c0 61 -8 65 -40 72l-38 8v39h334v-39l-36 -8c-33 -8 -41 -11 -41 -72v-522c0 -145 -89 -247 -250 -247z" />
    <glyph glyph-name="uni0237" unicode="&#x237;" horiz-adv-x="314" 
d="M24 -226c-89 0 -136 44 -136 94c0 40 26 62 69 62c46 0 65 -19 71 -81c3 -24 9 -28 19 -28c26 0 39 24 39 53v517c0 42 -5 45 -34 64l-35 22v32l221 23l14 -9c-1 -29 -8 -64 -8 -151v-380c0 -143 -94 -218 -220 -218z" />
    <glyph glyph-name="dcroat" unicode="&#x111;" horiz-adv-x="649" 
d="M236 593v51h172c-1 30 -9 34 -31 46l-42 22v35l225 19l14 -10s-7 -43 -7 -112h76v-51h-76v-462c0 -49 3 -54 33 -66l30 -13v-35l-208 -29l-10 8l4 56h-4c-44 -36 -105 -64 -177 -64c-101 0 -202 71 -202 254c0 207 138 290 297 290c30 0 63 -4 84 -10c0 0 -5 35 -5 71
h-173zM319 78c44 0 73 15 89 23v338c-17 20 -43 41 -82 41c-78 0 -130 -49 -130 -207c0 -148 42 -195 123 -195z" />
    <glyph glyph-name="eng" unicode="&#x14b;" horiz-adv-x="638" 
d="M416 -119v473c0 62 -22 84 -73 84c-38 0 -77 -12 -99 -19v-316c0 -48 3 -50 32 -58l27 -6v-39h-283v39l29 7c33 9 37 14 37 57v288c0 42 -5 45 -34 64l-35 22v32l211 23l14 -9l-7 -61h5c54 37 125 70 199 70c89 0 136 -44 136 -133v-391c0 -152 -95 -234 -221 -234
c-89 0 -136 44 -136 94c0 40 26 62 69 62c46 0 65 -19 71 -81c3 -24 9 -28 19 -28c26 0 39 24 39 60z" />
    <glyph glyph-name="ij" unicode="&#x133;" horiz-adv-x="640" 
d="M161 594c-54 0 -96 38 -96 87c0 51 42 87 96 87c51 0 93 -36 93 -87c0 -49 -42 -87 -93 -87zM20 0v39l29 7c33 9 37 14 37 57v288c0 42 -5 45 -34 64l-35 22v32l221 23l14 -9c-1 -29 -8 -63 -8 -143v-277c0 -45 4 -49 36 -57l29 -7v-39h-289zM486 594
c-54 0 -95 38 -95 87c0 51 41 87 95 87c52 0 93 -36 93 -87c0 -49 -41 -87 -93 -87zM350 -226c-89 0 -136 44 -136 94c0 40 26 62 69 62c46 0 65 -19 71 -81c3 -24 9 -28 19 -28c26 0 39 24 39 53v517c0 42 -5 45 -34 64l-35 22v32l221 23l14 -9c-1 -29 -8 -64 -8 -151v-380
c0 -143 -94 -218 -220 -218z" />
    <glyph glyph-name="Abreve" unicode="&#x102;" horiz-adv-x="726" 
d="M5 0v40l27 7c30 8 42 17 70 88l206 558h102l214 -562c27 -69 40 -77 68 -86l24 -5v-40h-327v40l28 7c27 7 37 15 37 34c0 17 -8 36 -18 65l-23 63h-217l-22 -63c-9 -28 -16 -44 -16 -61c0 -24 13 -30 44 -38l29 -7v-40h-226zM301 511l-86 -247h179l-88 247h-5zM360 754
c-87 0 -148 61 -162 148l43 12c19 -42 51 -63 119 -63c64 0 98 20 118 63l42 -12c-13 -87 -72 -148 -160 -148z" />
    <glyph glyph-name="Amacron" unicode="&#x100;" horiz-adv-x="726" 
d="M5 0v40l27 7c30 8 42 17 70 88l206 558h102l214 -562c27 -69 40 -77 68 -86l24 -5v-40h-327v40l28 7c27 7 37 15 37 34c0 17 -8 36 -18 65l-23 63h-217l-22 -63c-9 -28 -16 -44 -16 -61c0 -24 13 -30 44 -38l29 -7v-40h-226zM301 511l-86 -247h179l-88 247h-5zM206 777
v79h306v-79h-306z" />
    <glyph glyph-name="Aogonek" unicode="&#x104;" horiz-adv-x="726" 
d="M482 14l-69 195h-217l-22 -63c-9 -28 -16 -44 -16 -61c0 -24 13 -30 44 -38l29 -7v-40h-226v40l27 7c30 8 42 17 70 88l206 558h102l214 -562c27 -69 40 -77 68 -86l24 -5v-40h-101c-96 0 -162 -50 -162 -110c0 -22 10 -37 29 -43c17 -5 40 -5 69 -4v-39
c-17 -12 -45 -30 -97 -30c-75 0 -122 36 -122 90c0 62 45 109 150 150zM301 511l-86 -247h178l-87 247h-5z" />
    <glyph glyph-name="Aringacute" unicode="&#x1fa;" horiz-adv-x="726" 
d="M5 0v40l27 7c30 8 42 17 70 88l206 558h102l214 -562c27 -69 40 -77 68 -86l24 -5v-40h-327v40l28 7c27 7 37 15 37 34c0 17 -8 36 -18 65l-23 63h-217l-22 -63c-9 -28 -16 -44 -16 -61c0 -24 13 -30 44 -38l29 -7v-40h-226zM301 511l-86 -247h179l-88 247h-5zM359 736
c-68 0 -115 46 -115 107c0 62 51 109 115 109c65 0 115 -45 115 -109c0 -61 -50 -107 -115 -107zM359 781c35 0 57 26 57 62s-22 63 -57 63s-57 -27 -57 -63s22 -62 57 -62zM274 965l-12 28l140 112c18 14 34 23 53 23c31 0 53 -29 53 -59c0 -22 -12 -47 -45 -55z" />
    <glyph glyph-name="AEacute" unicode="&#x1fc;" horiz-adv-x="988" 
d="M367 0v40l35 7c30 7 43 12 43 72v79h-225l-22 -39c-17 -30 -34 -58 -34 -79c0 -16 9 -26 33 -33l32 -7v-40h-225v40l19 7c32 8 48 18 97 101l292 494l-16 3l-47 9v39h576l11 -200h-43c-24 56 -41 84 -56 106c-32 41 -57 40 -124 40c-51 0 -79 -4 -96 -8v-244h7
c74 0 91 6 105 29c14 24 21 36 30 68h43v-253h-43c-9 32 -16 44 -30 72c-14 26 -28 29 -105 29h-7v-188c0 -91 11 -90 103 -90c83 0 98 4 131 49c19 26 39 69 66 133h43l-15 -236h-578zM442 583l-191 -331h194v313c0 6 0 12 -1 18h-2zM571 745l-12 28l140 112
c18 14 34 23 53 23c31 0 53 -29 53 -59c0 -22 -12 -47 -45 -55z" />
    <glyph glyph-name="Cacute" unicode="&#x106;" horiz-adv-x="657" 
d="M396 -12c-213 0 -360 115 -360 353c0 259 175 364 374 364c78 0 150 -11 194 -23l11 -207h-42c-31 62 -54 108 -80 141c-28 35 -44 38 -96 38c-124 0 -172 -75 -172 -293c0 -259 55 -322 171 -322c64 0 86 20 116 59c27 39 44 69 69 130h41l-11 -199
c-49 -20 -126 -41 -215 -41zM304 745l-12 28l140 112c18 14 34 23 53 23c31 0 53 -29 53 -59c0 -22 -12 -47 -45 -55z" />
    <glyph glyph-name="Ccaron" unicode="&#x10c;" horiz-adv-x="657" 
d="M396 -12c-213 0 -360 115 -360 353c0 259 175 364 374 364c78 0 150 -11 194 -23l11 -207h-42c-31 62 -54 108 -80 141c-28 35 -44 38 -96 38c-124 0 -172 -75 -172 -293c0 -259 55 -322 171 -322c64 0 86 20 116 59c27 39 44 69 69 130h41l-11 -199
c-49 -20 -126 -41 -215 -41zM355 756l-133 127l19 31l148 -54l148 54l19 -31l-132 -127h-69z" />
    <glyph glyph-name="Ccircumflex" unicode="&#x108;" horiz-adv-x="657" 
d="M396 -12c-213 0 -360 115 -360 353c0 259 175 364 374 364c78 0 150 -11 194 -23l11 -207h-42c-31 62 -54 108 -80 141c-28 35 -44 38 -96 38c-124 0 -172 -75 -172 -293c0 -259 55 -322 171 -322c64 0 86 20 116 59c27 39 44 69 69 130h41l-11 -199
c-49 -20 -126 -41 -215 -41zM423 901l133 -127l-19 -31l-148 54l-148 -54l-19 31l132 127h69z" />
    <glyph glyph-name="Cdotaccent" unicode="&#x10a;" horiz-adv-x="657" 
d="M396 -12c-213 0 -360 115 -360 353c0 259 175 364 374 364c78 0 150 -11 194 -23l11 -207h-42c-31 62 -54 108 -80 141c-28 35 -44 38 -96 38c-124 0 -172 -75 -172 -293c0 -259 55 -322 171 -322c64 0 86 20 116 59c27 39 44 69 69 130h41l-11 -199
c-49 -20 -126 -41 -215 -41zM390 744c-53 0 -95 38 -95 87c0 51 42 87 95 87c52 0 94 -36 94 -87c0 -49 -42 -87 -94 -87z" />
    <glyph glyph-name="Cacute.pl" horiz-adv-x="657" 
d="M396 -12c-213 0 -360 115 -360 353c0 259 175 364 374 364c78 0 150 -11 194 -23l11 -207h-42c-31 62 -54 108 -80 141c-28 35 -44 38 -96 38c-124 0 -172 -75 -172 -293c0 -259 55 -322 171 -322c64 0 86 20 116 59c27 39 44 69 69 130h41l-11 -199
c-49 -20 -126 -41 -215 -41zM363 747l-21 20l54 125c12 28 29 47 54 47c33 0 67 -30 67 -61c0 -18 -10 -36 -30 -49z" />
    <glyph glyph-name="Dcaron" unicode="&#x10e;" horiz-adv-x="763" 
d="M27 0v40l35 7c31 7 40 12 40 72v455c0 61 -9 65 -40 72l-35 8v39h344c213 0 357 -98 357 -335c0 -228 -141 -358 -362 -358h-339zM356 53c133 0 185 89 185 282c0 235 -60 305 -187 305c-34 0 -61 -4 -73 -9v-484c0 -79 12 -94 75 -94zM322 756l-133 127l19 31l148 -54
l148 54l19 -31l-132 -127h-69z" />
    <glyph glyph-name="Ebreve" unicode="&#x114;" horiz-adv-x="663" 
d="M27 0v40l35 7c31 7 40 12 40 72v455c0 61 -9 65 -40 72l-35 8v39h572l11 -200h-44c-24 56 -41 84 -57 106c-32 41 -56 40 -128 40c-57 0 -82 -5 -100 -9v-243h19c74 0 91 6 105 29c14 24 22 36 30 68h44v-253h-44c-8 32 -16 44 -30 72c-14 26 -27 29 -105 29h-19v-188
c0 -91 3 -90 109 -90c85 0 100 4 134 49c19 26 40 69 67 133h44l-15 -236h-593zM342 754c-87 0 -148 61 -162 148l43 12c19 -42 51 -63 119 -63c64 0 98 20 118 63l42 -12c-13 -87 -72 -148 -160 -148z" />
    <glyph glyph-name="Ecaron" unicode="&#x11a;" horiz-adv-x="663" 
d="M27 0v40l35 7c31 7 40 12 40 72v455c0 61 -9 65 -40 72l-35 8v39h572l11 -200h-44c-24 56 -41 84 -57 106c-32 41 -56 40 -128 40c-57 0 -82 -5 -100 -9v-243h19c74 0 91 6 105 29c14 24 22 36 30 68h44v-253h-44c-8 32 -16 44 -30 72c-14 26 -27 29 -105 29h-19v-188
c0 -91 3 -90 109 -90c85 0 100 4 134 49c19 26 40 69 67 133h44l-15 -236h-593zM307 756l-133 127l19 31l148 -54l148 54l19 -31l-132 -127h-69z" />
    <glyph glyph-name="Edotaccent" unicode="&#x116;" horiz-adv-x="663" 
d="M27 0v40l35 7c31 7 40 12 40 72v455c0 61 -9 65 -40 72l-35 8v39h572l11 -200h-44c-24 56 -41 84 -57 106c-32 41 -56 40 -128 40c-57 0 -82 -5 -100 -9v-243h19c74 0 91 6 105 29c14 24 22 36 30 68h44v-253h-44c-8 32 -16 44 -30 72c-14 26 -27 29 -105 29h-19v-188
c0 -91 3 -90 109 -90c85 0 100 4 134 49c19 26 40 69 67 133h44l-15 -236h-593zM342 744c-53 0 -95 38 -95 87c0 51 42 87 95 87c52 0 94 -36 94 -87c0 -49 -42 -87 -94 -87z" />
    <glyph glyph-name="Emacron" unicode="&#x112;" horiz-adv-x="663" 
d="M27 0v40l35 7c31 7 40 12 40 72v455c0 61 -9 65 -40 72l-35 8v39h572l11 -200h-44c-24 56 -41 84 -57 106c-32 41 -56 40 -128 40c-57 0 -82 -5 -100 -9v-243h19c74 0 91 6 105 29c14 24 22 36 30 68h44v-253h-44c-8 32 -16 44 -30 72c-14 26 -27 29 -105 29h-19v-188
c0 -91 3 -90 109 -90c85 0 100 4 134 49c19 26 40 69 67 133h44l-15 -236h-593zM188 777v79h306v-79h-306z" />
    <glyph glyph-name="Eogonek" unicode="&#x118;" horiz-adv-x="663" 
d="M27 0v40l35 7c31 7 40 12 40 72v455c0 61 -9 65 -40 72l-35 8v39h572l11 -200h-44c-24 56 -41 84 -57 106c-32 41 -56 40 -128 40c-57 0 -82 -5 -100 -9v-243h19c74 0 91 6 105 29c14 24 22 36 30 68h44v-253h-44c-8 32 -16 44 -30 72c-14 26 -27 29 -105 29h-19v-188
c0 -91 3 -90 109 -90c85 0 100 4 134 49c19 26 40 69 67 133h44l-15 -236h-96c-41 -36 -69 -68 -69 -110c0 -22 10 -37 29 -43c17 -5 40 -5 69 -4v-39c-17 -12 -45 -30 -97 -30c-75 0 -122 36 -122 90c0 60 56 102 120 136h-427z" />
    <glyph glyph-name="Gbreve" unicode="&#x11e;" horiz-adv-x="725" 
d="M403 -12c-239 0 -367 123 -367 355c0 261 179 362 389 362c85 0 150 -10 195 -23l13 -209h-45c-28 63 -54 100 -77 133c-24 36 -38 45 -104 45c-128 0 -184 -78 -184 -290c0 -242 43 -319 175 -319c37 0 64 8 84 19v139c0 61 -8 64 -40 71l-37 9v39h308v-39l-27 -7
c-28 -8 -33 -12 -33 -73v-171c-59 -21 -164 -41 -250 -41zM400 754c-87 0 -148 61 -162 148l43 12c19 -42 51 -63 119 -63c64 0 98 20 118 63l42 -12c-13 -87 -72 -148 -160 -148z" />
    <glyph glyph-name="Gcircumflex" unicode="&#x11c;" horiz-adv-x="725" 
d="M403 -12c-239 0 -367 123 -367 355c0 261 179 362 389 362c85 0 150 -10 195 -23l13 -209h-45c-28 63 -54 100 -77 133c-24 36 -38 45 -104 45c-128 0 -184 -78 -184 -290c0 -242 43 -319 175 -319c37 0 64 8 84 19v139c0 61 -8 64 -40 71l-37 9v39h308v-39l-27 -7
c-28 -8 -33 -12 -33 -73v-171c-59 -21 -164 -41 -250 -41zM433 901l133 -127l-19 -31l-148 54l-148 -54l-19 31l132 127h69z" />
    <glyph glyph-name="Gcommaaccent" unicode="&#x122;" horiz-adv-x="725" 
d="M403 -12c-239 0 -367 123 -367 355c0 261 179 362 389 362c85 0 150 -10 195 -23l13 -209h-45c-28 63 -54 100 -77 133c-24 36 -38 45 -104 45c-128 0 -184 -78 -184 -290c0 -242 43 -319 175 -319c37 0 64 8 84 19v139c0 61 -8 64 -40 71l-37 9v39h308v-39l-27 -7
c-28 -8 -33 -12 -33 -73v-171c-59 -21 -164 -41 -250 -41zM317 -284l-7 28c78 17 98 47 96 83c-6 -3 -15 -7 -28 -7c-37 0 -62 24 -62 58c0 36 34 65 79 65c49 0 90 -32 90 -89c0 -64 -46 -129 -168 -138z" />
    <glyph glyph-name="Gdotaccent" unicode="&#x120;" horiz-adv-x="725" 
d="M403 -12c-239 0 -367 123 -367 355c0 261 179 362 389 362c85 0 150 -10 195 -23l13 -209h-45c-28 63 -54 100 -77 133c-24 36 -38 45 -104 45c-128 0 -184 -78 -184 -290c0 -242 43 -319 175 -319c37 0 64 8 84 19v139c0 61 -8 64 -40 71l-37 9v39h308v-39l-27 -7
c-28 -8 -33 -12 -33 -73v-171c-59 -21 -164 -41 -250 -41zM400 744c-53 0 -95 38 -95 87c0 51 42 87 95 87c52 0 94 -36 94 -87c0 -49 -42 -87 -94 -87z" />
    <glyph glyph-name="Hbar" unicode="&#x126;" horiz-adv-x="804" 
d="M20 488v53h82v33c0 61 -9 65 -40 72l-35 8v39h330v-39l-35 -8c-33 -9 -41 -11 -41 -72v-33h240v33c0 61 -7 63 -39 72l-35 8v39h330v-39l-36 -8c-32 -7 -41 -11 -41 -72v-33h84v-53h-84v-369c0 -60 9 -64 41 -72l36 -7v-40h-330v40l35 7c32 8 39 12 39 72v207h-240v-207
c0 -60 7 -64 41 -72l35 -7v-40h-330v40l35 7c31 7 40 12 40 72v369h-82zM281 383h240v105h-240v-105z" />
    <glyph glyph-name="Hcircumflex" unicode="&#x124;" horiz-adv-x="804" 
d="M27 0v40l35 7c31 7 40 12 40 72v455c0 61 -9 65 -40 72l-35 8v39h330v-39l-35 -8c-33 -9 -41 -11 -41 -72v-191h240v191c0 61 -7 63 -39 72l-35 8v39h330v-39l-36 -8c-32 -7 -41 -11 -41 -72v-455c0 -60 9 -64 41 -72l36 -7v-40h-330v40l35 7c32 8 39 12 39 72v207h-240
v-207c0 -60 7 -64 41 -72l35 -7v-40h-330zM436 901l133 -127l-19 -31l-148 54l-148 -54l-19 31l132 127h69z" />
    <glyph glyph-name="Idotaccent" unicode="&#x130;" horiz-adv-x="390" 
d="M27 0v40l38 7c32 7 40 12 40 72v455c0 61 -8 65 -40 72l-38 8v39h338v-39l-40 -8c-33 -7 -40 -11 -40 -72v-455c0 -60 7 -65 40 -72l40 -7v-40h-338zM197 744c-53 0 -95 38 -95 87c0 51 42 87 95 87c52 0 94 -36 94 -87c0 -49 -42 -87 -94 -87z" />
    <glyph glyph-name="Ibreve" unicode="&#x12c;" horiz-adv-x="390" 
d="M27 0v40l38 7c32 7 40 12 40 72v455c0 61 -8 65 -40 72l-38 8v39h338v-39l-40 -8c-33 -7 -40 -11 -40 -72v-455c0 -60 7 -65 40 -72l40 -7v-40h-338zM197 754c-87 0 -148 61 -162 148l43 12c19 -42 51 -63 119 -63c64 0 98 20 118 63l42 -12c-13 -87 -72 -148 -160 -148z
" />
    <glyph glyph-name="Imacron" unicode="&#x12a;" horiz-adv-x="390" 
d="M27 0v40l38 7c32 7 40 12 40 72v455c0 61 -8 65 -40 72l-38 8v39h338v-39l-40 -8c-33 -7 -40 -11 -40 -72v-455c0 -60 7 -65 40 -72l40 -7v-40h-338zM43 777v79h306v-79h-306z" />
    <glyph glyph-name="Iogonek" unicode="&#x12e;" horiz-adv-x="390" 
d="M27 0v40l38 7c32 7 40 12 40 72v455c0 61 -8 65 -40 72l-38 8v39h338v-39l-40 -8c-33 -7 -40 -11 -40 -72v-455c0 -60 7 -65 40 -72l40 -7v-40h-88c-33 -40 -55 -68 -55 -110c0 -22 10 -37 29 -43c17 -5 40 -5 69 -4v-39c-17 -12 -45 -30 -97 -30c-75 0 -122 36 -122 90
c0 61 54 107 110 136h-184z" />
    <glyph glyph-name="Itilde" unicode="&#x128;" horiz-adv-x="390" 
d="M27 0v40l38 7c32 7 40 12 40 72v455c0 61 -8 65 -40 72l-38 8v39h338v-39l-40 -8c-33 -7 -40 -11 -40 -72v-455c0 -60 7 -65 40 -72l40 -7v-40h-338zM50 759l-39 18c29 88 60 141 108 141c54 0 126 -49 163 -49c27 0 40 26 61 63l38 -17c-29 -88 -55 -141 -105 -141
c-54 0 -128 49 -165 49c-27 0 -40 -27 -61 -64z" />
    <glyph glyph-name="Jcircumflex" unicode="&#x134;" horiz-adv-x="378" 
d="M31 -195c-103 0 -154 46 -154 102c0 42 27 69 73 69c54 0 74 -23 87 -97c4 -21 9 -27 22 -27c30 0 43 16 43 76v646c0 61 -8 65 -40 72l-38 8v39h334v-39l-36 -8c-33 -8 -41 -11 -41 -72v-522c0 -145 -89 -247 -250 -247zM224 901l133 -127l-19 -31l-148 54l-148 -54
l-19 31l132 127h69z" />
    <glyph glyph-name="Kcommaaccent" unicode="&#x136;" horiz-adv-x="749" 
d="M513 0c-77 100 -149 215 -205 330v17l156 176c40 43 52 73 52 89s-18 29 -36 34l-31 8v39h258v-39l-12 -4c-40 -10 -58 -28 -113 -87l-137 -147c58 -112 145 -249 217 -343c14 -16 20 -20 34 -24l43 -9v-40h-226zM27 0v40l35 7c31 7 40 12 40 72v455c0 61 -9 65 -40 72
l-35 8v39h330v-39l-35 -8c-34 -9 -41 -11 -41 -72v-455c0 -60 7 -64 41 -72l35 -7v-40h-330zM304 -284l-7 28c78 17 98 47 96 83c-6 -3 -15 -7 -28 -7c-37 0 -62 24 -62 58c0 36 34 65 79 65c49 0 90 -32 90 -89c0 -64 -46 -129 -168 -138z" />
    <glyph glyph-name="Lacute" unicode="&#x139;" horiz-adv-x="640" 
d="M27 0v40l35 7c31 7 40 12 40 72v455c0 61 -9 65 -40 72l-35 8v39h337v-39l-42 -9c-34 -6 -41 -10 -41 -71v-429c0 -86 4 -92 93 -92c83 0 103 13 133 59c20 32 43 63 70 135h45l-17 -247h-578zM102 745l-12 28l140 112c18 14 34 23 53 23c31 0 53 -29 53 -59
c0 -22 -12 -47 -45 -55z" />
    <glyph glyph-name="Lcaron" unicode="&#x13d;" horiz-adv-x="640" 
d="M453 489l-25 6l11 165c2 31 16 53 52 53c32 0 58 -21 58 -49c0 -10 -3 -22 -14 -40zM27 0v40l35 7c31 7 40 12 40 72v455c0 61 -9 65 -40 72l-35 8v39h337v-39l-42 -9c-34 -6 -41 -10 -41 -71v-429c0 -86 4 -92 93 -92c83 0 103 13 133 59c20 32 43 63 70 135h45
l-17 -247h-578z" />
    <glyph glyph-name="Lcommaaccent" unicode="&#x13b;" horiz-adv-x="640" 
d="M27 0v40l35 7c31 7 40 12 40 72v455c0 61 -9 65 -40 72l-35 8v39h337v-39l-42 -9c-34 -6 -41 -10 -41 -71v-429c0 -86 4 -92 93 -92c83 0 103 13 133 59c20 32 43 63 70 135h45l-17 -247h-578zM257 -284l-7 28c78 17 98 47 96 83c-6 -3 -15 -7 -28 -7
c-37 0 -62 24 -62 58c0 36 34 65 79 65c49 0 90 -32 90 -89c0 -64 -46 -129 -168 -138z" />
    <glyph glyph-name="Ldot" unicode="&#x13f;" horiz-adv-x="584" 
d="M27 0v40l35 7c31 7 40 12 40 72v455c0 61 -9 65 -40 72l-35 8v39h337v-39l-42 -9c-34 -6 -41 -10 -41 -71v-429c0 -86 4 -92 93 -92c83 0 103 13 133 59c20 32 43 63 70 135h45l-17 -247h-578zM506 313c-48 0 -87 38 -87 86c0 46 39 85 87 85c50 0 87 -39 87 -85
c0 -48 -37 -86 -87 -86z" />
    <glyph glyph-name="Nacute" unicode="&#x143;" horiz-adv-x="740" 
d="M558 -2l-387 577h-4v-441c0 -74 7 -79 49 -87l36 -7v-40h-225v40l31 7c33 7 44 12 44 82v445c0 61 -9 65 -40 72l-35 8v39h274l270 -407h4v274c0 73 -6 77 -48 86l-41 8v39h229v-39l-30 -7c-34 -8 -45 -12 -45 -83v-566h-82zM323 745l-12 28l140 112c18 14 34 23 53 23
c31 0 53 -29 53 -59c0 -22 -12 -47 -45 -55z" />
    <glyph glyph-name="Ncaron" unicode="&#x147;" horiz-adv-x="740" 
d="M558 -2l-387 577h-4v-441c0 -74 7 -79 49 -87l36 -7v-40h-225v40l31 7c33 7 44 12 44 82v445c0 61 -9 65 -40 72l-35 8v39h274l270 -407h4v274c0 73 -6 77 -48 86l-41 8v39h229v-39l-30 -7c-34 -8 -45 -12 -45 -83v-566h-82zM374 756l-133 127l19 31l148 -54l148 54
l19 -31l-132 -127h-69z" />
    <glyph glyph-name="Ncommaaccent" unicode="&#x145;" horiz-adv-x="740" 
d="M558 -2l-387 577h-4v-441c0 -74 7 -79 49 -87l36 -7v-40h-225v40l31 7c33 7 44 12 44 82v445c0 61 -9 65 -40 72l-35 8v39h274l270 -407h4v274c0 73 -6 77 -48 86l-41 8v39h229v-39l-30 -7c-34 -8 -45 -12 -45 -83v-566h-82zM284 -284l-7 28c78 17 98 47 96 83
c-6 -3 -15 -7 -28 -7c-37 0 -62 24 -62 58c0 36 34 65 79 65c49 0 90 -32 90 -89c0 -64 -46 -129 -168 -138z" />
    <glyph glyph-name="Nacute.pl" horiz-adv-x="740" 
d="M558 -2l-387 577h-4v-441c0 -74 7 -79 49 -87l36 -7v-40h-225v40l31 7c33 7 44 12 44 82v445c0 61 -9 65 -40 72l-35 8v39h274l270 -407h4v274c0 73 -6 77 -48 86l-41 8v39h229v-39l-30 -7c-34 -8 -45 -12 -45 -83v-566h-82zM382 747l-21 20l54 125c12 28 29 47 54 47
c33 0 67 -30 67 -61c0 -18 -10 -36 -30 -49z" />
    <glyph glyph-name="Obreve" unicode="&#x14e;" horiz-adv-x="763" 
d="M378 -12c-179 0 -342 111 -342 350c0 263 184 367 349 367c178 0 342 -105 342 -352c0 -264 -184 -365 -349 -365zM383 42c108 0 157 56 157 290c0 229 -42 319 -161 319c-104 0 -156 -58 -156 -292c0 -227 40 -317 160 -317zM382 754c-87 0 -148 61 -162 148l43 12
c19 -42 51 -63 119 -63c64 0 98 20 118 63l42 -12c-13 -87 -72 -148 -160 -148z" />
    <glyph glyph-name="Ohungarumlaut" unicode="&#x150;" horiz-adv-x="763" 
d="M378 -12c-179 0 -342 111 -342 350c0 263 184 367 349 367c178 0 342 -105 342 -352c0 -264 -184 -365 -349 -365zM383 42c108 0 157 56 157 290c0 229 -42 319 -161 319c-104 0 -156 -58 -156 -292c0 -227 40 -317 160 -317zM469 759l-20 22l69 114c16 27 30 37 49 37
c26 0 58 -27 58 -55c0 -18 -10 -36 -39 -52zM283 759l-20 22l68 114c16 27 32 37 50 37c23 0 56 -25 56 -54c0 -20 -12 -41 -43 -58z" />
    <glyph glyph-name="Omacron" unicode="&#x14c;" horiz-adv-x="763" 
d="M378 -12c-179 0 -342 111 -342 350c0 263 184 367 349 367c178 0 342 -105 342 -352c0 -264 -184 -365 -349 -365zM383 42c108 0 157 56 157 290c0 229 -42 319 -161 319c-104 0 -156 -58 -156 -292c0 -227 40 -317 160 -317zM228 777v79h306v-79h-306z" />
    <glyph glyph-name="Oacute.pl" horiz-adv-x="763" 
d="M378 -12c-179 0 -342 111 -342 350c0 263 184 367 349 367c178 0 342 -105 342 -352c0 -264 -184 -365 -349 -365zM383 42c108 0 157 56 157 290c0 229 -42 319 -161 319c-104 0 -156 -58 -156 -292c0 -227 40 -317 160 -317zM355 747l-21 20l54 125c12 28 29 47 54 47
c33 0 67 -30 67 -61c0 -18 -10 -36 -30 -49z" />
    <glyph glyph-name="Oslashacute" unicode="&#x1fe;" horiz-adv-x="763" 
d="M73 -64l84 124c-73 58 -121 150 -121 278c0 263 184 367 349 367c62 0 123 -13 177 -42l45 67h66l-66 -98c71 -56 120 -148 120 -279c0 -264 -184 -365 -349 -365c-63 0 -124 14 -176 42l-64 -94h-65zM222 359c0 -77 3 -137 12 -183l272 404c-25 50 -65 71 -127 71
c-104 0 -157 -58 -157 -292zM383 42c108 0 158 56 158 290c0 76 -4 136 -13 182l-272 -404c24 -49 64 -68 127 -68zM296 745l-12 28l140 112c18 14 34 23 53 23c31 0 53 -29 53 -59c0 -22 -12 -47 -45 -55z" />
    <glyph glyph-name="Racute" unicode="&#x154;" horiz-adv-x="735" 
d="M27 0v40l35 7c31 7 40 12 40 72v455c0 61 -9 65 -40 72l-35 8v39h333c200 0 284 -62 284 -183c0 -84 -46 -143 -140 -170v-4c44 -88 104 -191 158 -266c11 -15 18 -15 50 -25l19 -5v-40h-218c-60 78 -125 201 -165 295c-8 0 -65 1 -70 1v-177c0 -60 10 -65 41 -72l37 -7
v-40h-329zM330 348c92 0 132 38 132 149c0 116 -28 143 -110 143c-34 0 -61 -4 -74 -7v-281c5 -1 27 -4 52 -4zM260 745l-12 28l140 112c18 14 34 23 53 23c31 0 53 -29 53 -59c0 -22 -12 -47 -45 -55z" />
    <glyph glyph-name="Rcaron" unicode="&#x158;" horiz-adv-x="735" 
d="M27 0v40l35 7c31 7 40 12 40 72v455c0 61 -9 65 -40 72l-35 8v39h333c200 0 284 -62 284 -183c0 -84 -46 -143 -140 -170v-4c44 -88 104 -191 158 -266c11 -15 18 -15 50 -25l19 -5v-40h-218c-60 78 -125 201 -165 295c-8 0 -65 1 -70 1v-177c0 -60 10 -65 41 -72l37 -7
v-40h-329zM330 348c92 0 132 38 132 149c0 116 -28 143 -110 143c-34 0 -61 -4 -74 -7v-281c5 -1 27 -4 52 -4zM311 756l-133 127l19 31l148 -54l148 54l19 -31l-132 -127h-69z" />
    <glyph glyph-name="Rcommaaccent" unicode="&#x156;" horiz-adv-x="735" 
d="M27 0v40l35 7c31 7 40 12 40 72v455c0 61 -9 65 -40 72l-35 8v39h333c200 0 284 -62 284 -183c0 -84 -46 -143 -140 -170v-4c44 -88 104 -191 158 -266c11 -15 18 -15 50 -25l19 -5v-40h-218c-60 78 -125 201 -165 295c-8 0 -65 1 -70 1v-177c0 -60 10 -65 41 -72l37 -7
v-40h-329zM330 348c92 0 132 38 132 149c0 116 -28 143 -110 143c-34 0 -61 -4 -74 -7v-281c5 -1 27 -4 52 -4zM295 -284l-7 28c78 17 98 47 96 83c-6 -3 -15 -7 -28 -7c-37 0 -62 24 -62 58c0 36 34 65 79 65c49 0 90 -32 90 -89c0 -64 -46 -129 -168 -138z" />
    <glyph glyph-name="Sacute" unicode="&#x15a;" horiz-adv-x="558" 
d="M256 -12c-95 0 -165 16 -210 30l-12 194h43c28 -53 47 -86 74 -120c26 -32 55 -51 111 -51c73 0 124 47 124 100c0 55 -33 91 -155 138c-146 55 -191 118 -191 219c0 121 101 207 252 207c85 0 139 -7 179 -20l12 -174h-43c-27 52 -39 75 -68 107c-20 22 -45 34 -91 34
c-68 0 -115 -41 -115 -95c0 -47 22 -73 140 -118c159 -60 218 -120 218 -219c0 -128 -95 -232 -268 -232zM202 745l-12 28l140 112c18 14 34 23 53 23c31 0 53 -29 53 -59c0 -22 -12 -47 -45 -55z" />
    <glyph glyph-name="Scedilla" unicode="&#x15e;" horiz-adv-x="558" 
d="M145 -260v33c80 18 118 45 118 73c0 20 -22 35 -74 38l-9 10l47 95c-81 3 -141 16 -181 29l-12 194h43c28 -53 47 -86 74 -120c26 -32 55 -51 111 -51c73 0 124 47 124 100c0 55 -33 91 -155 138c-146 55 -191 118 -191 219c0 121 101 207 252 207c85 0 139 -7 179 -20
l12 -174h-43c-27 52 -39 75 -68 107c-20 22 -45 34 -91 34c-68 0 -115 -41 -115 -95c0 -47 22 -73 140 -118c159 -60 218 -120 218 -219c0 -122 -87 -222 -245 -231l-32 -44c79 -5 112 -39 112 -79c0 -58 -72 -111 -214 -126z" />
    <glyph glyph-name="Scircumflex" unicode="&#x15c;" horiz-adv-x="558" 
d="M256 -12c-95 0 -165 16 -210 30l-12 194h43c28 -53 47 -86 74 -120c26 -32 55 -51 111 -51c73 0 124 47 124 100c0 55 -33 91 -155 138c-146 55 -191 118 -191 219c0 121 101 207 252 207c85 0 139 -7 179 -20l12 -174h-43c-27 52 -39 75 -68 107c-20 22 -45 34 -91 34
c-68 0 -115 -41 -115 -95c0 -47 22 -73 140 -118c159 -60 218 -120 218 -219c0 -128 -95 -232 -268 -232zM321 901l133 -127l-19 -31l-148 54l-148 -54l-19 31l132 127h69z" />
    <glyph glyph-name="Scommaaccent" unicode="&#x218;" horiz-adv-x="558" 
d="M256 -12c-95 0 -165 16 -210 30l-12 194h43c28 -53 47 -86 74 -120c26 -32 55 -51 111 -51c73 0 124 47 124 100c0 55 -33 91 -155 138c-146 55 -191 118 -191 219c0 121 101 207 252 207c85 0 139 -7 179 -20l12 -174h-43c-27 52 -39 75 -68 107c-20 22 -45 34 -91 34
c-68 0 -115 -41 -115 -95c0 -47 22 -73 140 -118c159 -60 218 -120 218 -219c0 -128 -95 -232 -268 -232zM186 -284l-7 28c78 17 98 47 96 83c-6 -3 -15 -7 -28 -7c-37 0 -62 24 -62 58c0 36 34 65 79 65c49 0 90 -32 90 -89c0 -64 -46 -129 -168 -138z" />
    <glyph glyph-name="Sacute.pl" horiz-adv-x="558" 
d="M256 -12c-95 0 -165 16 -210 30l-12 194h43c28 -53 47 -86 74 -120c26 -32 55 -51 111 -51c73 0 124 47 124 100c0 55 -33 91 -155 138c-146 55 -191 118 -191 219c0 121 101 207 252 207c85 0 139 -7 179 -20l12 -174h-43c-27 52 -39 75 -68 107c-20 22 -45 34 -91 34
c-68 0 -115 -41 -115 -95c0 -47 22 -73 140 -118c159 -60 218 -120 218 -219c0 -128 -95 -232 -268 -232zM261 747l-21 20l54 125c12 28 29 47 54 47c33 0 67 -30 67 -61c0 -18 -10 -36 -30 -49z" />
    <glyph glyph-name="Tcaron" unicode="&#x164;" horiz-adv-x="668" 
d="M163 0v40l39 7c37 8 43 12 43 72v521c-65 0 -85 -5 -112 -44c-25 -34 -38 -74 -67 -141h-45l10 238h606l10 -238h-45c-27 67 -41 107 -66 141c-30 41 -45 44 -112 44v-521c0 -60 4 -64 42 -72l39 -7v-40h-342zM300 756l-133 127l19 31l148 -54l148 54l19 -31l-132 -127
h-69z" />
    <glyph glyph-name="Tcommaaccent" unicode="&#x162;" horiz-adv-x="668" 
d="M163 0v40l39 7c37 8 43 12 43 72v521c-65 0 -85 -5 -112 -44c-25 -34 -38 -74 -67 -141h-45l10 238h606l10 -238h-45c-27 67 -41 107 -66 141c-30 41 -45 44 -112 44v-521c0 -60 4 -64 42 -72l39 -7v-40h-342zM252 -284l-7 28c78 17 98 47 96 83c-6 -3 -15 -7 -28 -7
c-37 0 -62 24 -62 58c0 36 34 65 79 65c49 0 90 -32 90 -89c0 -64 -46 -129 -168 -138z" />
    <glyph glyph-name="Tbar" unicode="&#x166;" horiz-adv-x="668" 
d="M102 349v53h143v238c-65 0 -85 -5 -112 -44c-25 -34 -38 -74 -67 -141h-45l10 238h606l10 -238h-45c-27 67 -41 107 -66 141c-30 41 -45 44 -112 44v-238h143v-53h-143v-230c0 -60 4 -64 42 -72l39 -7v-40h-342v40l39 7c37 8 43 12 43 72v230h-143z" />
    <glyph glyph-name="Ubreve" unicode="&#x16c;" horiz-adv-x="739" 
d="M390 -12c-173 0 -295 62 -295 235v351c0 61 -9 65 -40 72l-37 8v39h331v-39l-34 -8c-34 -8 -41 -11 -41 -72v-371c0 -101 40 -141 158 -141c104 0 149 55 149 155v343c0 73 -7 77 -49 86l-42 8v39h229v-39l-30 -7c-32 -8 -44 -12 -44 -83v-355c0 -123 -78 -221 -255 -221
zM416 754c-87 0 -148 61 -162 148l43 12c19 -42 51 -63 119 -63c64 0 98 20 118 63l42 -12c-13 -87 -72 -148 -160 -148z" />
    <glyph glyph-name="Uhungarumlaut" unicode="&#x170;" horiz-adv-x="739" 
d="M390 -12c-173 0 -295 62 -295 235v351c0 61 -9 65 -40 72l-37 8v39h331v-39l-34 -8c-34 -8 -41 -11 -41 -72v-371c0 -101 40 -141 158 -141c104 0 149 55 149 155v343c0 73 -7 77 -49 86l-42 8v39h229v-39l-30 -7c-32 -8 -44 -12 -44 -83v-355c0 -123 -78 -221 -255 -221
zM503 759l-20 22l69 114c16 27 30 37 49 37c26 0 58 -27 58 -55c0 -18 -10 -36 -39 -52zM317 759l-20 22l68 114c16 27 32 37 50 37c23 0 56 -25 56 -54c0 -20 -12 -41 -43 -58z" />
    <glyph glyph-name="Umacron" unicode="&#x16a;" horiz-adv-x="739" 
d="M390 -12c-173 0 -295 62 -295 235v351c0 61 -9 65 -40 72l-37 8v39h331v-39l-34 -8c-34 -8 -41 -11 -41 -72v-371c0 -101 40 -141 158 -141c104 0 149 55 149 155v343c0 73 -7 77 -49 86l-42 8v39h229v-39l-30 -7c-32 -8 -44 -12 -44 -83v-355c0 -123 -78 -221 -255 -221
zM262 777v79h306v-79h-306z" />
    <glyph glyph-name="Uogonek" unicode="&#x172;" horiz-adv-x="739" 
d="M426 -226c-75 0 -122 36 -122 90c0 56 49 97 106 125c-7 -1 -13 -1 -20 -1c-173 0 -295 62 -295 235v351c0 61 -9 65 -40 72l-37 8v39h331v-39l-34 -8c-34 -8 -41 -11 -41 -72v-371c0 -101 40 -141 158 -141c104 0 149 55 149 155v343c0 73 -7 77 -49 86l-42 8v39h229
v-39l-30 -7c-32 -8 -44 -12 -44 -83v-355c0 -74 -29 -140 -90 -179s-130 -63 -130 -140c0 -22 10 -37 29 -43c17 -5 40 -5 69 -4v-39c-17 -12 -45 -30 -97 -30z" />
    <glyph glyph-name="Uring" unicode="&#x16e;" horiz-adv-x="739" 
d="M390 -12c-173 0 -295 62 -295 235v351c0 61 -9 65 -40 72l-37 8v39h331v-39l-34 -8c-34 -8 -41 -11 -41 -72v-371c0 -101 40 -141 158 -141c104 0 149 55 149 155v343c0 73 -7 77 -49 86l-42 8v39h229v-39l-30 -7c-32 -8 -44 -12 -44 -83v-355c0 -123 -78 -221 -255 -221
zM420 711c-68 0 -115 46 -115 107c0 62 51 109 115 109c65 0 115 -45 115 -109c0 -61 -50 -107 -115 -107zM420 756c35 0 57 26 57 62s-22 63 -57 63s-57 -27 -57 -63s22 -62 57 -62z" />
    <glyph glyph-name="Utilde" unicode="&#x168;" horiz-adv-x="739" 
d="M390 -12c-173 0 -295 62 -295 235v351c0 61 -9 65 -40 72l-37 8v39h331v-39l-34 -8c-34 -8 -41 -11 -41 -72v-371c0 -101 40 -141 158 -141c104 0 149 55 149 155v343c0 73 -7 77 -49 86l-42 8v39h229v-39l-30 -7c-32 -8 -44 -12 -44 -83v-355c0 -123 -78 -221 -255 -221
zM269 759l-39 18c29 88 60 141 108 141c54 0 126 -49 163 -49c27 0 40 26 61 63l38 -17c-29 -88 -55 -141 -105 -141c-54 0 -128 49 -165 49c-27 0 -40 -27 -61 -64z" />
    <glyph glyph-name="Wacute" unicode="&#x1e82;" horiz-adv-x="1059" 
d="M284 0l-181 558c-25 65 -33 83 -63 90l-26 6v39h324v-39l-28 -7c-21 -5 -33 -16 -33 -38c0 -20 8 -47 17 -75l103 -344h5l107 298l-26 83c-18 51 -30 68 -61 76l-22 7v39h318v-39l-36 -8c-20 -3 -34 -18 -34 -40c0 -18 6 -44 15 -72l112 -344h5l99 345c7 26 13 51 13 71
c0 24 -12 36 -36 41l-33 7v39h222v-39l-25 -6c-34 -8 -47 -38 -71 -113l-169 -535h-111l-123 397h-6l-139 -397h-117zM473 745l-12 28l140 112c18 14 34 23 53 23c31 0 53 -29 53 -59c0 -22 -12 -47 -45 -55z" />
    <glyph glyph-name="Wcircumflex" unicode="&#x174;" horiz-adv-x="1059" 
d="M284 0l-181 558c-25 65 -33 83 -63 90l-26 6v39h324v-39l-28 -7c-21 -5 -33 -16 -33 -38c0 -20 8 -47 17 -75l103 -344h5l107 298l-26 83c-18 51 -30 68 -61 76l-22 7v39h318v-39l-36 -8c-20 -3 -34 -18 -34 -40c0 -18 6 -44 15 -72l112 -344h5l99 345c7 26 13 51 13 71
c0 24 -12 36 -36 41l-33 7v39h222v-39l-25 -6c-34 -8 -47 -38 -71 -113l-169 -535h-111l-123 397h-6l-139 -397h-117zM592 901l133 -127l-19 -31l-148 54l-148 -54l-19 31l132 127h69z" />
    <glyph glyph-name="Wdieresis" unicode="&#x1e84;" horiz-adv-x="1059" 
d="M284 0l-181 558c-25 65 -33 83 -63 90l-26 6v39h324v-39l-28 -7c-21 -5 -33 -16 -33 -38c0 -20 8 -47 17 -75l103 -344h5l107 298l-26 83c-18 51 -30 68 -61 76l-22 7v39h318v-39l-36 -8c-20 -3 -34 -18 -34 -40c0 -18 6 -44 15 -72l112 -344h5l99 345c7 26 13 51 13 71
c0 24 -12 36 -36 41l-33 7v39h222v-39l-25 -6c-34 -8 -47 -38 -71 -113l-169 -535h-111l-123 397h-6l-139 -397h-117zM440 748c-47 0 -86 35 -86 81s39 81 86 81s86 -35 86 -81s-39 -81 -86 -81zM677 748c-48 0 -86 35 -86 81s38 81 86 81c46 0 85 -35 85 -81
s-39 -81 -85 -81z" />
    <glyph glyph-name="Wgrave" unicode="&#x1e80;" horiz-adv-x="1059" 
d="M284 0l-181 558c-25 65 -33 83 -63 90l-26 6v39h324v-39l-28 -7c-21 -5 -33 -16 -33 -38c0 -20 8 -47 17 -75l103 -344h5l107 298l-26 83c-18 51 -30 68 -61 76l-22 7v39h318v-39l-36 -8c-20 -3 -34 -18 -34 -40c0 -18 6 -44 15 -72l112 -344h5l99 345c7 26 13 51 13 71
c0 24 -12 36 -36 41l-33 7v39h222v-39l-25 -6c-34 -8 -47 -38 -71 -113l-169 -535h-111l-123 397h-6l-139 -397h-117zM652 745l-188 49c-33 8 -46 33 -46 55c0 30 23 59 53 59c20 0 36 -9 54 -23l140 -112z" />
    <glyph glyph-name="Ycircumflex" unicode="&#x176;" horiz-adv-x="685" 
d="M178 0v40l39 7c35 8 41 12 41 72v165l-151 277c-36 64 -50 78 -78 86l-21 7v39h342v-39l-28 -7c-29 -6 -40 -19 -40 -40c0 -14 10 -32 22 -57l93 -192h5l95 185c13 29 19 50 19 65c0 21 -14 32 -38 39l-29 7v39h229v-39l-20 -7c-32 -10 -54 -33 -86 -97l-135 -260v-171
c0 -60 5 -64 42 -72l40 -7v-40h-341zM423 901l133 -127l-19 -31l-148 54l-148 -54l-19 31l132 127h69z" />
    <glyph glyph-name="Ygrave" unicode="&#x1ef2;" horiz-adv-x="685" 
d="M178 0v40l39 7c35 8 41 12 41 72v165l-151 277c-36 64 -50 78 -78 86l-21 7v39h342v-39l-28 -7c-29 -6 -40 -19 -40 -40c0 -14 10 -32 22 -57l93 -192h5l95 185c13 29 19 50 19 65c0 21 -14 32 -38 39l-29 7v39h229v-39l-20 -7c-32 -10 -54 -33 -86 -97l-135 -260v-171
c0 -60 5 -64 42 -72l40 -7v-40h-341zM483 745l-188 49c-33 8 -46 33 -46 55c0 30 23 59 53 59c20 0 36 -9 54 -23l140 -112z" />
    <glyph glyph-name="Zacute" unicode="&#x179;" horiz-adv-x="611" 
d="M21 0v56l359 584v4h-41c-139 0 -160 -4 -190 -45c-26 -36 -42 -61 -74 -129h-40l12 223h520v-55l-357 -583v-4h34c148 0 172 6 206 51c29 38 48 72 77 141h41l-16 -243h-531zM218 745l-12 28l140 112c18 14 34 23 53 23c31 0 53 -29 53 -59c0 -22 -12 -47 -45 -55z" />
    <glyph glyph-name="Zacute.pl" horiz-adv-x="611" 
d="M21 0v56l359 584v4h-41c-139 0 -160 -4 -190 -45c-26 -36 -42 -61 -74 -129h-40l12 223h520v-55l-357 -583v-4h34c148 0 172 6 206 51c29 38 48 72 77 141h41l-16 -243h-531zM278 747l-21 20l54 125c12 28 29 47 54 47c33 0 67 -30 67 -61c0 -18 -10 -36 -30 -49z" />
    <glyph glyph-name="Zdotaccent" unicode="&#x17b;" horiz-adv-x="611" 
d="M21 0v56l359 584v4h-41c-139 0 -160 -4 -190 -45c-26 -36 -42 -61 -74 -129h-40l12 223h520v-55l-357 -583v-4h34c148 0 172 6 206 51c29 38 48 72 77 141h41l-16 -243h-531zM304 744c-53 0 -95 38 -95 87c0 51 42 87 95 87c52 0 94 -36 94 -87c0 -49 -42 -87 -94 -87z
" />
    <glyph glyph-name="abreve" unicode="&#x103;" horiz-adv-x="561" 
d="M180 -12c-95 0 -155 50 -155 134c0 87 51 134 211 172l81 18v75c0 81 -16 98 -77 98c-32 0 -37 -8 -40 -37c-5 -63 -29 -89 -83 -89c-47 0 -68 23 -68 63c0 67 87 111 225 111c128 0 201 -40 201 -137v-267c0 -36 4 -51 25 -61c12 -7 32 -9 48 -10v-36
c-20 -14 -60 -34 -118 -34s-94 23 -105 61h-5c-25 -32 -72 -61 -140 -61zM251 65c33 0 56 13 66 30v157l-50 -5c-61 -4 -88 -30 -88 -102c0 -64 31 -80 72 -80zM272 593c-83 0 -138 67 -152 164l43 12c19 -47 46 -80 109 -80c59 0 88 32 108 80l42 -12
c-13 -97 -67 -164 -150 -164z" />
    <glyph glyph-name="amacron" unicode="&#x101;" horiz-adv-x="561" 
d="M180 -12c-95 0 -155 50 -155 134c0 87 51 134 211 172l81 18v75c0 81 -16 98 -77 98c-32 0 -37 -8 -40 -37c-5 -63 -29 -89 -83 -89c-47 0 -68 23 -68 63c0 67 87 111 225 111c128 0 201 -40 201 -137v-267c0 -36 4 -51 25 -61c12 -7 32 -9 48 -10v-36
c-20 -14 -60 -34 -118 -34s-94 23 -105 61h-5c-25 -32 -72 -61 -140 -61zM251 65c33 0 56 13 66 30v157l-50 -5c-61 -4 -88 -30 -88 -102c0 -64 31 -80 72 -80zM123 622v79h296v-79h-296z" />
    <glyph glyph-name="aogonek" unicode="&#x105;" horiz-adv-x="561" 
d="M432 -226c-75 0 -122 36 -122 90c0 56 49 97 106 125c-50 3 -81 25 -91 60h-5c-25 -32 -72 -61 -140 -61c-95 0 -155 50 -155 134c0 87 51 134 211 172l81 18v75c0 81 -16 98 -77 98c-32 0 -37 -8 -40 -37c-5 -63 -29 -89 -83 -89c-47 0 -68 23 -68 63
c0 67 87 111 225 111c128 0 201 -40 201 -137v-267c0 -36 4 -51 25 -61c12 -7 32 -9 48 -10v-36c-67 -37 -117 -76 -117 -132c0 -22 10 -37 29 -43c17 -5 40 -5 69 -4v-39c-17 -12 -45 -30 -97 -30zM251 65c33 0 56 13 66 30v157l-50 -5c-61 -4 -88 -30 -88 -102
c0 -64 31 -80 72 -80z" />
    <glyph glyph-name="aringacute" unicode="&#x1fb;" horiz-adv-x="561" 
d="M180 -12c-95 0 -155 50 -155 134c0 87 51 134 211 172l81 18v75c0 81 -16 98 -77 98c-32 0 -37 -8 -40 -37c-5 -63 -29 -89 -83 -89c-47 0 -68 23 -68 63c0 67 87 111 225 111c128 0 201 -40 201 -137v-267c0 -36 4 -51 25 -61c12 -7 32 -9 48 -10v-36
c-20 -14 -60 -34 -118 -34s-94 23 -105 61h-5c-25 -32 -72 -61 -140 -61zM251 65c33 0 56 13 66 30v157l-50 -5c-61 -4 -88 -30 -88 -102c0 -64 31 -80 72 -80zM271 585c-68 0 -115 46 -115 107c0 62 51 109 115 109c65 0 115 -45 115 -109c0 -61 -50 -107 -115 -107z
M271 630c35 0 57 26 57 62s-22 63 -57 63s-57 -27 -57 -63s22 -62 57 -62zM186 825l-12 28l140 112c18 14 34 23 53 23c31 0 53 -29 53 -59c0 -22 -12 -47 -45 -55z" />
    <glyph glyph-name="aeacute" unicode="&#x1fd;" horiz-adv-x="825" 
d="M569 -12c-96 0 -165 30 -207 88c-44 -65 -99 -88 -177 -88c-100 0 -160 47 -160 137s70 132 182 159l108 24v79c0 76 -15 98 -73 98c-33 0 -40 -8 -43 -37c-5 -63 -29 -89 -83 -89c-46 0 -67 23 -67 64c0 66 91 110 217 110c78 0 129 -21 155 -62c40 39 92 62 153 62
c135 0 223 -83 223 -268h-332c8 -142 72 -188 165 -188c65 0 114 19 152 38v-45c-34 -37 -112 -82 -213 -82zM564 483c-50 0 -96 -45 -100 -168l179 10c0 114 -16 158 -79 158zM254 65c40 0 66 27 83 59c-13 34 -21 75 -22 123l-48 -5c-56 -4 -86 -17 -86 -94
c0 -70 30 -83 73 -83zM347 590l-12 28l140 112c18 14 34 23 53 23c31 0 53 -29 53 -59c0 -22 -12 -47 -45 -55z" />
    <glyph glyph-name="cacute" unicode="&#x107;" horiz-adv-x="524" 
d="M285 -12c-165 0 -256 104 -256 267c0 209 169 278 310 278c102 0 162 -33 162 -93c0 -40 -28 -80 -71 -80c-52 0 -68 35 -72 76c-5 39 -13 45 -46 45c-61 0 -124 -35 -124 -181c0 -143 54 -223 169 -223c64 0 105 20 143 39v-45c-30 -35 -105 -83 -215 -83zM224 590
l-12 28l140 112c18 14 34 23 53 23c31 0 53 -29 53 -59c0 -22 -12 -47 -45 -55z" />
    <glyph glyph-name="ccaron" unicode="&#x10d;" horiz-adv-x="524" 
d="M285 -12c-165 0 -256 104 -256 267c0 209 169 278 310 278c102 0 162 -33 162 -93c0 -40 -28 -80 -71 -80c-52 0 -68 35 -72 76c-5 39 -13 45 -46 45c-61 0 -124 -35 -124 -181c0 -143 54 -223 169 -223c64 0 105 20 143 39v-45c-30 -35 -105 -83 -215 -83zM274 591
l-131 151l22 32l143 -80l143 80l22 -32l-130 -151h-69z" />
    <glyph glyph-name="ccircumflex" unicode="&#x109;" horiz-adv-x="524" 
d="M285 -12c-165 0 -256 104 -256 267c0 209 169 278 310 278c102 0 162 -33 162 -93c0 -40 -28 -80 -71 -80c-52 0 -68 35 -72 76c-5 39 -13 45 -46 45c-61 0 -124 -35 -124 -181c0 -143 54 -223 169 -223c64 0 105 20 143 39v-45c-30 -35 -105 -83 -215 -83zM342 766
l131 -152l-22 -31l-143 79l-143 -79l-22 31l130 152h69z" />
    <glyph glyph-name="cdotaccent" unicode="&#x10b;" horiz-adv-x="524" 
d="M285 -12c-165 0 -256 104 -256 267c0 209 169 278 310 278c102 0 162 -33 162 -93c0 -40 -28 -80 -71 -80c-52 0 -68 35 -72 76c-5 39 -13 45 -46 45c-61 0 -124 -35 -124 -181c0 -143 54 -223 169 -223c64 0 105 20 143 39v-45c-30 -35 -105 -83 -215 -83zM309 594
c-53 0 -95 38 -95 87c0 51 42 87 95 87c52 0 94 -36 94 -87c0 -49 -42 -87 -94 -87z" />
    <glyph glyph-name="cacute.pl" horiz-adv-x="524" 
d="M285 -12c-165 0 -256 104 -256 267c0 209 169 278 310 278c102 0 162 -33 162 -93c0 -40 -28 -80 -71 -80c-52 0 -68 35 -72 76c-5 39 -13 45 -46 45c-61 0 -124 -35 -124 -181c0 -143 54 -223 169 -223c64 0 105 20 143 39v-45c-30 -35 -105 -83 -215 -83zM279 575
l-21 20l65 139c13 28 29 47 54 47c33 0 67 -30 67 -61c0 -18 -11 -35 -30 -49z" />
    <glyph glyph-name="dcaron" unicode="&#x10f;" horiz-adv-x="649" 
d="M235 -12c-101 0 -202 71 -202 254c0 207 138 290 297 290c30 0 63 -4 84 -10c0 0 -5 36 -5 72v33c0 46 -6 49 -32 63l-42 22v35l225 19l14 -10s-7 -44 -7 -115v-510c0 -49 3 -54 33 -66l30 -13v-35l-208 -29l-10 8l4 56h-4c-44 -36 -105 -64 -177 -64zM319 78
c44 0 73 15 89 23v338c-17 20 -43 41 -82 41c-78 0 -130 -49 -130 -207c0 -148 42 -195 123 -195zM654 569l-25 6l7 137c2 31 14 53 50 53c32 0 57 -21 57 -49c0 -10 -3 -22 -15 -40z" />
    <glyph glyph-name="ebreve" unicode="&#x115;" horiz-adv-x="556" 
d="M295 -12c-178 0 -266 104 -266 274c0 172 131 271 266 271c142 0 229 -72 232 -261h-341c7 -147 70 -195 173 -195c66 0 113 19 153 38v-45c-35 -37 -113 -82 -217 -82zM288 483c-55 0 -97 -43 -102 -161l182 9c0 119 -16 152 -80 152zM290 593c-83 0 -138 67 -152 164
l43 12c19 -47 46 -80 109 -80c59 0 88 32 108 80l42 -12c-13 -97 -67 -164 -150 -164z" />
    <glyph glyph-name="ecaron" unicode="&#x11b;" horiz-adv-x="556" 
d="M295 -12c-178 0 -266 104 -266 274c0 172 131 271 266 271c142 0 229 -72 232 -261h-341c7 -147 70 -195 173 -195c66 0 113 19 153 38v-45c-35 -37 -113 -82 -217 -82zM288 483c-55 0 -97 -43 -102 -161l182 9c0 119 -16 152 -80 152zM255 591l-131 151l22 32l143 -80
l143 80l22 -32l-130 -151h-69z" />
    <glyph glyph-name="edotaccent" unicode="&#x117;" horiz-adv-x="556" 
d="M295 -12c-178 0 -266 104 -266 274c0 172 131 271 266 271c142 0 229 -72 232 -261h-341c7 -147 70 -195 173 -195c66 0 113 19 153 38v-45c-35 -37 -113 -82 -217 -82zM288 483c-55 0 -97 -43 -102 -161l182 9c0 119 -16 152 -80 152zM290 594c-53 0 -95 38 -95 87
c0 51 42 87 95 87c52 0 94 -36 94 -87c0 -49 -42 -87 -94 -87z" />
    <glyph glyph-name="emacron" unicode="&#x113;" horiz-adv-x="556" 
d="M295 -12c-178 0 -266 104 -266 274c0 172 131 271 266 271c142 0 229 -72 232 -261h-341c7 -147 70 -195 173 -195c66 0 113 19 153 38v-45c-35 -37 -113 -82 -217 -82zM288 483c-55 0 -97 -43 -102 -161l182 9c0 119 -16 152 -80 152zM141 622v79h296v-79h-296z" />
    <glyph glyph-name="eogonek" unicode="&#x119;" horiz-adv-x="556" 
d="M359 77c66 0 113 19 153 38v-45c-24 -25 -68 -49 -97 -69c-45 -31 -71 -69 -71 -111c0 -22 10 -37 29 -43c17 -5 40 -5 69 -4v-39c-17 -12 -45 -30 -97 -30c-75 0 -122 36 -122 90c0 57 51 98 109 126c-12 -1 -24 -2 -37 -2c-178 0 -266 104 -266 274
c0 172 131 271 266 271c142 0 229 -72 232 -261h-341c7 -147 70 -195 173 -195zM288 483c-55 0 -97 -43 -102 -161l182 9c0 119 -16 152 -80 152z" />
    <glyph glyph-name="gbreve" unicode="&#x11f;" horiz-adv-x="563" 
d="M229 -229c-149 0 -235 41 -235 115c0 51 47 89 122 114v4c-44 9 -82 40 -82 92c0 61 50 99 83 121v4c-47 22 -86 72 -86 133c0 114 104 178 223 178c51 0 84 -5 126 -19c40 38 86 69 139 69c36 0 61 -18 61 -55c0 -32 -14 -62 -50 -62c-32 0 -43 14 -54 34
c-8 13 -38 4 -65 -14v-4c40 -20 69 -61 69 -114c0 -115 -104 -177 -226 -177c-37 0 -65 4 -94 17c-13 -9 -26 -29 -26 -48c0 -21 15 -39 54 -39h174c98 0 169 -34 169 -136c0 -106 -90 -213 -302 -213zM254 239c53 0 78 29 78 118c0 96 -26 127 -78 127
c-50 0 -75 -31 -75 -120c0 -96 26 -125 75 -125zM251 -177c121 0 175 49 175 102c0 44 -21 67 -87 67h-166c-20 -10 -58 -43 -58 -89c0 -50 38 -80 136 -80zM257 593c-83 0 -138 67 -152 164l43 12c19 -47 46 -80 109 -80c59 0 88 32 108 80l42 -12
c-13 -97 -67 -164 -150 -164z" />
    <glyph glyph-name="gcircumflex" unicode="&#x11d;" horiz-adv-x="563" 
d="M229 -229c-149 0 -235 41 -235 115c0 51 47 89 122 114v4c-44 9 -82 40 -82 92c0 61 50 99 83 121v4c-47 22 -86 72 -86 133c0 114 104 178 223 178c51 0 84 -5 126 -19c40 38 86 69 139 69c36 0 61 -18 61 -55c0 -32 -14 -62 -50 -62c-32 0 -43 14 -54 34
c-8 13 -38 4 -65 -14v-4c40 -20 69 -61 69 -114c0 -115 -104 -177 -226 -177c-37 0 -65 4 -94 17c-13 -9 -26 -29 -26 -48c0 -21 15 -39 54 -39h174c98 0 169 -34 169 -136c0 -106 -90 -213 -302 -213zM254 239c53 0 78 29 78 118c0 96 -26 127 -78 127
c-50 0 -75 -31 -75 -120c0 -96 26 -125 75 -125zM251 -177c121 0 175 49 175 102c0 44 -21 67 -87 67h-166c-20 -10 -58 -43 -58 -89c0 -50 38 -80 136 -80zM290 766l131 -152l-22 -31l-143 79l-143 -79l-22 31l130 152h69z" />
    <glyph glyph-name="gcommaaccent" unicode="&#x123;" horiz-adv-x="563" 
d="M229 -229c-149 0 -235 41 -235 115c0 51 47 89 122 114v4c-44 9 -82 40 -82 92c0 61 50 99 83 121v4c-47 22 -86 72 -86 133c0 114 104 178 223 178c51 0 84 -5 126 -19c40 38 86 69 139 69c36 0 61 -18 61 -55c0 -32 -14 -62 -50 -62c-32 0 -43 14 -54 34
c-8 13 -38 4 -65 -14v-4c40 -20 69 -61 69 -114c0 -115 -104 -177 -226 -177c-37 0 -65 4 -94 17c-13 -9 -26 -29 -26 -48c0 -21 15 -39 54 -39h174c98 0 169 -34 169 -136c0 -106 -90 -213 -302 -213zM254 239c53 0 78 29 78 118c0 96 -26 127 -78 127
c-50 0 -75 -31 -75 -120c0 -96 26 -125 75 -125zM251 -177c121 0 175 49 175 102c0 44 -21 67 -87 67h-166c-20 -10 -58 -43 -58 -89c0 -50 38 -80 136 -80zM332 822l7 -28c-78 -17 -98 -47 -96 -83c6 3 15 7 28 7c37 0 62 -24 62 -58c0 -36 -34 -65 -79 -65
c-49 0 -90 32 -90 89c0 64 46 129 168 138z" />
    <glyph glyph-name="gdotaccent" unicode="&#x121;" horiz-adv-x="563" 
d="M229 -229c-149 0 -235 41 -235 115c0 51 47 89 122 114v4c-44 9 -82 40 -82 92c0 61 50 99 83 121v4c-47 22 -86 72 -86 133c0 114 104 178 223 178c51 0 84 -5 126 -19c40 38 86 69 139 69c36 0 61 -18 61 -55c0 -32 -14 -62 -50 -62c-32 0 -43 14 -54 34
c-8 13 -38 4 -65 -14v-4c40 -20 69 -61 69 -114c0 -115 -104 -177 -226 -177c-37 0 -65 4 -94 17c-13 -9 -26 -29 -26 -48c0 -21 15 -39 54 -39h174c98 0 169 -34 169 -136c0 -106 -90 -213 -302 -213zM254 239c53 0 78 29 78 118c0 96 -26 127 -78 127
c-50 0 -75 -31 -75 -120c0 -96 26 -125 75 -125zM251 -177c121 0 175 49 175 102c0 44 -21 67 -87 67h-166c-20 -10 -58 -43 -58 -89c0 -50 38 -80 136 -80zM257 594c-53 0 -95 38 -95 87c0 51 42 87 95 87c52 0 94 -36 94 -87c0 -49 -42 -87 -94 -87z" />
    <glyph glyph-name="hbar" unicode="&#x127;" horiz-adv-x="652" 
d="M-1 593v51h87c-2 31 -8 37 -33 49l-38 19v35l223 19l14 -10s-8 -47 -8 -112h162v-51h-162v-31c0 -54 -6 -98 -6 -98h4c55 37 123 68 197 68c89 0 136 -44 136 -133v-296c0 -44 5 -49 37 -57l27 -7v-39h-282v39l27 6c29 8 32 11 32 58v251c0 62 -22 84 -73 84
c-38 0 -77 -12 -99 -19v-316c0 -48 3 -50 32 -58l27 -6v-39h-283v39l29 7c33 9 37 14 37 57v490h-87z" />
    <glyph glyph-name="hcircumflex" unicode="&#x125;" horiz-adv-x="652" 
d="M20 0v39l29 7c33 9 37 14 37 57v524c0 47 -4 52 -33 66l-38 19v35l223 19l14 -10s-8 -48 -8 -115v-79c0 -54 -6 -98 -6 -98h4c55 37 123 68 197 68c89 0 136 -44 136 -133v-296c0 -44 5 -49 37 -57l27 -7v-39h-282v39l27 6c29 8 32 11 32 58v251c0 62 -22 84 -73 84
c-38 0 -77 -12 -99 -19v-316c0 -48 3 -50 32 -58l27 -6v-39h-283zM373 961l133 -127l-19 -31l-148 54l-148 -54l-19 31l132 127h69z" />
    <glyph glyph-name="ibreve" unicode="&#x12d;" horiz-adv-x="326" 
d="M20 0v33l29 10c38 10 37 17 37 81v250c0 59 -4 59 -34 79l-35 24v32l220 23l15 -8c0 3 -8 -39 -8 -137v-263c0 -66 2 -73 36 -81l29 -10v-33h-289zM164 593c-83 0 -138 67 -152 164l43 12c19 -47 46 -80 109 -80c59 0 88 32 108 80l42 -12c-13 -97 -67 -164 -150 -164z
" />
    <glyph glyph-name="imacron" unicode="&#x12b;" horiz-adv-x="326" 
d="M15 622v79h266v-79h-266zM20 0v33l29 10c38 10 37 17 37 81v250c0 59 -4 59 -34 79l-35 24v32l220 23l15 -8c0 3 -8 -39 -8 -137v-263c0 -66 2 -73 36 -81l29 -10v-33h-289z" />
    <glyph glyph-name="iogonek" unicode="&#x12f;" horiz-adv-x="326" 
d="M20 0v39l29 7c33 9 37 14 37 57v288c0 42 -5 45 -34 64l-35 22v32l221 23l14 -9c-1 -29 -8 -63 -8 -143v-277c0 -45 4 -49 36 -57l29 -7v-39h-72c-33 -40 -55 -68 -55 -110c0 -22 10 -37 29 -43c17 -5 40 -5 69 -4v-39c-17 -12 -45 -30 -97 -30c-75 0 -122 36 -122 90
c0 61 55 107 111 136h-152zM161 594c-54 0 -96 38 -96 87c0 51 42 87 96 87c51 0 93 -36 93 -87c0 -49 -42 -87 -93 -87z" />
    <glyph glyph-name="itilde" unicode="&#x129;" horiz-adv-x="326" 
d="M20 0v33l29 10c38 10 37 17 37 81v250c0 59 -4 59 -34 79l-35 24v32l220 23l15 -8c0 3 -8 -39 -8 -137v-263c0 -66 2 -73 36 -81l29 -10v-33h-289zM25 584l-39 18c29 88 60 141 108 141c54 0 111 -39 148 -39c27 0 40 26 61 63l38 -17c-29 -88 -55 -141 -105 -141
c-54 0 -113 39 -150 39c-27 0 -40 -27 -61 -64z" />
    <glyph glyph-name="idotaccent" horiz-adv-x="326" 
d="M161 594c-54 0 -96 38 -96 87c0 51 42 87 96 87c51 0 93 -36 93 -87c0 -49 -42 -87 -93 -87zM20 0v39l29 7c33 9 37 14 37 57v288c0 42 -5 45 -34 64l-35 22v32l221 23l14 -9c-1 -29 -8 -63 -8 -143v-277c0 -45 4 -49 36 -57l29 -7v-39h-289z" />
    <glyph glyph-name="jcircumflex" unicode="&#x135;" horiz-adv-x="314" 
d="M24 -226c-89 0 -136 44 -136 94c0 40 26 62 69 62c46 0 65 -19 71 -81c3 -24 9 -28 19 -28c26 0 39 24 39 53v517c0 42 -5 45 -34 64l-35 22v32l221 23l14 -9c-1 -29 -8 -64 -8 -151v-380c0 -143 -94 -218 -220 -218zM192 766l131 -152l-22 -31l-143 79l-143 -79l-22 31
l130 152h69z" />
    <glyph glyph-name="kcommaaccent" unicode="&#x137;" horiz-adv-x="621" 
d="M20 0v39l29 7c33 9 37 14 37 57v524c0 47 -4 52 -33 66l-38 19v35l223 19l14 -10s-8 -48 -8 -115v-538c0 -46 4 -50 31 -58l26 -6v-39h-281zM421 0c-66 83 -118 169 -162 246v24l101 102c37 40 50 58 50 74c0 15 -12 26 -33 31l-16 4v38h228v-39l-23 -6
c-27 -7 -50 -17 -96 -62l-88 -87c55 -94 109 -185 164 -250c11 -15 22 -23 37 -28l25 -8v-39h-187zM235 -284l-7 28c78 17 98 47 96 83c-6 -3 -15 -7 -28 -7c-37 0 -62 24 -62 58c0 36 34 65 79 65c49 0 90 -32 90 -89c0 -64 -46 -129 -168 -138z" />
    <glyph glyph-name="lacute" unicode="&#x13a;" horiz-adv-x="330" 
d="M20 0v39l29 7c35 9 39 14 39 57v524c0 47 -4 52 -35 66l-38 19v35l224 19l15 -10s-8 -48 -8 -115v-538c0 -45 3 -48 37 -57l29 -7v-39h-292zM78 805l-12 28l140 112c18 14 34 23 53 23c31 0 53 -29 53 -59c0 -22 -12 -47 -45 -55z" />
    <glyph glyph-name="lcaron" unicode="&#x13e;" horiz-adv-x="330" 
d="M20 0v39l29 7c35 9 39 14 39 57v524c0 47 -4 52 -35 66l-38 19v35l224 19l15 -10s-8 -48 -8 -115v-538c0 -45 3 -48 37 -57l29 -7v-39h-292zM333 569l-25 6l7 137c2 31 14 53 50 53c32 0 57 -21 57 -49c0 -10 -3 -22 -15 -40z" />
    <glyph glyph-name="lcommaaccent" unicode="&#x13c;" horiz-adv-x="330" 
d="M20 0v39l29 7c35 9 39 14 39 57v524c0 47 -4 52 -35 66l-38 19v35l224 19l15 -10s-8 -48 -8 -115v-538c0 -45 3 -48 37 -57l29 -7v-39h-292zM81 -284l-7 28c78 17 98 47 96 83c-6 -3 -15 -7 -28 -7c-37 0 -62 24 -62 58c0 36 34 65 79 65c49 0 90 -32 90 -89
c0 -64 -46 -129 -168 -138z" />
    <glyph glyph-name="ldot" unicode="&#x140;" horiz-adv-x="412" 
d="M20 0v39l29 7c35 9 39 14 39 57v524c0 47 -4 52 -35 66l-38 19v35l224 19l15 -10s-8 -48 -8 -115v-538c0 -45 3 -48 37 -57l29 -7v-39h-292zM373 294c-45 0 -81 35 -81 79c0 43 36 80 81 80c46 0 81 -37 81 -80c0 -44 -35 -79 -81 -79z" />
    <glyph glyph-name="nacute" unicode="&#x144;" horiz-adv-x="658" 
d="M20 0v39l29 7c33 9 37 14 37 57v288c0 42 -5 45 -34 64l-35 22v32l211 23l14 -9l-7 -61h5c54 37 125 70 199 70c89 0 136 -44 136 -133v-296c0 -44 5 -49 37 -57l27 -7v-39h-282v39l27 6c29 8 32 11 32 58v251c0 62 -22 84 -73 84c-38 0 -77 -12 -99 -19v-316
c0 -48 3 -50 32 -58l27 -6v-39h-283zM250 590l-12 28l140 112c18 14 34 23 53 23c31 0 53 -29 53 -59c0 -22 -12 -47 -45 -55z" />
    <glyph glyph-name="napostrophe" unicode="&#x149;" horiz-adv-x="768" 
d="M-91 383l-13 36c78 35 121 90 119 140c-6 -5 -19 -9 -34 -9c-42 0 -71 31 -71 77c0 48 39 78 89 78c55 0 106 -41 106 -112c0 -97 -75 -183 -196 -210zM130 0v39l29 7c33 9 37 14 37 57v288c0 42 -5 45 -34 64l-35 22v32l211 23l14 -9l-7 -61h5c54 37 125 70 199 70
c89 0 136 -44 136 -133v-296c0 -44 5 -49 37 -57l27 -7v-39h-282v39l27 6c29 8 32 11 32 58v251c0 62 -22 84 -73 84c-38 0 -77 -12 -99 -19v-316c0 -48 3 -50 32 -58l27 -6v-39h-283z" />
    <glyph glyph-name="ncaron" unicode="&#x148;" horiz-adv-x="658" 
d="M20 0v39l29 7c33 9 37 14 37 57v288c0 42 -5 45 -34 64l-35 22v32l211 23l14 -9l-7 -61h5c54 37 125 70 199 70c89 0 136 -44 136 -133v-296c0 -44 5 -49 37 -57l27 -7v-39h-282v39l27 6c29 8 32 11 32 58v251c0 62 -22 84 -73 84c-38 0 -77 -12 -99 -19v-316
c0 -48 3 -50 32 -58l27 -6v-39h-283zM300 591l-131 151l22 32l143 -80l143 80l22 -32l-130 -151h-69z" />
    <glyph glyph-name="ncommaaccent" unicode="&#x146;" horiz-adv-x="658" 
d="M20 0v39l29 7c33 9 37 14 37 57v288c0 42 -5 45 -34 64l-35 22v32l211 23l14 -9l-7 -61h5c54 37 125 70 199 70c89 0 136 -44 136 -133v-296c0 -44 5 -49 37 -57l27 -7v-39h-282v39l27 6c29 8 32 11 32 58v251c0 62 -22 84 -73 84c-38 0 -77 -12 -99 -19v-316
c0 -48 3 -50 32 -58l27 -6v-39h-283zM252 -284l-7 28c78 17 98 47 96 83c-6 -3 -15 -7 -28 -7c-37 0 -62 24 -62 58c0 36 34 65 79 65c49 0 90 -32 90 -89c0 -64 -46 -129 -168 -138z" />
    <glyph glyph-name="nacute.pl" horiz-adv-x="658" 
d="M20 0v39l29 7c33 9 37 14 37 57v288c0 42 -5 45 -34 64l-35 22v32l211 23l14 -9l-7 -61h5c54 37 125 70 199 70c89 0 136 -44 136 -133v-296c0 -44 5 -49 37 -57l27 -7v-39h-282v39l27 6c29 8 32 11 32 58v251c0 62 -22 84 -73 84c-38 0 -77 -12 -99 -19v-316
c0 -48 3 -50 32 -58l27 -6v-39h-283zM305 575l-21 20l65 139c13 28 29 47 54 47c33 0 67 -30 67 -61c0 -18 -11 -35 -30 -49z" />
    <glyph glyph-name="obreve" unicode="&#x14f;" horiz-adv-x="612" 
d="M307 -12c-150 0 -278 88 -278 271c0 190 138 274 278 274c147 0 276 -87 276 -270c0 -190 -136 -275 -276 -275zM310 39c64 0 106 38 106 220c0 186 -40 222 -114 222c-67 0 -106 -42 -106 -212c0 -188 36 -230 114 -230zM307 593c-83 0 -138 67 -152 164l43 12
c19 -47 46 -80 109 -80c59 0 88 32 108 80l42 -12c-13 -97 -67 -164 -150 -164z" />
    <glyph glyph-name="ohungarumlaut" unicode="&#x151;" horiz-adv-x="612" 
d="M307 -12c-150 0 -278 88 -278 271c0 190 138 274 278 274c147 0 276 -87 276 -270c0 -190 -136 -275 -276 -275zM310 39c64 0 106 38 106 220c0 186 -40 222 -114 222c-67 0 -106 -42 -106 -212c0 -188 36 -230 114 -230zM388 587l-20 22l78 123c15 27 30 38 49 38
c26 0 58 -25 58 -53c0 -18 -8 -37 -37 -53zM202 587l-20 22l77 123c14 28 32 38 50 38c23 0 56 -23 56 -52c0 -20 -10 -41 -41 -59z" />
    <glyph glyph-name="omacron" unicode="&#x14d;" horiz-adv-x="612" 
d="M307 -12c-150 0 -278 88 -278 271c0 190 138 274 278 274c147 0 276 -87 276 -270c0 -190 -136 -275 -276 -275zM310 39c64 0 106 38 106 220c0 186 -40 222 -114 222c-67 0 -106 -42 -106 -212c0 -188 36 -230 114 -230zM158 622v79h296v-79h-296z" />
    <glyph glyph-name="oacute.pl" horiz-adv-x="612" 
d="M307 -12c-150 0 -278 88 -278 271c0 190 138 274 278 274c147 0 276 -87 276 -270c0 -190 -136 -275 -276 -275zM310 39c64 0 106 38 106 220c0 186 -40 222 -114 222c-67 0 -106 -42 -106 -212c0 -188 36 -230 114 -230zM277 575l-21 20l65 139c13 28 29 47 54 47
c33 0 67 -30 67 -61c0 -18 -11 -35 -30 -49z" />
    <glyph glyph-name="oslashacute" unicode="&#x1ff;" horiz-adv-x="612" 
d="M52 -64l74 107c-59 44 -97 116 -97 216c0 190 138 274 278 274c50 0 98 -10 139 -31l55 79h60l-73 -105c58 -44 95 -115 95 -213c0 -190 -136 -275 -276 -275c-50 0 -98 10 -139 29l-56 -81h-60zM191 249c0 -43 2 -78 5 -105l204 292c-18 38 -48 45 -98 45
c-67 0 -112 -52 -111 -232zM310 39c66 0 112 49 111 238c0 39 -2 70 -5 96l-203 -291c18 -35 48 -43 97 -43zM222 590l-12 28l140 112c18 14 34 23 53 23c31 0 53 -29 53 -59c0 -22 -12 -47 -45 -55z" />
    <glyph glyph-name="racute" unicode="&#x155;" horiz-adv-x="487" 
d="M20 0v39l29 7c33 9 37 14 37 57v288c0 42 -5 45 -34 64l-35 22v32l211 23l14 -10l-7 -66h5c31 34 95 76 154 76c47 0 77 -26 77 -74c0 -47 -26 -76 -69 -76c-47 0 -59 10 -79 41c-7 11 -16 14 -27 14c-18 0 -38 -17 -52 -30v-304c0 -47 4 -52 33 -57l36 -7v-39h-293z
M190 590l-12 28l140 112c18 14 34 23 53 23c31 0 53 -29 53 -59c0 -22 -12 -47 -45 -55z" />
    <glyph glyph-name="rcaron" unicode="&#x159;" horiz-adv-x="487" 
d="M20 0v39l29 7c33 9 37 14 37 57v288c0 42 -5 45 -34 64l-35 22v32l211 23l14 -10l-7 -66h5c31 34 95 76 154 76c47 0 77 -26 77 -74c0 -47 -26 -76 -69 -76c-47 0 -59 10 -79 41c-7 11 -16 14 -27 14c-18 0 -38 -17 -52 -30v-304c0 -47 4 -52 33 -57l36 -7v-39h-293z
M240 591l-131 151l22 32l143 -80l143 80l22 -32l-130 -151h-69z" />
    <glyph glyph-name="rcommaaccent" unicode="&#x157;" horiz-adv-x="487" 
d="M20 0v39l29 7c33 9 37 14 37 57v288c0 42 -5 45 -34 64l-35 22v32l211 23l14 -10l-7 -66h5c31 34 95 76 154 76c47 0 77 -26 77 -74c0 -47 -26 -76 -69 -76c-47 0 -59 10 -79 41c-7 11 -16 14 -27 14c-18 0 -38 -17 -52 -30v-304c0 -47 4 -52 33 -57l36 -7v-39h-293z
M77 -284l-7 28c78 17 98 47 96 83c-6 -3 -15 -7 -28 -7c-37 0 -62 24 -62 58c0 36 34 65 79 65c49 0 90 -32 90 -89c0 -64 -46 -129 -168 -138z" />
    <glyph glyph-name="sacute" unicode="&#x15b;" horiz-adv-x="459" 
d="M202 -12c-60 0 -121 9 -162 19l-9 153h40c20 -38 31 -57 58 -87c19 -20 47 -34 92 -34c54 0 87 22 87 66c0 47 -37 65 -125 98c-92 34 -149 80 -149 162c0 96 78 168 216 168c59 0 110 -7 141 -18l5 -136h-37c-21 34 -38 55 -58 78c-14 14 -27 25 -68 25
c-51 0 -83 -22 -83 -66c0 -34 27 -54 112 -84c119 -42 170 -88 170 -166c0 -104 -83 -178 -230 -178zM153 590l-12 28l140 112c18 14 34 23 53 23c31 0 53 -29 53 -59c0 -22 -12 -47 -45 -55z" />
    <glyph glyph-name="scedilla" unicode="&#x15f;" horiz-adv-x="459" 
d="M93 -260v33c80 18 118 45 118 73c0 20 -22 35 -74 38l-9 10l47 95c-51 2 -100 10 -135 18l-9 153h40c20 -38 31 -57 58 -87c19 -20 47 -34 92 -34c54 0 87 22 87 66c0 47 -37 65 -125 98c-92 34 -149 80 -149 162c0 96 78 168 216 168c59 0 110 -7 141 -18l5 -136h-37
c-21 34 -38 55 -58 78c-14 14 -27 25 -68 25c-51 0 -83 -22 -83 -66c0 -34 27 -54 112 -84c119 -42 170 -88 170 -166c0 -98 -74 -169 -205 -177l-32 -44c79 -5 112 -39 112 -79c0 -58 -72 -111 -214 -126z" />
    <glyph glyph-name="scircumflex" unicode="&#x15d;" horiz-adv-x="459" 
d="M202 -12c-60 0 -121 9 -162 19l-9 153h40c20 -38 31 -57 58 -87c19 -20 47 -34 92 -34c54 0 87 22 87 66c0 47 -37 65 -125 98c-92 34 -149 80 -149 162c0 96 78 168 216 168c59 0 110 -7 141 -18l5 -136h-37c-21 34 -38 55 -58 78c-14 14 -27 25 -68 25
c-51 0 -83 -22 -83 -66c0 -34 27 -54 112 -84c119 -42 170 -88 170 -166c0 -104 -83 -178 -230 -178zM271 766l131 -152l-22 -31l-143 79l-143 -79l-22 31l130 152h69z" />
    <glyph glyph-name="scommaaccent" unicode="&#x219;" horiz-adv-x="459" 
d="M202 -12c-60 0 -121 9 -162 19l-9 153h40c20 -38 31 -57 58 -87c19 -20 47 -34 92 -34c54 0 87 22 87 66c0 47 -37 65 -125 98c-92 34 -149 80 -149 162c0 96 78 168 216 168c59 0 110 -7 141 -18l5 -136h-37c-21 34 -38 55 -58 78c-14 14 -27 25 -68 25
c-51 0 -83 -22 -83 -66c0 -34 27 -54 112 -84c119 -42 170 -88 170 -166c0 -104 -83 -178 -230 -178zM132 -284l-7 28c78 17 98 47 96 83c-6 -3 -15 -7 -28 -7c-37 0 -62 24 -62 58c0 36 34 65 79 65c49 0 90 -32 90 -89c0 -64 -46 -129 -168 -138z" />
    <glyph glyph-name="sacute.pl" horiz-adv-x="459" 
d="M202 -12c-60 0 -121 9 -162 19l-9 153h40c20 -38 31 -57 58 -87c19 -20 47 -34 92 -34c54 0 87 22 87 66c0 47 -37 65 -125 98c-92 34 -149 80 -149 162c0 96 78 168 216 168c59 0 110 -7 141 -18l5 -136h-37c-21 34 -38 55 -58 78c-14 14 -27 25 -68 25
c-51 0 -83 -22 -83 -66c0 -34 27 -54 112 -84c119 -42 170 -88 170 -166c0 -104 -83 -178 -230 -178zM208 575l-21 20l65 139c13 28 29 47 54 47c33 0 67 -30 67 -61c0 -18 -11 -35 -30 -49z" />
    <glyph glyph-name="tbar" unicode="&#x167;" horiz-adv-x="388" 
d="M8 305v51h65v92h-65v36c80 27 126 86 155 171h69v-136h140l-17 -71h-123v-92h134v-51h-134v-167c0 -49 17 -69 68 -69c24 0 56 7 74 11v-40c-23 -25 -75 -52 -159 -52c-89 0 -142 39 -142 136v181h-65z" />
    <glyph glyph-name="tcaron" unicode="&#x165;" horiz-adv-x="388" 
d="M215 -12c-89 0 -142 39 -142 136v324h-65v36c80 27 126 86 155 171h69v-136h140l-17 -71h-123v-310c0 -49 17 -69 68 -69c24 0 56 7 74 11v-40c-23 -25 -75 -52 -159 -52zM322 569l-25 6l7 137c2 31 14 53 50 53c32 0 57 -21 57 -49c0 -10 -3 -22 -15 -40z" />
    <glyph glyph-name="tcommaaccent" unicode="&#x163;" horiz-adv-x="388" 
d="M215 -12c-89 0 -142 39 -142 136v324h-65v36c80 27 126 86 155 171h69v-136h140l-17 -71h-123v-310c0 -49 17 -69 68 -69c24 0 56 7 74 11v-40c-23 -25 -75 -52 -159 -52zM116 -284l-7 28c78 17 98 47 96 83c-6 -3 -15 -7 -28 -7c-37 0 -62 24 -62 58c0 36 34 65 79 65
c49 0 90 -32 90 -89c0 -64 -46 -129 -168 -138z" />
    <glyph glyph-name="ubreve" unicode="&#x16d;" horiz-adv-x="656" 
d="M219 -12c-82 0 -135 45 -135 133v275c0 42 -2 45 -32 62l-37 20v32l210 22l17 -11v-360c0 -59 23 -81 71 -81c39 0 76 15 102 25v291c0 42 -3 46 -33 62l-35 20v32l210 22l16 -11v-390c0 -49 3 -54 34 -66l29 -13v-35l-205 -29l-14 10l6 65h-4c-55 -39 -121 -75 -200 -75
zM332 593c-83 0 -138 67 -152 164l43 12c19 -47 46 -80 109 -80c59 0 88 32 108 80l42 -12c-13 -97 -67 -164 -150 -164z" />
    <glyph glyph-name="uhungarumlaut" unicode="&#x171;" horiz-adv-x="656" 
d="M219 -12c-82 0 -135 45 -135 133v275c0 42 -2 45 -32 62l-37 20v32l210 22l17 -11v-360c0 -59 23 -81 71 -81c39 0 76 15 102 25v291c0 42 -3 46 -33 62l-35 20v32l210 22l16 -11v-390c0 -49 3 -54 34 -66l29 -13v-35l-205 -29l-14 10l6 65h-4c-55 -39 -121 -75 -200 -75
zM413 587l-20 22l78 123c15 27 30 38 49 38c26 0 58 -25 58 -53c0 -18 -8 -37 -37 -53zM227 587l-20 22l77 123c14 28 32 38 50 38c23 0 56 -23 56 -52c0 -20 -10 -41 -41 -59z" />
    <glyph glyph-name="umacron" unicode="&#x16b;" horiz-adv-x="656" 
d="M219 -12c-82 0 -135 45 -135 133v275c0 42 -2 45 -32 62l-37 20v32l210 22l17 -11v-360c0 -59 23 -81 71 -81c39 0 76 15 102 25v291c0 42 -3 46 -33 62l-35 20v32l210 22l16 -11v-390c0 -49 3 -54 34 -66l29 -13v-35l-205 -29l-14 10l6 65h-4c-55 -39 -121 -75 -200 -75
zM183 622v79h296v-79h-296z" />
    <glyph glyph-name="uogonek" unicode="&#x173;" horiz-adv-x="656" 
d="M421 -226c-75 0 -122 36 -122 90c0 60 56 102 117 130l7 69h-4c-55 -39 -121 -75 -200 -75c-82 0 -135 45 -135 133v275c0 42 -2 45 -32 62l-37 20v32l210 22l17 -11v-360c0 -59 23 -81 71 -81c39 0 76 15 102 25v291c0 42 -3 46 -33 62l-35 20v32l210 22l16 -11v-390
c0 -49 3 -54 34 -66l29 -13v-35l-49 -7c-125 -17 -167 -74 -167 -120c0 -22 10 -37 29 -43c17 -5 40 -5 69 -4v-39c-17 -12 -45 -30 -97 -30z" />
    <glyph glyph-name="uring" unicode="&#x16f;" horiz-adv-x="656" 
d="M219 -12c-82 0 -135 45 -135 133v275c0 42 -2 45 -32 62l-37 20v32l210 22l17 -11v-360c0 -59 23 -81 71 -81c39 0 76 15 102 25v291c0 42 -3 46 -33 62l-35 20v32l210 22l16 -11v-390c0 -49 3 -54 34 -66l29 -13v-35l-205 -29l-14 10l6 65h-4c-55 -39 -121 -75 -200 -75
zM331 585c-68 0 -115 46 -115 107c0 62 51 109 115 109c65 0 115 -45 115 -109c0 -61 -50 -107 -115 -107zM331 630c35 0 57 26 57 62s-22 63 -57 63s-57 -27 -57 -63s22 -62 57 -62z" />
    <glyph glyph-name="utilde" unicode="&#x169;" horiz-adv-x="656" 
d="M219 -12c-82 0 -135 45 -135 133v275c0 42 -2 45 -32 62l-37 20v32l210 22l17 -11v-360c0 -59 23 -81 71 -81c39 0 76 15 102 25v291c0 42 -3 46 -33 62l-35 20v32l210 22l16 -11v-390c0 -49 3 -54 34 -66l29 -13v-35l-205 -29l-14 10l6 65h-4c-55 -39 -121 -75 -200 -75
zM193 584l-39 18c29 88 60 141 108 141c54 0 111 -39 148 -39c27 0 40 26 61 63l38 -17c-29 -88 -55 -141 -105 -141c-54 0 -113 39 -150 39c-27 0 -40 -27 -61 -64z" />
    <glyph glyph-name="wacute" unicode="&#x1e83;" horiz-adv-x="877" 
d="M233 0l-147 396c-22 58 -33 70 -61 78l-20 6v39h280v-39l-22 -6c-17 -4 -27 -14 -27 -31c0 -14 8 -35 17 -63l73 -223h7l79 220l-6 19c-18 54 -31 72 -54 78l-20 6v39h278v-39l-29 -7c-19 -5 -28 -17 -28 -38c0 -13 4 -32 12 -55l76 -223h6l71 223c8 25 12 43 12 56
c0 20 -9 32 -30 37l-29 7v39h201v-39l-20 -6c-28 -8 -39 -24 -63 -88l-143 -386h-97l-105 302h-3l-111 -302h-97zM386 590l-12 28l140 112c18 14 34 23 53 23c31 0 53 -29 53 -59c0 -22 -12 -47 -45 -55z" />
    <glyph glyph-name="wcircumflex" unicode="&#x175;" horiz-adv-x="877" 
d="M233 0l-147 396c-22 58 -33 70 -61 78l-20 6v39h280v-39l-22 -6c-17 -4 -27 -14 -27 -31c0 -14 8 -35 17 -63l73 -223h7l79 220l-6 19c-18 54 -31 72 -54 78l-20 6v39h278v-39l-29 -7c-19 -5 -28 -17 -28 -38c0 -13 4 -32 12 -55l76 -223h6l71 223c8 25 12 43 12 56
c0 20 -9 32 -30 37l-29 7v39h201v-39l-20 -6c-28 -8 -39 -24 -63 -88l-143 -386h-97l-105 302h-3l-111 -302h-97zM504 766l131 -152l-22 -31l-143 79l-143 -79l-22 31l130 152h69z" />
    <glyph glyph-name="wdieresis" unicode="&#x1e85;" horiz-adv-x="877" 
d="M233 0l-147 396c-22 58 -33 70 -61 78l-20 6v39h280v-39l-22 -6c-17 -4 -27 -14 -27 -31c0 -14 8 -35 17 -63l73 -223h7l79 220l-6 19c-18 54 -31 72 -54 78l-20 6v39h278v-39l-29 -7c-19 -5 -28 -17 -28 -38c0 -13 4 -32 12 -55l76 -223h6l71 223c8 25 12 43 12 56
c0 20 -9 32 -30 37l-29 7v39h201v-39l-20 -6c-28 -8 -39 -24 -63 -88l-143 -386h-97l-105 302h-3l-111 -302h-97zM356 598c-47 0 -86 35 -86 81s39 81 86 81s86 -35 86 -81s-39 -81 -86 -81zM585 598c-48 0 -86 35 -86 81s38 81 86 81c46 0 85 -35 85 -81s-39 -81 -85 -81z
" />
    <glyph glyph-name="wgrave" unicode="&#x1e81;" horiz-adv-x="877" 
d="M233 0l-147 396c-22 58 -33 70 -61 78l-20 6v39h280v-39l-22 -6c-17 -4 -27 -14 -27 -31c0 -14 8 -35 17 -63l73 -223h7l79 220l-6 19c-18 54 -31 72 -54 78l-20 6v39h278v-39l-29 -7c-19 -5 -28 -17 -28 -38c0 -13 4 -32 12 -55l76 -223h6l71 223c8 25 12 43 12 56
c0 20 -9 32 -30 37l-29 7v39h201v-39l-20 -6c-28 -8 -39 -24 -63 -88l-143 -386h-97l-105 302h-3l-111 -302h-97zM562 590l-188 49c-33 8 -46 33 -46 55c0 30 23 59 53 59c20 0 36 -9 54 -23l140 -112z" />
    <glyph glyph-name="ycircumflex" unicode="&#x177;" horiz-adv-x="589" 
d="M132 -222c-67 0 -104 35 -104 80c0 37 22 65 60 65c42 0 57 -16 69 -49c6 -16 10 -23 17 -23c24 0 48 23 81 96l16 38l-190 411c-30 63 -35 71 -58 78l-19 6v39h296v-39l-27 -7c-22 -5 -33 -15 -33 -38c0 -14 5 -33 16 -55l93 -215h4l83 215c9 24 11 44 11 59
c0 20 -10 29 -31 34l-29 7v39h205v-39l-23 -7c-27 -8 -33 -23 -60 -87l-194 -449c-47 -108 -98 -159 -183 -159zM369 766l131 -152l-22 -31l-143 79l-143 -79l-22 31l130 152h69z" />
    <glyph glyph-name="ygrave" unicode="&#x1ef3;" horiz-adv-x="589" 
d="M132 -222c-67 0 -104 35 -104 80c0 37 22 65 60 65c42 0 57 -16 69 -49c6 -16 10 -23 17 -23c24 0 48 23 81 96l16 38l-190 411c-30 63 -35 71 -58 78l-19 6v39h296v-39l-27 -7c-22 -5 -33 -15 -33 -38c0 -14 5 -33 16 -55l93 -215h4l83 215c9 24 11 44 11 59
c0 20 -10 29 -31 34l-29 7v39h205v-39l-23 -7c-27 -8 -33 -23 -60 -87l-194 -449c-47 -108 -98 -159 -183 -159zM427 590l-188 49c-33 8 -46 33 -46 55c0 30 23 59 53 59c20 0 36 -9 54 -23l140 -112z" />
    <glyph glyph-name="zacute" unicode="&#x17a;" horiz-adv-x="517" 
d="M21 0v51l299 413v4h-44c-77 0 -98 -5 -121 -31c-24 -29 -39 -57 -68 -107h-38l10 189h435v-49l-299 -415v-4h45c97 0 119 10 144 41c25 30 45 63 66 103h41l-17 -195h-453zM188 590l-12 28l140 112c18 14 34 23 53 23c31 0 53 -29 53 -59c0 -22 -12 -47 -45 -55z" />
    <glyph glyph-name="zacute.pl" horiz-adv-x="517" 
d="M21 0v51l299 413v4h-44c-77 0 -98 -5 -121 -31c-24 -29 -39 -57 -68 -107h-38l10 189h435v-49l-299 -415v-4h45c97 0 119 10 144 41c25 30 45 63 66 103h41l-17 -195h-453zM251 575l-21 20l65 139c13 28 29 47 54 47c33 0 67 -30 67 -61c0 -18 -11 -35 -30 -49z" />
    <glyph glyph-name="zdotaccent" unicode="&#x17c;" horiz-adv-x="517" 
d="M21 0v51l299 413v4h-44c-77 0 -98 -5 -121 -31c-24 -29 -39 -57 -68 -107h-38l10 189h435v-49l-299 -415v-4h45c97 0 119 10 144 41c25 30 45 63 66 103h41l-17 -195h-453zM273 594c-53 0 -95 38 -95 87c0 51 42 87 95 87c52 0 94 -36 94 -87c0 -49 -42 -87 -94 -87z" />
    <glyph glyph-name="oneeighth" unicode="&#x215b;" horiz-adv-x="871" 
d="M25 261v35l27 5c28 7 32 8 32 49v225l-59 6v37c69 12 127 45 164 87l27 -8v-347c0 -41 8 -46 33 -49l25 -5v-35h-249zM661 -112c-110 0 -185 38 -185 105c0 44 36 86 95 107v3c-50 23 -73 57 -73 103c0 84 82 130 168 130c82 0 161 -31 161 -98c0 -39 -39 -77 -84 -92v-3
c71 -30 102 -63 102 -120c0 -76 -77 -135 -184 -135zM704 162c13 16 29 39 29 69c0 49 -28 68 -73 68c-42 0 -67 -23 -67 -55s26 -50 111 -82zM668 -75c45 0 79 20 79 60c0 37 -31 53 -140 96c-14 -18 -29 -41 -29 -71c0 -61 30 -85 90 -85zM149 -50l503 764h76l-504 -764
h-75z" />
    <glyph glyph-name="onethird" unicode="&#x2153;" horiz-adv-x="877" 
d="M25 261v35l27 5c28 7 32 8 32 49v225l-59 6v37c69 12 127 45 164 87l27 -8v-347c0 -41 8 -46 33 -49l25 -5v-35h-249zM651 -112c-102 0 -152 31 -152 80c0 31 21 51 49 51c35 0 55 -17 62 -61c6 -27 10 -31 40 -31c47 0 69 27 69 87c0 74 -35 83 -88 83h-31v48h27
c55 0 81 16 81 79c0 57 -22 73 -54 73c-24 0 -30 -6 -33 -28c-5 -35 -16 -53 -56 -53c-29 0 -49 16 -49 44c0 47 61 76 151 76c99 0 159 -35 159 -103c0 -47 -36 -89 -119 -104v-2c78 -6 137 -38 137 -111c0 -75 -54 -128 -193 -128zM151 -50l503 764h76l-504 -764h-75z" />
    <glyph glyph-name="threeeighths" unicode="&#x215c;" horiz-adv-x="883" 
d="M173 253c-102 0 -152 31 -152 80c0 30 21 51 49 51c35 0 55 -17 62 -61c6 -27 10 -31 40 -31c47 0 69 27 69 87c0 74 -35 83 -88 83h-31v48h27c55 0 81 16 81 79c0 57 -22 73 -54 73c-24 0 -30 -6 -33 -28c-5 -35 -16 -54 -56 -54c-29 0 -49 17 -49 45c0 47 61 76 151 76
c99 0 159 -35 159 -103c0 -47 -36 -90 -119 -104v-2c78 -6 137 -38 137 -112s-54 -127 -193 -127zM673 -112c-110 0 -185 38 -185 105c0 44 36 86 95 107v3c-50 23 -73 57 -73 103c0 84 82 130 168 130c82 0 161 -31 161 -98c0 -39 -39 -77 -84 -92v-3
c71 -30 102 -63 102 -120c0 -76 -77 -135 -184 -135zM716 162c13 16 29 39 29 69c0 49 -28 68 -73 68c-42 0 -67 -23 -67 -55s26 -50 111 -82zM680 -75c45 0 79 20 79 60c0 37 -31 53 -140 96c-14 -18 -29 -41 -29 -71c0 -61 30 -85 90 -85zM177 -50l503 764h76l-504 -764
h-75z" />
    <glyph glyph-name="fiveeighths" unicode="&#x215d;" horiz-adv-x="871" 
d="M156 253c-93 0 -138 34 -138 77c0 32 23 44 50 44c39 0 52 -17 59 -55c6 -25 10 -26 39 -26c52 0 77 26 77 70c0 58 -46 85 -112 85c-32 0 -56 -6 -71 -12l-11 6l29 251l182 -1c25 0 28 8 44 38h33l-14 -121l-207 1l-10 -76c15 4 29 9 73 9c103 0 174 -44 174 -138
c0 -81 -71 -152 -197 -152zM661 -112c-110 0 -185 38 -185 105c0 44 36 86 95 107v3c-50 23 -73 57 -73 103c0 84 82 130 168 130c82 0 161 -31 161 -98c0 -39 -39 -77 -84 -92v-3c71 -30 102 -63 102 -120c0 -76 -77 -135 -184 -135zM704 162c13 16 29 39 29 69
c0 49 -28 68 -73 68c-42 0 -67 -23 -67 -55s26 -50 111 -82zM668 -75c45 0 79 20 79 60c0 37 -31 53 -140 96c-14 -18 -29 -41 -29 -71c0 -61 30 -85 90 -85zM159 -50l503 764h76l-504 -764h-75z" />
    <glyph glyph-name="twothirds" unicode="&#x2154;" horiz-adv-x="915" 
d="M23 261v59c63 45 99 76 141 121c44 43 72 91 72 148c0 60 -26 72 -62 72c-25 0 -29 -9 -33 -32c-6 -44 -19 -63 -61 -63c-32 0 -53 21 -53 49c0 46 61 86 160 86c105 0 172 -42 172 -126c0 -74 -78 -147 -231 -222v-3h139c32 0 38 9 56 54h34l-9 -143h-325zM689 -112
c-102 0 -152 31 -152 80c0 31 21 51 49 51c35 0 55 -17 62 -61c6 -27 10 -31 40 -31c47 0 69 27 69 87c0 74 -35 83 -88 83h-31v48h27c55 0 81 16 81 79c0 57 -22 73 -54 73c-24 0 -30 -6 -33 -28c-5 -35 -16 -53 -56 -53c-29 0 -49 16 -49 44c0 47 61 76 151 76
c99 0 159 -35 159 -103c0 -47 -36 -89 -119 -104v-2c78 -6 137 -38 137 -111c0 -75 -54 -128 -193 -128zM199 -50l503 764h76l-504 -764h-75z" />
    <glyph glyph-name="seveneighths" unicode="&#x215e;" horiz-adv-x="867" 
d="M657 -112c-110 0 -185 38 -185 105c0 44 36 86 95 107v3c-50 23 -73 57 -73 103c0 84 82 130 168 130c82 0 161 -31 161 -98c0 -39 -39 -77 -84 -92v-3c71 -30 102 -63 102 -120c0 -76 -77 -135 -184 -135zM700 162c13 16 29 39 29 69c0 49 -28 68 -73 68
c-42 0 -67 -23 -67 -55s26 -50 111 -82zM664 -75c45 0 79 20 79 60c0 37 -31 53 -140 96c-14 -18 -29 -41 -29 -71c0 -61 30 -85 90 -85zM84 261c33 143 106 247 205 345h-170c-29 0 -34 -5 -53 -54h-37l14 141h316v-56c-93 -119 -124 -236 -133 -376h-142zM136 -50l503 764
h76l-504 -764h-75z" />
    <glyph glyph-name="uni24C5" unicode="&#x24c5;" horiz-adv-x="814" 
d="M406 -14c-205 0 -361 161 -361 358s156 356 361 356c204 0 363 -159 363 -356s-159 -358 -363 -358zM406 26c184 0 316 143 316 318s-132 316 -316 316c-185 0 -313 -141 -313 -316s128 -318 313 -318zM387 492v-263c0 -33 4 -36 22 -39l27 -5v-28h-207v28l18 4
c18 4 22 6 22 40v232c0 34 -4 35 -22 39l-18 5v27h207c112 0 165 -41 165 -116c0 -76 -49 -120 -127 -120c-24 0 -52 5 -62 10v23c50 0 68 21 68 83c0 59 -16 85 -60 85c-15 0 -27 -3 -33 -5z" />
    <glyph glyph-name="dollar.old" horiz-adv-x="526" 
d="M226 -114v103c-148 4 -208 52 -208 121c0 38 25 64 64 64c41 0 65 -19 75 -87c5 -34 15 -48 69 -51v234c-144 54 -190 121 -190 206c0 101 79 177 199 190v88h53v-85c128 -4 196 -57 196 -117c0 -40 -27 -65 -64 -65c-46 0 -71 26 -76 90c-3 32 -17 42 -56 44v-216
c154 -61 205 -122 205 -217c0 -100 -86 -186 -213 -198v-104h-54zM370 135c0 49 -24 84 -90 114v-212c59 9 90 46 90 98zM149 535c0 -50 22 -77 86 -107v192c-55 -7 -86 -38 -86 -85z" />
    <glyph glyph-name="Euro.old" horiz-adv-x="622" 
d="M9 370v55h103c36 172 165 245 298 245c103 0 186 -37 186 -112c0 -36 -18 -66 -66 -66c-52 0 -73 26 -81 88c-4 37 -19 43 -54 43c-72 0 -120 -56 -133 -198h211l-11 -55h-203v-24c0 -22 0 -42 1 -60h188l-9 -56h-173c19 -122 76 -164 180 -164c63 0 105 20 143 41v-45
c-33 -34 -102 -74 -208 -74c-144 0 -245 77 -271 242h-101v56h95c0 12 -1 25 -1 38c0 16 0 31 2 46h-96z" />
    <glyph glyph-name="sterling.old" horiz-adv-x="543" 
d="M43 314v55h58c-10 36 -18 72 -18 105c0 111 83 196 243 196c117 0 185 -43 185 -104c0 -42 -25 -67 -66 -67c-47 0 -66 29 -78 83c-7 35 -19 43 -43 43c-49 0 -80 -27 -80 -113c0 -38 6 -93 10 -143h151v-55h-148v-13c0 -82 -46 -137 -127 -184v-5h267c37 0 52 8 78 74
h36l-21 -186h-464v86c68 42 106 75 106 144c0 23 -7 52 -16 84h-73z" />
    <glyph glyph-name="yen.old" horiz-adv-x="630" 
d="M66 283v55h153l-110 194c-32 56 -45 74 -74 82l-19 6v38h316v-38l-27 -5c-29 -7 -36 -19 -36 -38c0 -13 6 -32 18 -55l82 -159h5l72 153c15 32 19 47 19 62c0 19 -11 28 -40 36l-20 6v38h205v-38l-18 -6c-33 -10 -44 -28 -77 -93l-93 -183h152v-55h-175v-82h175v-55h-175
v-33c0 -56 4 -60 37 -68l38 -6v-39h-304v39l37 6c33 8 40 12 40 68v33h-181v55h181v82h-181z" />
    <glyph glyph-name="zero.old" horiz-adv-x="644" 
d="M318 -12c-142 0 -278 83 -278 291c0 221 165 311 284 311c136 0 280 -85 280 -295c0 -217 -153 -307 -286 -307zM322 38c87 0 117 72 117 241c0 189 -34 260 -117 260c-78 0 -118 -69 -118 -244c0 -187 33 -257 118 -257z" />
    <glyph glyph-name="one.old" horiz-adv-x="384" 
d="M29 0v39l45 6c32 4 40 10 40 52v339l-84 6v42c89 21 157 48 212 100l32 -4v-483c0 -42 6 -47 38 -52l42 -6v-39h-325z" />
    <glyph glyph-name="two.old" horiz-adv-x="524" 
d="M484 103l-15 -103h-443v69c70 51 128 95 191 156c73 71 108 139 108 203c0 89 -38 114 -91 114c-37 0 -47 -12 -49 -41c-3 -62 -29 -85 -78 -85c-43 0 -68 26 -68 67c0 54 62 107 202 107c149 0 243 -62 243 -167c0 -117 -113 -214 -333 -317v-3h333z" />
    <glyph glyph-name="three.old" horiz-adv-x="557" 
d="M237 -124c-140 0 -211 46 -211 116c0 36 22 62 65 62c42 0 64 -19 75 -71c10 -51 19 -62 72 -62c75 0 122 52 122 163c0 101 -43 136 -136 136h-52v54h43c92 0 129 37 129 137c0 91 -39 131 -103 131c-40 0 -48 -16 -51 -45c-6 -62 -28 -81 -73 -81s-66 27 -66 62
c0 67 83 112 209 112c147 0 234 -67 234 -168c0 -74 -49 -141 -174 -166v-3c125 -10 199 -67 199 -174c0 -110 -90 -203 -282 -203z" />
    <glyph glyph-name="four.old" horiz-adv-x="586" 
d="M464 -112h-152v188h-296v57l356 445h92v-426h108l-12 -76h-96v-188zM103 152h209v261h-3l-206 -257v-4z" />
    <glyph glyph-name="five.old" horiz-adv-x="542" 
d="M485 578l-13 -116h-318l-15 -139c23 6 62 13 105 13c142 0 260 -70 260 -217c0 -141 -119 -243 -283 -243c-121 0 -197 50 -197 115c0 32 20 61 65 61c44 0 64 -20 73 -80c5 -40 23 -51 67 -51c88 0 144 56 144 148c0 100 -75 141 -176 141c-53 0 -94 -7 -117 -16l-9 8
l41 376h373z" />
    <glyph glyph-name="six.old" horiz-adv-x="609" 
d="M311 -12c-150 0 -271 101 -271 320c0 285 176 397 348 397c113 0 171 -41 171 -96c0 -44 -26 -66 -68 -66c-46 0 -66 23 -74 79c-3 25 -17 33 -51 33c-75 0 -156 -72 -164 -285c39 28 86 51 154 51c128 0 220 -72 220 -206c0 -135 -113 -227 -265 -227zM313 38
c70 0 104 45 104 166c0 113 -40 154 -113 154c-40 0 -76 -15 -103 -32v-19c0 -183 26 -269 112 -269z" />
    <glyph glyph-name="seven.old" horiz-adv-x="537" 
d="M125 -112c51 247 173 414 308 566h-294c-42 0 -48 -9 -75 -78h-36l19 202h470v-74c-139 -190 -193 -370 -222 -616h-170z" />
    <glyph glyph-name="eight.old" horiz-adv-x="581" 
d="M285 -12c-139 0 -253 60 -253 174c0 74 67 134 154 172v3c-81 43 -125 95 -125 168c0 118 111 200 237 200c131 0 224 -63 224 -160c0 -68 -45 -115 -134 -155v-4c104 -52 161 -102 161 -194c0 -112 -104 -204 -264 -204zM294 38c81 0 137 42 137 105
c0 75 -76 106 -210 170c-32 -31 -73 -71 -73 -140c0 -89 53 -135 146 -135zM347 412c30 30 65 74 65 128c0 77 -44 114 -121 114c-74 0 -117 -42 -117 -95c0 -63 69 -99 173 -147z" />
    <glyph glyph-name="nine.old" horiz-adv-x="609" 
d="M292 590c153 0 277 -100 277 -319c0 -277 -151 -395 -343 -395c-102 0 -174 37 -174 98c0 37 23 64 69 64c42 0 63 -20 73 -78c4 -22 15 -38 54 -38c91 0 149 71 159 285c-47 -31 -98 -51 -160 -51c-128 0 -214 74 -214 214c0 121 91 220 259 220zM290 540
c-68 0 -98 -49 -98 -160c0 -114 38 -160 110 -160c42 0 75 15 106 32v21c0 183 -26 267 -118 267z" />
    <glyph glyph-name="percent.old" horiz-adv-x="830" 
d="M205 326c-87 0 -173 53 -173 167c0 126 104 176 176 176c82 0 173 -55 173 -169c0 -121 -98 -174 -176 -174zM119 -48l504 726h69l-505 -726h-68zM622 -12c-88 0 -172 53 -172 167c0 125 103 176 175 176c81 0 172 -55 172 -169c0 -122 -98 -174 -175 -174zM207 367
c45 0 64 36 64 125c0 102 -21 135 -64 135c-41 0 -65 -31 -65 -127c0 -97 20 -133 65 -133zM624 30c46 0 63 36 63 124c0 103 -20 136 -63 136c-41 0 -65 -33 -65 -127c0 -98 20 -133 65 -133z" />
    <glyph glyph-name="perthousand.old" horiz-adv-x="1225" 
d="M205 326c-87 0 -173 53 -173 167c0 126 104 176 176 176c82 0 173 -55 173 -169c0 -121 -98 -174 -176 -174zM119 -48l504 726h69l-505 -726h-68zM622 -12c-88 0 -172 53 -172 167c0 125 103 176 175 176c81 0 172 -55 172 -169c0 -122 -98 -174 -175 -174zM207 367
c45 0 64 36 64 125c0 102 -21 135 -64 135c-41 0 -65 -31 -65 -127c0 -97 20 -133 65 -133zM624 30c46 0 63 36 63 124c0 103 -20 136 -63 136c-41 0 -65 -33 -65 -127c0 -98 20 -133 65 -133zM1017 -12c-88 0 -173 53 -173 167c0 125 104 176 176 176
c81 0 172 -55 172 -169c0 -122 -98 -174 -175 -174zM1018 30c47 0 65 36 65 124c0 103 -21 136 -65 136c-40 0 -64 -33 -64 -127c0 -98 19 -133 64 -133z" />
    <glyph glyph-name="plus.old" horiz-adv-x="502" 
d="M213 86v174h-167v68h167v174h77v-174h166v-68h-166v-174h-77z" />
    <glyph glyph-name="minus.old" horiz-adv-x="502" 
d="M46 260v68h410v-68h-410z" />
    <glyph glyph-name="multiply.old" horiz-adv-x="470" 
d="M94 101l-50 46l143 146l-138 142l52 48l134 -141l138 141l49 -46l-139 -143l143 -146l-51 -47l-142 144z" />
    <glyph glyph-name="divide.old" horiz-adv-x="502" 
d="M252 403c-42 0 -77 35 -77 76c0 42 35 76 77 76c43 0 78 -34 78 -76c0 -41 -35 -76 -78 -76zM46 260v68h410v-68h-410zM252 32c-42 0 -77 36 -77 77c0 42 35 76 77 76c43 0 78 -34 78 -76c0 -41 -35 -77 -78 -77z" />
    <glyph glyph-name="equal.old" horiz-adv-x="552" 
d="M46 347v68h460v-68h-460zM46 173v68h460v-68h-460z" />
    <glyph glyph-name="less.old" horiz-adv-x="502" 
d="M452 73l-402 176v79l402 176v-76l-332 -139l332 -139v-77z" />
    <glyph glyph-name="greater.old" horiz-adv-x="502" 
d="M452 249l-402 -176v77l332 139l-332 139v76l402 -176v-79z" />
    <glyph glyph-name="plusminus.old" horiz-adv-x="502" 
d="M46 0v68h410v-68h-410zM213 156v164h-167v68h167v164h77v-164h166v-68h-166v-164h-77z" />
    <glyph glyph-name="notequal.old" horiz-adv-x="552" 
d="M46 348v65h262l76 132h67l-76 -132h131v-65h-168l-62 -108h230v-65h-267l-75 -131h-67l75 131h-126v65h163l62 108h-225z" />
    <glyph glyph-name="approxequal.old" horiz-adv-x="560" 
d="M455 458l55 -26c-30 -66 -62 -111 -129 -111c-62 0 -158 46 -210 46c-33 0 -55 -34 -68 -68l-53 30c22 60 60 106 125 106c61 0 155 -46 210 -46c34 0 53 32 70 69zM455 291l55 -26c-30 -66 -62 -111 -129 -111c-62 0 -158 46 -210 46c-33 0 -55 -34 -68 -68l-53 30
c22 60 60 106 125 106c61 0 155 -46 210 -46c34 0 53 32 70 69z" />
    <glyph glyph-name="lessequal.old" horiz-adv-x="502" 
d="M452 132l-402 156v79l402 156v-76l-332 -119l332 -119v-77zM50 0v68h402v-68h-402z" />
    <glyph glyph-name="greaterequal.old" horiz-adv-x="502" 
d="M452 288l-402 -156v77l332 119l-332 119v76l402 -156v-79zM452 68v-68h-402v68h402z" />
    <glyph glyph-name="numbersign.old" horiz-adv-x="540" 
d="M88 0l36 172h-86l17 98h87l23 121h-82l17 98h87l33 169h62l-34 -169h107l34 169h62l-33 -169h85l-17 -98h-88l-26 -121h87l-17 -98h-88l-35 -172h-61l34 172h-109l-32 -172h-63zM204 270h107l24 121h-107z" />
    <glyph glyph-name="dollar.tab" 
d="M261 -158v147c-149 5 -217 59 -217 131c0 45 33 64 70 64c46 0 66 -14 74 -94c4 -38 17 -53 73 -56v247c-150 59 -196 127 -196 219c0 108 83 186 205 200v99h57v-97c145 -4 201 -62 201 -118c0 -38 -29 -71 -67 -71c-57 0 -70 26 -76 96c-4 33 -19 45 -58 48v-228
c160 -65 212 -126 212 -231c0 -106 -88 -198 -222 -209v-147h-56zM407 139c0 51 -23 89 -90 120v-224c59 8 90 44 90 104zM185 565c0 -50 20 -80 85 -112v203c-55 -8 -85 -40 -85 -91z" />
    <glyph glyph-name="Euro.tab" 
d="M25 387v57h73c36 183 167 261 300 261c107 0 177 -39 177 -117c0 -37 -24 -70 -69 -70c-54 0 -75 31 -82 94c-3 35 -11 46 -42 46c-69 0 -111 -55 -121 -214h185l-11 -57h-176v-22c0 -24 0 -47 1 -67h159l-10 -57h-144c15 -131 63 -171 159 -171c60 0 101 18 141 40v-45
c-33 -32 -93 -77 -207 -77c-141 0 -237 80 -262 253h-71v57h65c-1 14 -1 28 -1 43c0 16 0 31 1 46h-65z" />
    <glyph glyph-name="sterling.tab" 
d="M58 331v57h60c-10 38 -19 76 -19 111c0 120 98 206 260 206c129 0 194 -44 194 -109c0 -47 -31 -72 -71 -72c-55 0 -72 32 -85 90c-8 41 -13 45 -43 45c-48 0 -78 -25 -78 -118c0 -41 6 -99 9 -153h154v-57h-151v-11c0 -87 -50 -146 -136 -195v-5h278c41 0 56 8 83 78h38
l-21 -198h-489v91c71 43 111 78 111 151c0 25 -8 56 -17 89h-77z" />
    <glyph glyph-name="yen.tab" 
d="M51 298v57h158l-111 206c-33 61 -44 78 -69 86l-19 7v39h319v-39l-23 -5c-27 -6 -39 -20 -39 -41c0 -14 6 -32 18 -58l77 -172h4l72 165c14 33 19 51 19 66c0 22 -10 31 -39 39l-19 6v39h193v-39l-16 -6c-33 -10 -44 -30 -76 -98l-92 -195h152v-57h-172v-89h172v-57h-172
v-33c0 -60 5 -64 41 -72l39 -7v-40h-316v40l39 7c37 8 43 12 43 72v33h-183v57h183v89h-183z" />
    <glyph glyph-name="zero.tab" 
d="M296 -12c-131 0 -264 107 -264 349c0 267 160 368 269 368c126 0 267 -111 267 -354c0 -256 -149 -363 -272 -363zM299 39c79 0 98 80 98 297c0 246 -23 318 -98 318c-70 0 -97 -67 -97 -301c0 -235 21 -314 97 -314z" />
    <glyph glyph-name="one.tab" 
d="M104 0v40l66 9c38 6 47 13 47 74v401l-111 9v43c99 19 189 65 244 126l37 -8v-571c0 -61 8 -68 46 -74l64 -9v-40h-393z" />
    <glyph glyph-name="two.tab" 
d="M46 0v82c91 71 151 126 211 191c70 78 106 140 106 251c0 104 -33 135 -90 135c-44 0 -54 -13 -56 -49c-4 -77 -30 -100 -87 -100c-47 0 -72 28 -72 72c0 64 75 123 231 123c146 0 252 -66 252 -201c0 -142 -172 -270 -361 -374v-5h231c52 0 59 9 92 79h38l-15 -204h-480
z" />
    <glyph glyph-name="three.tab" 
d="M252 -12c-144 0 -217 44 -217 117c0 40 26 69 71 69c47 0 73 -14 83 -83c9 -47 13 -57 60 -57c81 0 107 64 107 162c0 107 -39 137 -128 137h-51v55h42c88 0 124 37 124 139c0 91 -32 132 -87 132c-31 0 -40 -7 -43 -39c-8 -71 -25 -91 -81 -91c-48 0 -69 27 -69 64
c0 71 90 112 212 112c147 0 238 -63 238 -166c0 -75 -53 -143 -186 -168v-4c126 -9 213 -64 213 -176s-92 -203 -288 -203z" />
    <glyph glyph-name="four.tab" 
d="M222 0v40l38 7c33 7 42 12 42 72v70h-263v59l323 445h102v-428h98l-11 -76h-87v-70c0 -60 7 -65 43 -72l38 -7v-40h-323zM122 265h180v252h-3l-177 -248v-4z" />
    <glyph glyph-name="five.tab" 
d="M255 -12c-130 0 -203 49 -203 116c0 36 25 66 72 66c50 0 76 -16 82 -90c4 -37 13 -46 58 -46c86 0 130 49 130 139c0 104 -68 144 -169 144c-55 0 -93 -7 -115 -16l-11 8l42 384h284c31 0 37 7 62 53h39l-19 -176h-318l-16 -132c22 6 46 13 108 13
c153 0 263 -74 263 -223c0 -136 -112 -240 -289 -240z" />
    <glyph glyph-name="six.tab" 
d="M308 -12c-147 0 -269 98 -269 323c0 284 172 394 336 394c109 0 178 -35 178 -97c0 -39 -24 -64 -73 -64c-52 0 -73 22 -80 77c-3 28 -11 38 -47 38c-73 0 -130 -64 -137 -285c34 26 78 46 143 46c115 0 203 -70 203 -205c0 -134 -90 -227 -254 -227zM310 39
c70 0 83 41 83 166c0 114 -28 150 -90 150c-39 0 -64 -9 -88 -25v-22c0 -197 7 -269 95 -269z" />
    <glyph glyph-name="seven.tab" 
d="M145 0c54 243 174 417 320 569h-292c-43 0 -48 -9 -77 -80h-39l19 204h474v-79c-141 -190 -194 -373 -216 -614h-189z" />
    <glyph glyph-name="eight.tab" 
d="M295 -12c-144 0 -253 60 -253 172c0 74 62 132 148 169v4c-80 42 -120 100 -120 174c0 122 114 198 237 198c113 0 223 -52 223 -162c0 -64 -60 -116 -128 -148v-4c103 -52 155 -104 155 -193c0 -114 -112 -210 -262 -210zM360 416c25 28 52 67 52 124
c0 77 -38 112 -112 112c-66 0 -108 -36 -108 -90c0 -63 58 -98 168 -146zM304 41c74 0 126 37 126 101c0 72 -62 101 -204 168c-28 -30 -59 -70 -59 -138c0 -87 44 -131 137 -131z" />
    <glyph glyph-name="nine.tab" 
d="M295 704c154 0 267 -97 267 -319c0 -287 -161 -398 -334 -398c-109 0 -179 36 -179 98c0 39 25 67 74 67c52 0 73 -21 80 -81c3 -28 11 -38 47 -38c87 0 129 62 135 282c-33 -25 -77 -46 -142 -46c-116 0 -204 70 -204 206c0 134 92 229 256 229zM293 653
c-68 0 -85 -46 -85 -166c0 -111 28 -152 91 -152c38 0 63 10 87 25c1 11 1 11 1 24c0 192 -6 269 -94 269z" />
    <glyph glyph-name="cent.tab" 
d="M317 -12c-159 0 -257 97 -257 258c0 179 125 262 258 282v80h56v-75h9c108 0 172 -34 172 -94c0 -40 -23 -82 -68 -82c-49 0 -58 26 -63 71c-4 33 -15 49 -50 52v-405h4c72 0 121 22 159 41v-45c-26 -28 -83 -66 -163 -78v-151h-56v146h-1zM217 290
c0 -124 35 -186 101 -207v393c-56 -14 -101 -62 -101 -186z" />
    <glyph glyph-name="percent.tab" horiz-adv-x="800" 
d="M206 344c-86 0 -169 56 -169 176c0 132 102 184 172 184c80 0 170 -58 170 -177c0 -127 -96 -183 -173 -183zM98 -50l515 764h71l-517 -764h-69zM590 -13c-85 0 -168 56 -168 175c0 132 101 185 172 185c80 0 169 -58 169 -178c0 -126 -96 -182 -173 -182zM208 387
c45 0 61 31 61 132c0 114 -18 142 -61 142c-40 0 -62 -25 -62 -133c0 -111 18 -141 62 -141zM592 30c45 0 61 31 61 132c0 114 -17 142 -61 142c-39 0 -62 -25 -62 -134c0 -110 19 -140 62 -140z" />
    <glyph glyph-name="perthousand.tab" horiz-adv-x="1100" 
d="M189 344c-79 0 -157 56 -157 176c0 132 95 184 161 184c74 0 157 -58 157 -177c0 -127 -89 -183 -161 -183zM68 -50l521 764h71l-522 -764h-70zM548 -13c-79 0 -158 56 -158 175c0 132 95 185 161 185c74 0 157 -58 157 -178c0 -126 -89 -182 -160 -182zM191 386
c41 0 56 37 56 133c0 110 -17 143 -56 143c-36 0 -57 -31 -57 -134c0 -106 18 -142 57 -142zM550 29c40 0 55 37 55 133c0 109 -16 143 -55 143c-37 0 -57 -31 -57 -135c0 -105 17 -141 57 -141zM907 -13c-79 0 -157 56 -157 175c0 132 95 185 161 185
c74 0 157 -58 157 -178c0 -126 -89 -182 -161 -182zM909 29c41 0 56 37 56 133c0 109 -17 143 -56 143c-37 0 -57 -31 -57 -135c0 -105 18 -141 57 -141z" />
    <glyph glyph-name="plus.tab" 
d="M262 119v184h-177v68h177v184h77v-184h176v-68h-176v-184h-77z" />
    <glyph glyph-name="minus.tab" 
d="M85 303v68h430v-68h-430z" />
    <glyph glyph-name="multiply.tab" 
d="M154 139l-50 46l148 151l-143 147l52 48l139 -146l143 146l49 -46l-144 -148l148 -151l-51 -47l-147 149z" />
    <glyph glyph-name="divide.tab" 
d="M300 448c-42 0 -77 35 -77 76c0 42 35 76 77 76c43 0 78 -34 78 -76c0 -41 -35 -76 -78 -76zM75 305v68h450v-68h-450zM300 77c-42 0 -77 36 -77 77c0 42 35 76 77 76c43 0 78 -34 78 -76c0 -41 -35 -77 -78 -77z" />
    <glyph glyph-name="equal.tab" 
d="M70 390v68h460v-68h-460zM70 216v68h460v-68h-460z" />
    <glyph glyph-name="less.tab" 
d="M506 112l-412 176v79l412 176v-76l-342 -139l342 -139v-77z" />
    <glyph glyph-name="greater.tab" 
d="M506 288l-412 -176v77l342 139l-342 139v76l412 -176v-79z" />
    <glyph glyph-name="florin.tab" 
d="M96 349v58h101l11 65c24 159 111 232 252 232c86 0 137 -39 137 -91c0 -40 -28 -59 -64 -59c-42 0 -62 20 -70 77c-1 21 -7 28 -26 28c-28 0 -48 -21 -60 -95l-27 -157h126v-58h-136l-50 -298c-29 -182 -103 -249 -229 -249c-91 0 -125 39 -125 81c0 34 17 58 60 58
c36 0 54 -14 62 -69c2 -19 6 -25 19 -25c20 0 31 13 41 72l70 430h-92z" />
    <glyph glyph-name="plusminus.tab" 
d="M85 0v68h430v-68h-430zM262 150v174h-177v68h177v174h77v-174h176v-68h-176v-174h-77z" />
    <glyph glyph-name="notequal.tab" 
d="M70 391v65h262l76 132h67l-76 -132h131v-65h-168l-62 -108h230v-65h-267l-75 -131h-67l75 131h-126v65h163l62 108h-225z" />
    <glyph glyph-name="approxequal.tab" 
d="M480 507l55 -26c-30 -66 -62 -111 -129 -111c-66 0 -164 46 -220 46c-33 0 -55 -34 -68 -68l-53 30c22 60 60 106 125 106s161 -46 220 -46c34 0 53 32 70 69zM480 340l55 -26c-30 -66 -62 -111 -129 -111c-66 0 -164 46 -220 46c-33 0 -55 -34 -68 -68l-53 30
c22 60 60 106 125 106s161 -46 220 -46c34 0 53 32 70 69z" />
    <glyph glyph-name="lessequal.tab" 
d="M506 132l-412 166v79l412 166v-76l-342 -129l342 -129v-77zM94 0v68h412v-68h-412z" />
    <glyph glyph-name="greaterequal.tab" 
d="M506 298l-412 -166v77l342 129l-342 129v76l412 -166v-79zM506 68v-68h-412v68h412z" />
    <glyph glyph-name="period.tab" horiz-adv-x="300" 
d="M149 -8c-55 0 -97 43 -97 95c0 54 42 97 97 97s100 -43 100 -97c0 -52 -45 -95 -100 -95z" />
    <glyph glyph-name="comma.tab" horiz-adv-x="300" 
d="M21 -171l-10 30c122 53 151 109 151 166c-8 -8 -24 -14 -44 -14c-46 0 -75 32 -75 83s43 90 100 90c65 0 116 -46 116 -130c0 -91 -66 -190 -238 -225z" />
    <glyph glyph-name="colon.tab" horiz-adv-x="300" 
d="M149 305c-54 0 -97 43 -97 95c0 54 43 96 97 96c55 0 100 -42 100 -96c0 -52 -45 -95 -100 -95zM149 -8c-54 0 -97 43 -97 95c0 54 43 97 97 97c55 0 100 -43 100 -97c0 -52 -45 -95 -100 -95z" />
    <glyph glyph-name="semicolon.tab" horiz-adv-x="300" 
d="M146 305c-54 0 -97 43 -97 95c0 54 43 96 97 96c55 0 100 -42 100 -96c0 -52 -45 -95 -100 -95zM25 -171l-10 30c122 53 151 109 151 166c-8 -8 -24 -14 -44 -14c-46 0 -75 32 -75 83s43 90 100 90c65 0 116 -46 116 -130c0 -91 -66 -190 -238 -225z" />
    <glyph glyph-name="parenleft.tab" horiz-adv-x="400" 
d="M324 -141c-114 76 -247 222 -247 446c0 205 133 364 247 440l27 -29c-94 -87 -133 -227 -133 -394c0 -218 39 -335 133 -434z" />
    <glyph glyph-name="parenright.tab" horiz-adv-x="400" 
d="M77 745c114 -76 247 -233 247 -445c0 -217 -133 -365 -247 -441l-27 29c94 99 134 220 134 418c0 187 -40 323 -134 410z" />
    <glyph glyph-name="bracketleft.tab" horiz-adv-x="400" 
d="M107 -130v864h253v-39l-72 -8c-49 -6 -58 -12 -58 -74v-622c0 -61 9 -68 58 -74l72 -8v-39h-253z" />
    <glyph glyph-name="bracketright.tab" horiz-adv-x="400" 
d="M293 734v-864h-253v39l70 8c51 6 60 13 60 74v622c0 62 -9 68 -60 74l-70 8v39h253z" />
    <glyph glyph-name="braceleft.tab" horiz-adv-x="400" 
d="M359 -129c-205 11 -247 55 -247 125c0 53 53 190 53 229c0 29 -22 50 -117 54v50c93 4 117 26 117 55c0 39 -53 174 -53 227c0 69 42 113 247 125v-42c-96 -13 -112 -27 -112 -77c0 -66 21 -148 21 -201c0 -58 -39 -94 -145 -110v-4c104 -14 145 -51 145 -109
c0 -53 -21 -137 -21 -204c0 -50 16 -63 112 -77v-41z" />
    <glyph glyph-name="braceright.tab" horiz-adv-x="400" 
d="M49 736c205 -12 247 -56 247 -125c0 -53 -53 -186 -53 -226c0 -29 27 -52 117 -56v-50c-97 -4 -117 -23 -117 -52c0 -40 53 -178 53 -231c0 -70 -42 -114 -247 -125v41c96 14 112 27 112 77c0 67 -20 153 -20 206c0 58 28 95 144 107v4c-93 18 -144 54 -144 112
c0 53 20 133 20 199c0 50 -16 64 -112 77v42z" />
    <glyph glyph-name="parenleft.uctab" horiz-adv-x="400" 
d="M324 -97c-114 76 -247 222 -247 446c0 205 133 364 247 440l27 -29c-94 -87 -133 -227 -133 -394c0 -218 39 -335 133 -434z" />
    <glyph glyph-name="parenright.uctab" horiz-adv-x="400" 
d="M77 789c114 -76 247 -233 247 -445c0 -217 -133 -365 -247 -441l-27 29c94 99 134 220 134 418c0 187 -40 323 -134 410z" />
    <glyph glyph-name="bracketleft.uctab" horiz-adv-x="400" 
d="M107 -86v864h253v-39l-72 -8c-49 -6 -58 -12 -58 -74v-622c0 -61 9 -68 58 -74l72 -8v-39h-253z" />
    <glyph glyph-name="bracketright.uctab" horiz-adv-x="400" 
d="M293 778v-864h-253v39l70 8c51 6 60 13 60 74v622c0 62 -9 68 -60 74l-70 8v39h253z" />
    <glyph glyph-name="braceleft.uctab" horiz-adv-x="400" 
d="M359 -85c-205 11 -247 55 -247 125c0 53 53 190 53 229c0 29 -22 50 -117 54v50c93 4 117 26 117 55c0 39 -53 174 -53 227c0 69 42 113 247 125v-42c-96 -13 -112 -27 -112 -77c0 -66 21 -148 21 -201c0 -58 -39 -94 -145 -110v-4c104 -14 145 -51 145 -109
c0 -53 -21 -137 -21 -204c0 -50 16 -63 112 -77v-41z" />
    <glyph glyph-name="braceright.uctab" horiz-adv-x="400" 
d="M49 780c205 -12 247 -56 247 -125c0 -53 -53 -186 -53 -226c0 -29 27 -52 117 -56v-50c-97 -4 -117 -23 -117 -52c0 -40 53 -178 53 -231c0 -70 -42 -114 -247 -125v41c96 14 112 27 112 77c0 67 -20 153 -20 206c0 58 28 95 144 107v4c-93 18 -144 54 -144 112
c0 53 20 133 20 199c0 50 -16 64 -112 77v42z" />
    <glyph glyph-name="space.tab" horiz-adv-x="300" 
 />
    <glyph glyph-name="dollar.oldtab" 
d="M260 -114v103c-148 4 -208 52 -208 121c0 38 25 64 64 64c41 0 65 -19 75 -87c5 -34 15 -48 69 -51v234c-144 54 -190 121 -190 206c0 101 79 177 199 190v88h53v-85c128 -4 196 -57 196 -117c0 -40 -27 -65 -64 -65c-46 0 -71 26 -76 90c-3 32 -17 42 -56 44v-216
c154 -61 205 -122 205 -217c0 -100 -86 -186 -213 -198v-104h-54zM404 135c0 49 -24 84 -90 114v-212c59 9 90 46 90 98zM183 535c0 -50 22 -77 86 -107v192c-55 -7 -86 -38 -86 -85z" />
    <glyph glyph-name="Euro.oldtab" 
d="M10 370v55h84c37 170 166 245 291 245c103 0 185 -37 185 -112c0 -39 -22 -66 -67 -66c-52 0 -72 26 -80 88c-4 37 -18 43 -53 43c-64 0 -114 -60 -127 -198h205l-11 -55h-197v-24c0 -22 0 -42 1 -60h182l-9 -56h-167c19 -122 76 -164 180 -164c48 0 97 18 136 41v-45
c-35 -35 -115 -74 -209 -74c-137 0 -237 77 -263 242h-81v56h75c0 12 -1 25 -1 38c0 16 0 31 2 46h-76z" />
    <glyph glyph-name="sterling.oldtab" 
d="M72 314v55h58c-10 36 -18 72 -18 105c0 111 83 196 243 196c117 0 185 -43 185 -104c0 -42 -25 -67 -66 -67c-47 0 -66 29 -78 83c-7 35 -19 43 -43 43c-49 0 -80 -27 -80 -113c0 -38 6 -93 10 -143h151v-55h-148v-13c0 -82 -46 -137 -127 -184v-5h267c37 0 52 8 78 74
h36l-21 -186h-464v86c68 42 106 75 106 144c0 23 -7 52 -16 84h-73z" />
    <glyph glyph-name="yen.oldtab" 
d="M59 283v55h144l-106 194c-31 57 -45 74 -74 82l-19 6v38h316v-38l-27 -5c-29 -7 -36 -19 -36 -38c0 -13 7 -32 18 -55l77 -153h5l67 147c14 32 19 47 19 62c0 19 -11 28 -40 36l-20 6v38h205v-38l-18 -6c-33 -10 -45 -27 -77 -93l-89 -183h143v-55h-165v-82h165v-55h-165
v-33c0 -56 4 -60 37 -68l38 -6v-39h-304v39l37 6c33 8 40 12 40 68v33h-171v55h171v82h-171z" />
    <glyph glyph-name="zero.oldtab" 
d="M297 -12c-138 0 -258 80 -258 291c0 224 140 311 262 311c139 0 260 -88 260 -295c0 -219 -127 -307 -264 -307zM300 38c63 0 96 69 96 241c0 192 -32 260 -96 260c-59 0 -97 -66 -97 -244c0 -190 30 -257 97 -257z" />
    <glyph glyph-name="one.oldtab" 
d="M100 0v39l73 8c35 4 52 13 52 55v336l-124 6v40c106 16 189 48 252 100l32 -4v-478c0 -42 15 -51 50 -55l70 -8v-39h-405z" />
    <glyph glyph-name="two.oldtab" 
d="M514 103l-15 -103h-443v69c70 51 128 95 191 156c73 71 108 139 108 203c0 89 -38 114 -91 114c-37 0 -47 -12 -49 -41c-3 -62 -29 -85 -78 -85c-43 0 -68 26 -68 67c0 54 62 107 202 107c149 0 243 -62 243 -167c0 -117 -113 -214 -333 -317v-3h333z" />
    <glyph glyph-name="three.oldtab" 
d="M245 -124c-140 0 -211 46 -211 116c0 36 22 62 65 62c42 0 64 -19 75 -71c10 -51 19 -62 72 -62c75 0 123 52 123 163c0 101 -44 136 -137 136h-52v54h43c92 0 130 37 130 137c0 91 -40 131 -104 131c-40 0 -48 -16 -51 -45c-6 -62 -28 -81 -73 -81s-66 27 -66 62
c0 67 83 112 209 112c147 0 235 -67 235 -168c0 -74 -50 -141 -175 -166v-3c125 -10 200 -67 200 -174c0 -110 -91 -203 -283 -203z" />
    <glyph glyph-name="four.oldtab" 
d="M449 -112h-152v188h-281v57l341 445h92v-426h112l-12 -76h-100v-188zM101 152h196v259h-3l-193 -255v-4z" />
    <glyph glyph-name="five.oldtab" 
d="M505 578l-13 -116h-318l-15 -139c23 6 62 13 105 13c142 0 258 -70 258 -217c0 -141 -120 -243 -281 -243c-121 0 -197 50 -197 115c0 32 20 61 65 61c44 0 64 -20 73 -80c5 -40 23 -51 67 -51c85 0 142 56 142 148c0 100 -73 141 -174 141c-53 0 -94 -7 -117 -16l-9 8
l41 376h373z" />
    <glyph glyph-name="six.oldtab" 
d="M298 -12c-165 0 -260 111 -260 321c0 285 172 396 338 396c113 0 171 -41 171 -96c0 -44 -26 -66 -68 -66c-46 0 -66 23 -74 79c-3 25 -17 33 -51 33c-69 0 -146 -70 -154 -283c34 28 91 49 150 49c122 0 204 -75 204 -206c0 -135 -97 -227 -256 -227zM299 38
c61 0 96 45 96 166c0 113 -30 154 -103 154c-40 0 -66 -15 -93 -32v-19c0 -183 26 -269 100 -269z" />
    <glyph glyph-name="seven.oldtab" 
d="M162 -112c51 247 173 414 308 566h-293c-42 0 -48 -9 -75 -78h-36l19 202h469v-74c-139 -190 -193 -370 -222 -616h-170z" />
    <glyph glyph-name="eight.oldtab" 
d="M293 -12c-139 0 -246 60 -246 174c0 74 61 134 148 172v3c-81 43 -121 95 -121 168c0 118 107 200 233 200c131 0 220 -63 220 -160c0 -68 -41 -115 -130 -155v-4c104 -52 156 -102 156 -194c0 -112 -100 -204 -260 -204zM303 38c78 0 132 42 132 105
c0 75 -71 106 -205 170c-32 -31 -67 -71 -67 -140c0 -89 50 -135 140 -135zM356 412c30 30 61 74 61 128c0 75 -46 114 -117 114c-68 0 -113 -41 -113 -95c0 -63 65 -99 169 -147z" />
    <glyph glyph-name="nine.oldtab" 
d="M295 590c157 0 267 -100 267 -325c0 -262 -147 -389 -330 -389c-117 0 -173 37 -173 98c0 37 26 64 69 64c42 0 64 -23 73 -78c5 -28 16 -38 49 -38c79 0 140 72 150 283c-42 -32 -95 -48 -147 -48c-122 0 -207 73 -207 213c0 121 95 220 249 220zM292 540
c-50 0 -87 -49 -87 -160c0 -114 35 -160 103 -160c33 0 62 11 93 32v21c0 183 -26 267 -109 267z" />
    <glyph glyph-name="percent.oldtab" horiz-adv-x="800" 
d="M199 326c-87 0 -169 53 -169 167c0 126 100 176 172 176c82 0 169 -55 169 -169c0 -121 -94 -174 -172 -174zM104 -48l504 726h69l-505 -726h-68zM599 -12c-88 0 -168 53 -168 167c0 125 99 176 171 176c81 0 168 -55 168 -169c0 -122 -94 -174 -171 -174zM201 367
c45 0 60 36 60 125c0 102 -20 135 -60 135c-38 0 -61 -31 -61 -127c0 -97 16 -133 61 -133zM601 30c43 0 59 36 59 124c0 103 -19 136 -59 136c-38 0 -61 -33 -61 -127c0 -98 19 -133 61 -133z" />
    <glyph glyph-name="perthousand.oldtab" horiz-adv-x="1200" 
d="M199 326c-87 0 -169 53 -169 167c0 126 100 176 172 176c82 0 169 -55 169 -169c0 -121 -94 -174 -172 -174zM108 -48l504 726h69l-505 -726h-68zM607 -12c-88 0 -168 53 -168 167c0 125 99 176 171 176c81 0 168 -55 168 -169c0 -122 -94 -174 -171 -174zM201 367
c45 0 60 36 60 125c0 102 -20 135 -60 135c-38 0 -61 -31 -61 -127c0 -97 16 -133 61 -133zM609 30c43 0 59 36 59 124c0 103 -19 136 -59 136c-38 0 -61 -33 -61 -127c0 -98 19 -133 61 -133zM999 -12c-88 0 -168 53 -168 167c0 125 99 176 171 176c81 0 168 -55 168 -169
c0 -122 -94 -174 -171 -174zM1001 30c43 0 59 36 59 124c0 103 -19 136 -59 136c-38 0 -61 -33 -61 -127c0 -98 19 -133 61 -133z" />
    <glyph glyph-name="plus.oldtab" 
d="M262 76v184h-177v68h177v184h77v-184h176v-68h-176v-184h-77z" />
    <glyph glyph-name="minus.oldtab" 
d="M85 260v68h430v-68h-430z" />
    <glyph glyph-name="multiply.oldtab" 
d="M154 96l-50 46l148 151l-143 147l52 48l139 -146l143 146l49 -46l-144 -148l148 -151l-51 -47l-147 149z" />
    <glyph glyph-name="divide.oldtab" 
d="M301 403c-42 0 -77 35 -77 76c0 42 35 76 77 76c43 0 78 -34 78 -76c0 -41 -35 -76 -78 -76zM75 260v68h450v-68h-450zM301 32c-42 0 -77 36 -77 77c0 42 35 76 77 76c43 0 78 -34 78 -76c0 -41 -35 -77 -78 -77z" />
    <glyph glyph-name="equal.oldtab" 
d="M70 347v68h460v-68h-460zM70 173v68h460v-68h-460z" />
    <glyph glyph-name="less.oldtab" 
d="M506 73l-412 176v79l412 176v-76l-342 -139l342 -139v-77z" />
    <glyph glyph-name="greater.oldtab" 
d="M506 249l-412 -176v77l342 139l-342 139v76l412 -176v-79z" />
    <glyph glyph-name="plusminus.oldtab" 
d="M85 0v68h430v-68h-430zM262 146v174h-177v68h177v174h77v-174h176v-68h-176v-174h-77z" />
    <glyph glyph-name="notequal.oldtab" 
d="M70 348v65h262l76 132h67l-76 -132h131v-65h-168l-62 -108h230v-65h-267l-75 -131h-67l75 131h-126v65h163l62 108h-225z" />
    <glyph glyph-name="approxequal.oldtab" 
d="M480 458l55 -26c-30 -66 -62 -111 -129 -111c-66 0 -164 46 -220 46c-33 0 -55 -34 -68 -68l-53 30c22 60 60 106 125 106s161 -46 220 -46c34 0 53 32 70 69zM480 291l55 -26c-30 -66 -62 -111 -129 -111c-66 0 -164 46 -220 46c-33 0 -55 -34 -68 -68l-53 30
c22 60 60 106 125 106s161 -46 220 -46c34 0 53 32 70 69z" />
    <glyph glyph-name="lessequal.oldtab" 
d="M506 132l-412 156v79l412 156v-76l-342 -119l342 -119v-77zM94 0v68h412v-68h-412z" />
    <glyph glyph-name="greaterequal.oldtab" 
d="M506 288l-412 -156v77l342 119l-342 119v76l412 -156v-79zM506 68v-68h-412v68h412z" />
    <glyph glyph-name="zero.num" horiz-adv-x="500" 
d="M249 253c-115 0 -216 75 -216 219c0 163 131 229 219 229c105 0 215 -79 215 -222c0 -155 -117 -226 -218 -226zM251 300c57 0 80 43 80 171c0 150 -27 184 -80 184c-48 0 -81 -33 -81 -174c0 -142 26 -181 81 -181z" />
    <glyph glyph-name="one.num" horiz-adv-x="299" 
d="M25 261v35l27 5c28 7 32 8 32 49v225l-59 6v37c69 12 127 45 164 87l27 -8v-347c0 -41 8 -46 33 -49l25 -5v-35h-249z" />
    <glyph glyph-name="two.num" horiz-adv-x="391" 
d="M23 261v59c63 45 99 76 141 121c44 43 72 91 72 148c0 60 -26 72 -62 72c-25 0 -29 -9 -33 -32c-6 -44 -19 -63 -61 -63c-32 0 -53 21 -53 49c0 46 61 86 160 86c105 0 172 -42 172 -126c0 -74 -78 -147 -231 -222v-3h139c32 0 38 9 56 54h34l-9 -143h-325z" />
    <glyph glyph-name="three.num" horiz-adv-x="399" 
d="M173 253c-102 0 -152 31 -152 80c0 30 21 51 49 51c35 0 55 -17 62 -61c6 -27 10 -31 40 -31c47 0 69 27 69 87c0 74 -35 83 -88 83h-31v48h27c55 0 81 16 81 79c0 57 -22 73 -54 73c-24 0 -30 -6 -33 -28c-5 -35 -16 -54 -56 -54c-29 0 -49 17 -49 45c0 47 61 76 151 76
c99 0 159 -35 159 -103c0 -47 -36 -90 -119 -104v-2c78 -6 137 -38 137 -112s-54 -127 -193 -127z" />
    <glyph glyph-name="four.num" horiz-adv-x="431" 
d="M176 261v35l23 5c26 6 32 8 32 49v8h-210v46l256 289h64v-279h69l-7 -56h-62v-8c0 -41 6 -44 30 -49l23 -5v-35h-218zM91 414h140v162h-5l-135 -157v-5z" />
    <glyph glyph-name="five.num" horiz-adv-x="381" 
d="M156 253c-93 0 -138 34 -138 77c0 32 23 44 50 44c39 0 52 -17 59 -55c6 -25 10 -26 39 -26c52 0 77 26 77 70c0 58 -46 85 -112 85c-32 0 -56 -6 -71 -12l-11 6l29 251l182 -1c25 0 28 8 44 38h33l-14 -121l-207 1l-10 -76c15 4 29 9 73 9c103 0 174 -44 174 -138
c0 -81 -71 -152 -197 -152z" />
    <glyph glyph-name="six.num" horiz-adv-x="442" 
d="M223 253c-101 0 -195 57 -195 208c0 174 125 240 244 240c80 0 124 -26 124 -67c0 -28 -20 -47 -52 -47c-38 0 -52 20 -59 51c-5 23 -8 26 -26 26c-48 0 -95 -30 -99 -159c20 11 61 20 105 20c87 0 148 -42 148 -128c0 -83 -65 -144 -190 -144zM225 294c47 0 64 29 64 95
c0 75 -32 85 -72 85c-23 0 -49 -7 -58 -13v-6c0 -114 13 -161 66 -161z" />
    <glyph glyph-name="seven.num" horiz-adv-x="387" 
d="M84 261c33 143 106 247 205 345h-170c-29 0 -34 -5 -53 -54h-37l14 141h316v-56c-93 -119 -124 -236 -133 -376h-142z" />
    <glyph glyph-name="eight.num" horiz-adv-x="420" 
d="M210 253c-110 0 -185 38 -185 105c0 44 36 86 95 107v2c-50 23 -73 58 -73 104c0 83 82 130 168 130c82 0 161 -31 161 -98c0 -39 -39 -77 -84 -92v-3c71 -30 102 -63 102 -120c0 -76 -77 -135 -184 -135zM253 527c13 15 29 38 29 69c0 49 -28 68 -73 68
c-42 0 -67 -23 -67 -55c0 -33 26 -51 111 -82zM217 290c45 0 79 20 79 60c0 36 -31 53 -140 96c-14 -19 -29 -41 -29 -71c0 -61 30 -85 90 -85z" />
    <glyph glyph-name="nine.num" horiz-adv-x="440" 
d="M219 701c104 0 193 -59 193 -208c0 -166 -115 -240 -242 -240c-82 0 -127 26 -127 66c0 29 20 48 55 48c34 0 48 -18 56 -52c5 -23 11 -25 29 -25c57 0 93 34 98 160c-20 -10 -60 -20 -107 -20c-87 0 -146 40 -146 127c0 81 68 144 191 144zM215 659
c-43 0 -63 -29 -63 -95c0 -70 29 -84 73 -84c17 0 42 4 58 13v9c0 114 -17 157 -68 157z" />
    <glyph glyph-name="zero.den" horiz-adv-x="500" 
d="M249 -112c-115 0 -216 75 -216 219c0 163 131 229 219 229c105 0 215 -79 215 -222c0 -155 -117 -226 -218 -226zM251 -65c57 0 80 43 80 171c0 150 -27 184 -80 184c-48 0 -81 -33 -81 -174c0 -142 26 -181 81 -181z" />
    <glyph glyph-name="one.den" horiz-adv-x="299" 
d="M25 -104v35l27 5c28 8 32 9 32 49v225l-59 6v37c69 13 127 45 164 87l27 -8v-347c0 -40 7 -45 33 -49l25 -5v-35h-249z" />
    <glyph glyph-name="two.den" horiz-adv-x="391" 
d="M23 -104v59c63 46 99 76 141 121c44 43 72 91 72 148c0 61 -26 73 -62 73c-25 0 -29 -10 -33 -33c-6 -44 -19 -63 -61 -63c-32 0 -53 22 -53 49c0 46 61 86 160 86c105 0 172 -42 172 -125c0 -74 -78 -148 -231 -223v-3h139c32 0 38 9 56 55h34l-9 -144h-325z" />
    <glyph glyph-name="three.den" horiz-adv-x="399" 
d="M173 -112c-102 0 -152 31 -152 80c0 31 21 51 49 51c35 0 55 -17 62 -61c6 -27 10 -31 40 -31c47 0 69 27 69 87c0 74 -35 83 -88 83h-31v48h27c55 0 81 16 81 79c0 57 -22 73 -54 73c-24 0 -30 -6 -33 -28c-5 -35 -16 -53 -56 -53c-29 0 -49 16 -49 44
c0 47 61 76 151 76c99 0 159 -35 159 -103c0 -47 -36 -89 -119 -104v-2c78 -6 137 -38 137 -111c0 -75 -54 -128 -193 -128z" />
    <glyph glyph-name="four.den" horiz-adv-x="431" 
d="M176 -104v35l23 5c26 7 32 9 32 49v8h-210v46l256 289h64v-278h69l-7 -57h-62v-8c0 -40 6 -44 30 -49l23 -5v-35h-218zM91 50h140v161h-5l-135 -157v-4z" />
    <glyph glyph-name="five.den" horiz-adv-x="387" 
d="M162 -112c-93 0 -138 34 -138 77c0 32 23 44 50 44c39 0 52 -17 59 -55c6 -25 10 -25 39 -25c52 0 77 26 77 69c0 58 -46 85 -112 85c-32 0 -56 -6 -71 -12l-11 6l29 251h182c25 0 28 7 44 37h33l-14 -121l-207 1l-10 -76c15 4 29 9 73 9c103 0 174 -44 174 -137
c0 -81 -71 -153 -197 -153z" />
    <glyph glyph-name="six.den" horiz-adv-x="442" 
d="M223 -112c-101 0 -195 57 -195 208c0 175 125 240 244 240c80 0 124 -26 124 -67c0 -28 -20 -47 -52 -47c-38 0 -52 20 -59 51c-5 23 -8 26 -26 26c-48 0 -95 -30 -99 -159c20 11 61 20 105 20c87 0 148 -42 148 -128c0 -82 -65 -144 -190 -144zM225 -71
c47 0 64 30 64 95c0 75 -32 86 -72 86c-23 0 -49 -7 -58 -14v-6c0 -114 13 -161 66 -161z" />
    <glyph glyph-name="seven.den" horiz-adv-x="387" 
d="M84 -104c33 143 106 247 205 345h-170c-29 0 -34 -5 -53 -54h-37l14 141h316v-56c-93 -119 -124 -236 -133 -376h-142z" />
    <glyph glyph-name="eight.den" horiz-adv-x="420" 
d="M210 -112c-110 0 -185 38 -185 105c0 44 36 86 95 107v3c-50 23 -73 57 -73 103c0 84 82 130 168 130c82 0 161 -31 161 -98c0 -39 -39 -77 -84 -92v-3c71 -30 102 -63 102 -120c0 -76 -77 -135 -184 -135zM253 162c13 16 29 39 29 69c0 49 -28 68 -73 68
c-42 0 -67 -23 -67 -55s26 -50 111 -82zM217 -75c45 0 79 20 79 60c0 37 -31 53 -140 96c-14 -18 -29 -41 -29 -71c0 -61 30 -85 90 -85z" />
    <glyph glyph-name="nine.den" horiz-adv-x="440" 
d="M218 336c105 0 194 -60 194 -209c0 -165 -111 -239 -242 -239c-81 0 -126 27 -126 66c0 29 15 46 54 46c33 0 46 -19 53 -52c5 -22 13 -23 34 -23c59 0 93 34 98 164c-21 -11 -61 -21 -109 -21c-90 0 -147 42 -146 124c0 81 69 144 190 144zM215 303
c-42 -6 -63 -23 -63 -102c0 -76 29 -94 72 -94c18 0 43 3 59 16v17c-1 119 -16 163 -68 163z" />
    <glyph glyph-name="zero.sub" horiz-adv-x="500" 
d="M249 -132c-115 0 -216 75 -216 219c0 163 131 229 219 229c105 0 215 -79 215 -222c0 -155 -117 -226 -218 -226zM251 -85c57 0 80 43 80 171c0 150 -27 184 -80 184c-48 0 -81 -33 -81 -174c0 -142 26 -181 81 -181z" />
    <glyph glyph-name="one.sub" horiz-adv-x="299" 
d="M25 -124v35l27 5c28 8 32 9 32 49v225l-59 6v37c69 13 127 45 164 87l27 -8v-347c0 -40 7 -45 33 -49l25 -5v-35h-249z" />
    <glyph glyph-name="two.sub" horiz-adv-x="391" 
d="M23 -124v59c63 46 99 76 141 121c44 43 72 91 72 148c0 61 -26 73 -62 73c-25 0 -29 -10 -33 -33c-6 -44 -19 -63 -61 -63c-32 0 -53 22 -53 49c0 46 61 86 160 86c105 0 172 -42 172 -125c0 -74 -78 -148 -231 -223v-3h139c32 0 38 9 56 55h34l-9 -144h-325z" />
    <glyph glyph-name="three.sub" horiz-adv-x="399" 
d="M173 -132c-102 0 -152 31 -152 80c0 31 21 51 49 51c35 0 55 -17 62 -61c6 -27 10 -31 40 -31c47 0 69 27 69 87c0 74 -35 83 -88 83h-31v48h27c55 0 81 16 81 79c0 57 -22 73 -54 73c-24 0 -30 -6 -33 -28c-5 -35 -16 -53 -56 -53c-29 0 -49 16 -49 44
c0 47 61 76 151 76c99 0 159 -35 159 -103c0 -47 -36 -89 -119 -104v-2c78 -6 137 -38 137 -111c0 -75 -54 -128 -193 -128z" />
    <glyph glyph-name="four.sub" horiz-adv-x="431" 
d="M176 -124v35l23 5c26 7 32 9 32 49v8h-210v46l256 289h64v-278h69l-7 -57h-62v-8c0 -40 6 -44 30 -49l23 -5v-35h-218zM91 30h140v161h-5l-135 -157v-4z" />
    <glyph glyph-name="five.sub" horiz-adv-x="387" 
d="M162 -132c-93 0 -138 34 -138 77c0 32 23 44 50 44c39 0 52 -17 59 -55c6 -25 10 -25 39 -25c52 0 77 26 77 69c0 58 -46 85 -112 85c-32 0 -56 -6 -71 -12l-11 6l29 251h182c25 0 28 7 44 37h33l-14 -121l-207 1l-10 -76c15 4 29 9 73 9c103 0 174 -44 174 -137
c0 -81 -71 -153 -197 -153z" />
    <glyph glyph-name="six.sub" horiz-adv-x="442" 
d="M223 -132c-101 0 -195 57 -195 208c0 175 125 240 244 240c80 0 124 -26 124 -67c0 -28 -20 -47 -52 -47c-38 0 -52 20 -59 51c-5 23 -8 26 -26 26c-48 0 -95 -30 -99 -159c20 11 61 20 105 20c87 0 148 -42 148 -128c0 -82 -65 -144 -190 -144zM225 -91
c47 0 64 30 64 95c0 75 -32 86 -72 86c-23 0 -49 -7 -58 -14v-6c0 -114 13 -161 66 -161z" />
    <glyph glyph-name="seven.sub" horiz-adv-x="387" 
d="M84 -124c33 143 106 247 205 345h-170c-29 0 -34 -5 -53 -54h-37l14 141h316v-56c-93 -119 -124 -236 -133 -376h-142z" />
    <glyph glyph-name="eight.sub" horiz-adv-x="420" 
d="M210 -132c-110 0 -185 38 -185 105c0 44 36 86 95 107v3c-50 23 -73 57 -73 103c0 84 82 130 168 130c82 0 161 -31 161 -98c0 -39 -39 -77 -84 -92v-3c71 -30 102 -63 102 -120c0 -76 -77 -135 -184 -135zM253 142c13 16 29 39 29 69c0 49 -28 68 -73 68
c-42 0 -67 -23 -67 -55s26 -50 111 -82zM217 -95c45 0 79 20 79 60c0 37 -31 53 -140 96c-14 -18 -29 -41 -29 -71c0 -61 30 -85 90 -85z" />
    <glyph glyph-name="nine.sub" horiz-adv-x="440" 
d="M218 316c105 0 194 -60 194 -209c0 -165 -111 -239 -242 -239c-81 0 -126 27 -126 66c0 29 15 46 54 46c33 0 46 -19 53 -52c5 -22 13 -23 34 -23c59 0 93 34 98 164c-21 -11 -61 -21 -109 -21c-90 0 -147 42 -146 124c0 81 69 144 190 144zM215 283
c-42 -6 -63 -23 -63 -102c0 -76 29 -94 72 -94c18 0 43 3 59 16v17c-1 119 -16 163 -68 163z" />
    <glyph glyph-name="plus.sub" horiz-adv-x="425" 
d="M182 -79v149h-137v55h137v149h61v-149h137v-55h-137v-149h-61z" />
    <glyph glyph-name="minus.sub" horiz-adv-x="425" 
d="M45 125h335v-55h-335v55z" />
    <glyph glyph-name="zero.sup" horiz-adv-x="500" 
d="M249 343c-115 0 -216 75 -216 219c0 163 131 229 219 229c105 0 215 -79 215 -222c0 -155 -117 -226 -218 -226zM251 390c57 0 80 43 80 171c0 150 -27 184 -80 184c-48 0 -81 -33 -81 -174c0 -142 26 -181 81 -181z" />
    <glyph glyph-name="one.sup" horiz-adv-x="299" 
d="M25 351v35l27 5c28 7 32 8 32 49v225l-59 6v37c69 12 127 45 164 87l27 -8v-347c0 -41 8 -46 33 -49l25 -5v-35h-249z" />
    <glyph glyph-name="two.sup" horiz-adv-x="391" 
d="M23 351v59c63 45 99 76 141 121c44 43 72 91 72 148c0 60 -26 72 -62 72c-25 0 -29 -9 -33 -32c-6 -44 -19 -63 -61 -63c-32 0 -53 21 -53 49c0 46 61 86 160 86c105 0 172 -42 172 -126c0 -74 -78 -147 -231 -222v-3h139c32 0 38 9 56 54h34l-9 -143h-325z" />
    <glyph glyph-name="three.sup" horiz-adv-x="399" 
d="M173 343c-102 0 -152 31 -152 80c0 30 21 51 49 51c35 0 55 -17 62 -61c6 -27 10 -31 40 -31c47 0 69 27 69 87c0 74 -35 83 -88 83h-31v48h27c55 0 81 16 81 79c0 57 -22 73 -54 73c-24 0 -30 -6 -33 -28c-5 -35 -16 -54 -56 -54c-29 0 -49 17 -49 45c0 47 61 76 151 76
c99 0 159 -35 159 -103c0 -47 -36 -90 -119 -104v-2c78 -6 137 -38 137 -112s-54 -127 -193 -127z" />
    <glyph glyph-name="four.sup" horiz-adv-x="431" 
d="M176 351v35l23 5c26 6 32 8 32 49v8h-210v46l256 289h64v-279h69l-7 -56h-62v-8c0 -41 6 -44 30 -49l23 -5v-35h-218zM91 504h140v162h-5l-135 -157v-5z" />
    <glyph glyph-name="five.sup" horiz-adv-x="381" 
d="M156 343c-93 0 -138 34 -138 77c0 32 23 44 50 44c39 0 52 -17 59 -55c6 -25 10 -26 39 -26c52 0 77 26 77 70c0 58 -46 85 -112 85c-32 0 -56 -6 -71 -12l-11 6l29 251l182 -1c25 0 28 8 44 38h33l-14 -121l-207 1l-10 -76c15 4 29 9 73 9c103 0 174 -44 174 -138
c0 -81 -71 -152 -197 -152z" />
    <glyph glyph-name="six.sup" horiz-adv-x="442" 
d="M223 343c-101 0 -195 57 -195 208c0 174 125 240 244 240c80 0 124 -26 124 -67c0 -28 -20 -47 -52 -47c-38 0 -52 20 -59 51c-5 23 -8 26 -26 26c-48 0 -95 -30 -99 -159c20 11 61 20 105 20c87 0 148 -42 148 -128c0 -83 -65 -144 -190 -144zM225 384c47 0 64 29 64 95
c0 75 -32 85 -72 85c-23 0 -49 -7 -58 -13v-6c0 -114 13 -161 66 -161z" />
    <glyph glyph-name="seven.sup" horiz-adv-x="387" 
d="M84 351c33 143 106 247 205 345h-170c-29 0 -34 -5 -53 -54h-37l14 141h316v-56c-93 -119 -124 -236 -133 -376h-142z" />
    <glyph glyph-name="eight.sup" horiz-adv-x="420" 
d="M210 343c-110 0 -185 38 -185 105c0 44 36 86 95 107v2c-50 23 -73 58 -73 104c0 83 82 130 168 130c82 0 161 -31 161 -98c0 -39 -39 -77 -84 -92v-3c71 -30 102 -63 102 -120c0 -76 -77 -135 -184 -135zM253 617c13 15 29 38 29 69c0 49 -28 68 -73 68
c-42 0 -67 -23 -67 -55c0 -33 26 -51 111 -82zM217 380c45 0 79 20 79 60c0 36 -31 53 -140 96c-14 -19 -29 -41 -29 -71c0 -61 30 -85 90 -85z" />
    <glyph glyph-name="nine.sup" horiz-adv-x="440" 
d="M219 791c104 0 193 -59 193 -208c0 -166 -115 -240 -242 -240c-82 0 -127 26 -127 66c0 29 20 48 55 48c34 0 48 -18 56 -52c5 -23 11 -25 29 -25c57 0 93 34 98 160c-20 -10 -60 -20 -107 -20c-87 0 -146 40 -146 127c0 81 68 144 191 144zM215 749
c-43 0 -63 -29 -63 -95c0 -70 29 -84 73 -84c17 0 42 4 58 13v9c0 114 -17 157 -68 157z" />
    <glyph glyph-name="plus.sup" horiz-adv-x="425" 
d="M182 396v149h-137v55h137v149h61v-149h137v-55h-137v-149h-61z" />
    <glyph glyph-name="minus.sup" horiz-adv-x="425" 
d="M45 600h335v-55h-335v55z" />
    <glyph glyph-name="a.ord" horiz-adv-x="481" 
d="M152 245c-81 0 -133 43 -133 115c0 77 41 121 185 151l62 13v60c0 71 -15 83 -62 83c-21 0 -28 -6 -31 -31c-7 -58 -27 -80 -74 -80c-38 0 -61 21 -61 56c0 58 72 98 198 98c110 0 175 -34 175 -119v-221c0 -33 2 -45 21 -54c10 -6 29 -7 39 -8v-32
c-16 -12 -51 -31 -104 -31c-51 0 -83 19 -93 52h-5c-21 -27 -58 -52 -117 -52zM215 314c22 0 42 10 51 23v134l-37 -4c-50 -5 -69 -30 -69 -86c0 -50 24 -67 55 -67z" />
    <glyph glyph-name="b.ord" horiz-adv-x="544" 
d="M259 245c-82 0 -150 19 -202 51v467c0 42 -3 46 -27 59l-32 16v30l197 17l13 -8s-7 -38 -7 -98v-43c0 -47 -5 -82 -5 -82h4c35 29 88 56 150 56c81 0 171 -54 171 -209c0 -180 -112 -256 -262 -256zM267 290c69 0 104 50 104 182c0 107 -35 157 -101 157
c-32 0 -55 -10 -69 -18v-298c16 -14 39 -23 66 -23z" />
    <glyph glyph-name="c.ord" horiz-adv-x="447" 
d="M242 245c-141 0 -220 86 -220 228c0 177 145 237 266 237c94 0 142 -33 142 -85c0 -39 -24 -66 -58 -66c-47 0 -65 29 -69 68c-3 32 -11 37 -37 37c-48 0 -100 -35 -100 -151s45 -188 144 -188c53 0 85 16 118 33v-39c-26 -33 -95 -74 -186 -74z" />
    <glyph glyph-name="d.ord" horiz-adv-x="556" 
d="M204 245c-95 0 -178 63 -178 217c0 179 117 248 254 248c22 0 45 -2 65 -7c0 0 -2 19 -2 39v31c0 28 -4 32 -27 45l-35 20v30l202 17l11 -8s-6 -38 -6 -98v-410c0 -42 2 -46 28 -56l25 -11v-32l-185 -25l-9 7l3 46h-3c-37 -28 -90 -53 -143 -53zM278 326
c33 0 53 10 66 17v293c-16 18 -42 29 -67 29c-64 0 -103 -61 -103 -176c0 -116 40 -163 104 -163z" />
    <glyph glyph-name="e.ord" horiz-adv-x="474" 
d="M250 245c-151 0 -228 86 -228 234c0 147 114 231 228 231c124 0 199 -62 202 -224h-287c6 -120 58 -161 145 -161c55 0 94 15 129 32v-39c-31 -34 -99 -73 -189 -73zM245 666c-42 0 -76 -41 -80 -136l144 8c0 93 -14 128 -64 128z" />
    <glyph glyph-name="f.ord" horiz-adv-x="324" 
d="M15 255v35l22 6c30 8 32 11 32 49v290h-61v33l61 31v12c0 112 89 174 222 174c72 0 114 -28 114 -70c0 -32 -25 -56 -59 -56c-38 0 -59 21 -62 61c-2 23 -12 26 -21 26c-27 0 -49 -26 -49 -82v-64h103l-15 -65h-88v-289c0 -40 3 -43 31 -49l33 -7v-35h-263z" />
    <glyph glyph-name="g.ord" horiz-adv-x="484" 
d="M197 84c-130 0 -203 33 -203 93c0 43 37 71 101 92v3c-39 7 -68 41 -68 80c0 51 40 84 68 102v3c-41 20 -70 61 -70 107c0 92 88 146 193 146c48 0 79 -4 109 -14c35 33 78 59 125 59c31 0 58 -19 58 -51s-19 -52 -46 -52c-26 0 -36 10 -46 26c-9 15 -34 14 -63 -8v-3
c34 -15 58 -48 58 -91c0 -93 -87 -146 -195 -146c-32 0 -58 2 -82 14c-11 -7 -21 -23 -21 -37c0 -17 11 -31 43 -31h154c86 0 147 -31 147 -114c0 -94 -83 -178 -262 -178zM215 132c107 0 151 40 151 78c0 30 -18 50 -75 50h-144c-15 -8 -46 -33 -46 -69
c0 -37 32 -59 114 -59zM218 472c44 0 65 29 65 97s-22 100 -65 100c-41 0 -61 -32 -61 -97c0 -71 21 -100 61 -100z" />
    <glyph glyph-name="h.ord" horiz-adv-x="561" 
d="M15 255v35l22 6c30 8 32 11 32 49v418c0 42 -2 46 -27 59l-31 16v30l198 17l12 -8s-7 -41 -7 -98v-43c0 -47 -5 -84 -5 -84h4c47 32 103 58 168 58c73 0 115 -37 115 -113v-252c0 -39 4 -41 32 -49l21 -6v-35h-247v35l20 4c28 6 28 9 28 51v210c0 52 -18 71 -59 71
c-30 0 -59 -9 -77 -15v-266c0 -43 2 -46 28 -51l21 -4v-35h-248z" />
    <glyph glyph-name="i.ord" horiz-adv-x="282" 
d="M15 255v35l22 6c30 8 32 11 32 49v241c0 35 -2 41 -28 57l-30 19v29l198 20l12 -9c-1 -29 -7 -58 -7 -127v-230c0 -39 4 -41 33 -49l22 -6v-35h-254zM139 766c-49 0 -86 34 -86 77c0 47 37 79 86 79c46 0 84 -32 84 -79c0 -43 -38 -77 -84 -77z" />
    <glyph glyph-name="j.ord" horiz-adv-x="270" 
d="M20 84c-80 0 -122 38 -122 83c0 34 23 56 61 56s60 -19 65 -75c1 -16 7 -24 17 -24c19 0 28 20 28 45v417c0 35 -3 40 -28 57l-30 19v29l198 20l12 -9c-1 -29 -7 -58 -7 -135v-296c0 -120 -81 -187 -194 -187zM139 766c-49 0 -86 34 -86 77c0 47 37 79 86 79
c47 0 82 -32 82 -79c0 -43 -35 -77 -82 -77z" />
    <glyph glyph-name="k.ord" horiz-adv-x="537" 
d="M358 255c-54 71 -98 146 -131 209v21l85 86c30 34 41 49 41 64c0 13 -11 22 -30 27l-13 3v35h202v-35l-18 -5c-23 -6 -42 -13 -82 -53l-72 -72c46 -81 89 -159 133 -214c9 -12 19 -19 33 -24l19 -7v-35h-167zM15 255v35l22 6c30 8 32 11 32 49v418c0 39 -2 46 -27 59
l-31 16v30l198 17l12 -8s-7 -41 -7 -98v-434c0 -41 3 -45 28 -51l18 -4v-35h-245z" />
    </font>
</defs>
</svg>
